#TITLE:Voodoo Mon Amour;
#SUBTITLE:;
#ARTIST:Diablo Swing Orchestra;
#TITLETRANSLIT:;
#SUBTITLETRANSLIT:;
#ARTISTTRANSLIT:;
#CREDIT:;
#BANNER:;
#BACKGROUND:;
#LYRICSPATH:;
#CDTITLE:;
#MUSIC:Voodoo mon amour.mp3;
#OFFSET:-4.020;
#SAMPLESTART:62.520;
#SAMPLELENGTH:14.420;
#SELECTABLE:YES;
#BPMS:0.000=200.000;
#STOPS:;
#BGCHANGES:;

//---------------dance-single - ----------------
#NOTES:
     dance-single:
     :
     Hard:
     8:
     0.621,0.623,0.500,0.208,0.604: // measure 1
1000
0000
0100
0000
1000
0000
0001
0000
0000
0100
0000
0102
,  // measure 2
0000
0000
0000
0010
0000
0000
0000
0000
0000
1003
0000
1000
,  // measure 3
0100
0000
0000
1000
0000
0000
0001
0000
0100
0001
0000
0020
,  // measure 4
0000
0031
0001
0100
,  // measure 5
0010
0000
0000
1000
0000
0000
0100
0000
1000
0000
0000
1001
,  // measure 6
0000
0000
0000
0001
0000
0000
0100
0000
0000
0010
0000
1000
,  // measure 7
0001
0000
0000
1000
0000
0000
1000
0000
0001
0100
0000
0020
,  // measure 8
0000
0100
0000
1030
,  // measure 9
1100
0000
0000
0101
0000
0000
1000
0001
1000
0001
0000
1001
,  // measure 10
0000
0000
0001
0100
0000
0101
0000
0000
0010
1000
0000
0000
,  // measure 11
0001
0000
0000
1000
0000
0000
0010
0000
1000
0010
0000
0110
,  // measure 12
0000
0000
0001
1000
0000
0000
0001
0000
0010
0001
0000
2000
,  // measure 13
0000
0000
0010
0000
0000
3001
1000
0000
0100
1000
0000
1001
,  // measure 14
0000
0000
0000
0001
0000
0000
0100
0000
0000
0010
0000
1000
,  // measure 15
0010
0000
0000
0100
0000
0010
1000
0000
0010
1000
0000
0002
,  // measure 16
0000
0000
0000
0000
,  // measure 17
1003
0000
0100
0000
1000
0000
0001
0000
0100
0000
0010
0000
,  // measure 18
0110
0000
0000
0010
0000
1000
0010
0000
0000
0010
0000
0100
,  // measure 19
0010
0000
1000
0010
0000
0100
0010
0000
0000
1000
0000
0001
,  // measure 20
0010
0000
0000
0010
0000
0100
0010
0000
0000
0010
0000
0001
,  // measure 21
0010
0000
0100
0010
0000
1000
0010
0000
0100
0010
0000
0001
,  // measure 22
1000
0000
0000
1000
0000
0001
0100
0000
0000
0100
0000
0010
,  // measure 23
1000
0000
1000
0100
0000
0010
0100
0000
0000
0010
0000
0001
,  // measure 24
1000
0000
0000
1001
0000
0000
0001
0000
0101
0000
0000
0000
,  // measure 25
2002
0000
3003
1001
,  // measure 26
0001
0000
0000
0100
0000
0000
0001
0000
1000
0000
0000
1001
,  // measure 27
0000
0000
2100
0000
0000
0000
0010
0000
0000
3001
0000
0000
,  // measure 28
0001
0000
0000
0100
0000
0000
0010
0000
1000
0000
0000
1010
,  // measure 29
0000
0000
0000
0010
0000
0000
1000
0000
0001
1000
0000
0001
,  // measure 30
0010
0000
0000
0100
0000
0000
0010
0000
0001
0010
0000
0010
,  // measure 31
0001
0000
0000
0100
0000
0000
1000
0000
0100
0001
0000
0000
,  // measure 32
1000
0000
0000
0100
0000
0000
1000
0000
0010
0000
0100
0000
,  // measure 33
0202
0000
0000
0000
0000
0000
0303
0000
0001
1000
0000
1001
,  // measure 34
0000
0101
0010
1001
,  // measure 35
1000
0000
0000
0100
0000
0000
1000
0000
0010
0100
0000
0000
,  // measure 36
0001
0000
0000
0110
0000
0000
1000
0000
0100
1000
0000
0100
,  // measure 37
0010
0000
0001
0000
1000
0000
0010
0000
1000
0000
0001
0000
,  // measure 38
0100
0000
0000
0001
0000
0010
0001
0000
1000
0001
0000
0000
,  // measure 39
0100
0000
0000
0010
0000
1000
0001
0000
0100
0010
0000
0000
,  // measure 40
2010
0001
0100
3001
,  // measure 41
1000
0000
0001
0000
0000
0101
0000
0000
0100
0010
0100
0010
,  // measure 42
1000
0000
0000
0001
0000
0100
0001
0000
0000
1000
0000
0100
,  // measure 43
1000
0000
0000
0001
0000
0010
0001
0000
0010
0100
0000
0010
,  // measure 44
0001
0000
0000
1000
0000
0010
1000
0000
0000
0001
0000
0100
,  // measure 45
0001
0000
0000
1000
0000
0100
0010
0000
0100
1000
0000
0100
,  // measure 46
0010
0000
0000
0001
0000
0100
0010
0000
0000
1000
0000
0100
,  // measure 47
0010
0000
0000
0001
0000
1000
0010
0000
0000
0100
0000
0001
,  // measure 48
0010
0101
0010
1001
,  // measure 49
1000
0001
1000
0001
1000
0001
0200
0000
0000
0320
0000
0000
,  // measure 50
0130
0000
0000
0000
0000
0110
0000
0000
0000
1000
0000
0000
,  // measure 51
0001
0000
0000
0100
0000
0002
0000
0000
0000
1003
0000
0000
,  // measure 52
1000
0000
0000
0100
0000
0001
0100
0000
0000
1000
0000
0000
,  // measure 53
0010
0100
0001
1000
,  // measure 54
0100
0000
0000
0000
0000
0011
0000
0000
0000
1000
0000
0000
,  // measure 55
0001
0000
0000
0100
0000
0010
0100
0000
0000
0001
0000
0000
,  // measure 56
1000
0000
0000
0010
0000
0100
1000
0000
0000
0100
0000
0100
,  // measure 57
0010
1000
0100
0010
,  // measure 58
0011
0100
1010
0100
,  // measure 59
0011
0100
1001
0010
,  // measure 60
0011
0000
0000
0001
0000
1000
0100
0000
1000
0100
0000
1000
,  // measure 61
0100
1000
0010
0101
,  // measure 62
1001
0100
1010
0100
,  // measure 63
0011
1000
0110
1001
,  // measure 64
0011
0000
0000
1000
0000
0100
1000
0000
0001
0100
0000
0001
,  // measure 65
0100
0000
0000
0010
0000
1000
0001
0000
0000
1000
0000
0000
,  // measure 66
2000
0010
0001
3100
,  // measure 67
1000
0000
0100
0000
0000
1001
0000
0000
0100
0001
0000
0000
,  // measure 68
1000
0001
1000
0001
0000
1001
0000
0000
0000
1000
0000
0000
,  // measure 69
0100
0000
0000
0010
0000
0012
0000
0000
0000
0103
0000
0000
,  // measure 70
1000
0000
0000
0100
0000
1000
0100
0000
1000
0000
0000
1002
,  // measure 71
0000
0010
1000
0103
,  // measure 72
0001
0000
0100
0010
0000
2010
0000
0000
0000
3001
0000
0000
,  // measure 73
1000
0000
0000
0100
0000
2100
0000
0000
0000
3010
0000
0000
,  // measure 74
1000
0000
0000
0001
0000
0010
0100
0000
0010
0000
0000
0210
,  // measure 75
0000
0001
0010
1300
,  // measure 76
1100
0010
1001
0100
,  // measure 77
1010
0100
0011
1010
,  // measure 78
0101
0000
0000
0010
0000
1000
0001
0000
0000
1000
0000
0100
,  // measure 79
2000
0001
0010
3001
,  // measure 80
0101
0010
1001
0100
,  // measure 81
1010
0100
0110
1001
,  // measure 82
1100
0000
0000
0001
0000
0000
0010
0000
0001
1000
0000
0001
,  // measure 83
1000
0000
0000
0001
0000
0100
0001
0000
1000
0001
0000
1000
,  // measure 84
0002
0010
2003
0010
,  // measure 85
3001
0000
0100
0000
0000
0001
1000
0001
1000
0001
1000
0001
,  // measure 86
1000
0000
0000
0000
,  // measure 87
1000
0000
0001
0000
0100
0000
0010
0000
0000
1001
0000
2002
,  // measure 88
0000
0000
0000
0000
,  // measure 89
3003
0000
0000
0000
;

//---------------dance-single - ----------------
#NOTES:
     dance-single:
     :
     Medium:
     7:
     0.541,0.586,0.383,0.533,0.312: // measure 1
0001
0000
1000
0000
0001
0000
1000
0000
0000
0001
0000
0200
,  // measure 2
0000
0000
0000
0300
,  // measure 3
0001
0000
0000
0100
0000
0001
0100
0000
0000
0010
0000
0000
,  // measure 4
0100
1000
0100
0001
,  // measure 5
1000
0000
0000
0100
0000
0000
0010
0000
0001
0010
0000
0002
,  // measure 6
0000
0000
0000
0003
,  // measure 7
1000
0000
0000
0001
0000
0000
0100
0000
0001
0100
0000
0000
,  // measure 8
0001
0100
1000
0001
,  // measure 9
0010
0000
0000
1000
0000
0000
0001
0000
1000
0000
0000
2002
,  // measure 10
0000
0000
3003
0000
0000
0220
0000
0000
0000
0330
0000
0000
,  // measure 11
1000
0000
0000
0100
0000
0000
0010
0000
0001
0010
0000
0002
,  // measure 12
0000
0000
1003
0100
,  // measure 13
1000
0000
0000
0010
0000
0000
0100
0000
0010
0100
0000
0010
,  // measure 14
0200
0300
0010
1000
,  // measure 15
0001
0000
0000
1000
0000
0000
0100
0000
1000
0100
0000
2000
,  // measure 16
0000
0000
0000
3000
,  // measure 17
0001
0000
1000
0000
0001
0000
0010
0000
0100
0000
0010
0000
,  // measure 18
0100
0000
0000
0010
0000
0000
0100
0000
0000
0010
0000
0100
,  // measure 19
1000
0000
0000
0001
0000
0000
1000
0000
0000
0001
0000
1000
,  // measure 20
0010
0100
0010
0100
,  // measure 21
0001
0000
0100
0001
0000
0000
1000
0000
0100
1000
0000
0100
,  // measure 22
1000
0000
0000
0001
0000
0000
0100
0000
0000
0010
0000
1000
,  // measure 23
0010
0000
0000
0100
0000
0000
0001
0000
0000
0010
0000
0001
,  // measure 24
0010
0000
0000
0100
0000
0000
0010
0000
0100
0000
0000
0000
,  // measure 25
2002
0000
3003
1001
,  // measure 26
0202
0000
0000
0303
0000
0000
0001
0000
0000
1000
0000
0100
,  // measure 27
1000
0000
0000
0100
0000
0000
0010
0000
0000
0100
0000
1000
,  // measure 28
0001
0000
0000
0100
0000
0000
0010
0000
0100
0000
0000
0110
,  // measure 29
0000
0000
0000
0010
0000
0000
0100
0000
0000
0001
0000
1000
,  // measure 30
0001
1000
0100
0010
,  // measure 31
0100
0000
0000
1000
0000
0001
0100
0000
0000
0001
0000
0200
,  // measure 32
0010
0010
0020
0330
,  // measure 33
2002
0000
0000
0000
0000
0000
3003
0000
1000
0001
0000
1001
,  // measure 34
0000
0101
1000
0001
,  // measure 35
1000
0000
0000
0100
0000
0000
0010
0000
0100
1000
0000
0000
,  // measure 36
0001
0000
0000
0100
0000
0000
0001
0000
0000
1000
0000
0100
,  // measure 37
1000
0000
0000
0100
0000
0000
1000
0000
0000
0001
0000
0100
,  // measure 38
0001
0000
0000
0001
0000
0100
0000
0000
0100
0001
0000
0000
,  // measure 39
1000
0000
0000
0100
0000
1000
0000
0000
1000
0001
0000
0000
,  // measure 40
0002
0010
1000
0103
,  // measure 41
1000
0000
0001
0000
0000
2002
0000
0000
0000
3003
0000
0000
,  // measure 42
1000
0000
0000
0100
0000
1000
0100
0000
0000
0010
0000
0001
,  // measure 43
0010
0000
0000
0001
0000
0100
0001
0000
0000
0100
0000
0010
,  // measure 44
0100
0001
0010
1000
,  // measure 45
0100
0001
0010
0001
,  // measure 46
1000
0000
0000
0001
0000
0100
0010
0000
0000
1000
0000
0100
,  // measure 47
0010
0000
0000
0100
0000
1000
0001
0000
0000
0100
0000
0000
,  // measure 48
1001
0011
1100
1010
,  // measure 49
2000
3200
0320
0032
,  // measure 50
1003
0000
0000
0000
0000
1001
0000
0000
0000
0001
0000
0000
,  // measure 51
0100
0000
0000
0000
0000
0110
0000
0000
0000
0010
0000
0000
,  // measure 52
1000
0000
0000
0001
0000
0100
0001
0000
0000
1000
0000
0000
,  // measure 53
0100
1000
0001
0010
,  // measure 54
0100
0000
0000
0000
0000
0110
0000
0000
0000
0010
0000
0000
,  // measure 55
0001
0000
0000
0000
0000
1001
0000
0000
0000
1000
0000
0000
,  // measure 56
0010
0001
0010
1000
,  // measure 57
0001
1000
0100
1000
,  // measure 58
2200
3300
0202
0303
,  // measure 59
0022
0033
2020
3030
,  // measure 60
1001
0000
0000
0001
0000
0000
0100
0000
0000
0010
0000
1000
,  // measure 61
0100
0010
0001
1000
,  // measure 62
2200
3300
2020
3030
,  // measure 63
0022
0033
0202
0303
,  // measure 64
1001
0000
0000
0001
0000
0000
0100
0000
0000
0001
0000
0100
,  // measure 65
0001
0100
0010
1000
,  // measure 66
0100
1000
0001
1000
,  // measure 67
0001
0000
0100
0000
0000
0001
0000
0000
0100
0001
0000
0000
,  // measure 68
2002
0000
0000
0000
0000
3003
0000
0000
0000
0001
0000
0000
,  // measure 69
0100
0000
0000
0000
0000
0101
0000
0000
0000
0001
0000
0000
,  // measure 70
1000
0000
0000
0100
0000
1000
0100
0000
0000
1000
0000
0000
,  // measure 71
0001
0010
0100
0010
,  // measure 72
0001
0000
0000
0000
0000
1001
0000
0000
0000
0100
0000
0000
,  // measure 73
0010
0000
0000
0000
0000
0110
0000
0000
0000
0100
0000
0000
,  // measure 74
0001
0000
0000
1000
0000
0100
1000
0000
0000
0010
0000
0000
,  // measure 75
0100
0001
1000
0100
,  // measure 76
2200
3300
2020
3030
,  // measure 77
0220
0330
0202
0303
,  // measure 78
1001
0000
0000
0001
0000
0100
0001
0000
0000
0100
0000
0001
,  // measure 79
0100
0001
1000
0100
,  // measure 80
0022
0033
2200
3300
,  // measure 81
2020
3030
0202
0303
,  // measure 82
1001
0000
0000
0001
0000
0100
0001
0000
0000
1000
0000
0100
,  // measure 83
1000
0001
0100
0010
,  // measure 84
2002
3003
0220
0330
,  // measure 85
1000
0100
0010
0001
,  // measure 86
1001
0000
0000
0000
,  // measure 87
1000
0000
0001
0000
1000
0000
0001
0000
0000
1000
0000
2002
,  // measure 88
0000
0000
0000
0000
,  // measure 89
3003
0000
0000
0000
;

//---------------dance-single - ----------------
#NOTES:
     dance-single:
     :
     Easy:
     5:
     0.372,0.440,0.217,0.483,0.000: // measure 1
0000
0000
0000
0000
,  // measure 2
2002
0000
0000
3003
,  // measure 3
0001
0100
0001
1000
,  // measure 4
0100
0000
1000
0000
,  // measure 5
0001
0000
0100
0010
,  // measure 6
0110
0000
0010
1000
,  // measure 7
0001
0010
0001
1000
,  // measure 8
0100
0000
0010
0000
,  // measure 9
0220
0000
0330
0000
,  // measure 10
2002
0000
3003
0000
,  // measure 11
0001
0100
0010
1000
,  // measure 12
0100
0000
1000
0000
,  // measure 13
0001
0010
0001
0000
,  // measure 14
1001
0000
1000
0000
,  // measure 15
0010
0100
0010
1000
,  // measure 16
0001
0000
0010
0000
,  // measure 17
1001
0000
0110
0000
,  // measure 18
1001
0000
0001
0000
,  // measure 19
0100
0001
0100
0000
,  // measure 20
0001
0000
1000
0000
,  // measure 21
0100
1000
0001
0100
,  // measure 22
0010
0000
0100
0000
,  // measure 23
0010
1000
0001
0000
,  // measure 24
1001
0000
1000
0000
,  // measure 25
2002
0000
3003
0001
,  // measure 26
1001
0000
1000
0000
,  // measure 27
0100
1000
0001
0000
,  // measure 28
0100
0010
0100
0001
,  // measure 29
1000
0100
0010
0000
,  // measure 30
0100
0000
0010
0000
,  // measure 31
0001
1000
0001
0000
,  // measure 32
0100
0001
0100
0000
,  // measure 33
2002
0000
3003
0000
,  // measure 34
1001
0000
0001
0100
,  // measure 35
1000
0000
0001
0100
,  // measure 36
0010
0100
0010
1000
,  // measure 37
0001
0000
1000
0100
,  // measure 38
0010
0100
0010
0100
,  // measure 39
0010
0001
1000
0000
,  // measure 40
0001
0100
1000
0100
,  // measure 41
0001
1000
0001
1000
,  // measure 42
0200
0000
0320
0000
,  // measure 43
0032
0000
0203
0000
,  // measure 44
0310
1000
0010
0100
,  // measure 45
0001
0010
0001
0000
,  // measure 46
2000
0000
3002
0000
,  // measure 47
0203
0000
0320
0000
,  // measure 48
1030
0010
0100
0001
,  // measure 49
1000
0001
2002
3003
,  // measure 50
0220
0000
0330
0000
,  // measure 51
2002
0000
3003
0000
,  // measure 52
1000
0100
0010
0001
,  // measure 53
0100
0010
1000
0000
,  // measure 54
2002
0000
3003
0000
,  // measure 55
0220
0000
0330
0000
,  // measure 56
0001
0100
0010
0100
,  // measure 57
0001
0010
0100
0010
,  // measure 58
0002
0000
0203
0000
,  // measure 59
0302
0000
2003
0000
,  // measure 60
3100
1000
0001
0100
,  // measure 61
0010
0100
0010
0100
,  // measure 62
0020
0000
2030
0000
,  // measure 63
3200
0000
0320
0000
,  // measure 64
0031
0010
0001
0100
,  // measure 65
0010
0100
0001
1000
,  // measure 66
0001
0000
1000
0001
,  // measure 67
2002
0000
0000
3003
,  // measure 68
0220
0000
0330
0000
,  // measure 69
2002
0000
3003
0000
,  // measure 70
1000
0100
1000
0001
,  // measure 71
0100
0000
0001
0100
,  // measure 72
0220
0000
0330
0000
,  // measure 73
2002
0000
3003
0000
,  // measure 74
0001
0100
0010
1000
,  // measure 75
0100
0000
1000
0100
,  // measure 76
0020
0000
0230
0000
,  // measure 77
2300
0000
3002
0000
,  // measure 78
0103
0001
0100
1000
,  // measure 79
0100
0001
0100
1000
,  // measure 80
0200
0000
0320
0000
,  // measure 81
2030
0000
3200
0000
,  // measure 82
0310
0001
0010
1000
,  // measure 83
0010
0001
0100
0001
,  // measure 84
2000
0000
3002
0000
,  // measure 85
0103
0010
1000
0001
,  // measure 86
1001
0000
0000
0000
,  // measure 87
0110
0000
0000
0000
,  // measure 88
2002
0000
0000
0000
,  // measure 89
3003
0000
0000
0000
;

//---------------dance-single - ----------------
#NOTES:
     dance-single:
     :
     Beginner:
     2:
     0.171,0.257,0.150,0.025,0.000: // measure 1
0000
0000
0000
0000
,  // measure 2
0100
0000
0010
0000
,  // measure 3
0100
0000
0001
0000
,  // measure 4
1000
0000
0000
0000
,  // measure 5
0001
0000
0000
0000
,  // measure 6
1000
0000
0100
0000
,  // measure 7
1000
0000
0001
0000
,  // measure 8
0010
0000
0000
0000
,  // measure 9
0100
0000
0000
0000
,  // measure 10
1001
0000
0000
0000
,  // measure 11
1000
0000
0001
0000
,  // measure 12
0100
0000
0000
0000
,  // measure 13
0010
0000
0100
0000
,  // measure 14
0001
0000
1000
0000
,  // measure 15
0100
0000
0010
0000
,  // measure 16
0001
0000
0000
0000
,  // measure 17
1001
0000
1001
0000
,  // measure 18
1001
0000
0000
0000
,  // measure 19
0001
0000
0100
0000
,  // measure 20
0001
0000
0000
0000
,  // measure 21
1000
0000
0100
0000
,  // measure 22
1000
0000
0000
0000
,  // measure 23
0001
0000
1000
0000
,  // measure 24
0100
0000
0100
0000
,  // measure 25
0200
0000
0300
0000
,  // measure 26
0110
0000
0010
0000
,  // measure 27
0001
0000
0000
0000
,  // measure 28
1000
0000
0010
0000
,  // measure 29
1000
0000
0000
0000
,  // measure 30
0001
0000
0100
0000
,  // measure 31
0010
0000
1000
0000
,  // measure 32
0001
0000
0000
0000
,  // measure 33
1001
0000
0000
0000
,  // measure 34
1001
0000
0000
0000
,  // measure 35
1000
0000
0000
0000
,  // measure 36
0100
0000
0010
0000
,  // measure 37
0100
0000
0010
0000
,  // measure 38
0001
0000
0000
0000
,  // measure 39
1000
0000
0000
0000
,  // measure 40
0001
0000
0100
0000
,  // measure 41
0010
0000
0100
0000
,  // measure 42
0001
0000
0000
0000
,  // measure 43
0001
0000
1000
0000
,  // measure 44
0100
0000
0000
0000
,  // measure 45
0100
0000
0000
0000
,  // measure 46
1000
0000
0000
0000
,  // measure 47
0001
0000
0010
0000
,  // measure 48
0001
0000
0000
0000
,  // measure 49
0100
0000
0000
0000
,  // measure 50
0110
0000
0000
0000
,  // measure 51
1001
0000
0000
0000
,  // measure 52
1000
0000
0001
0000
,  // measure 53
1000
0000
0000
0000
,  // measure 54
1001
0000
0000
0000
,  // measure 55
0110
0000
0000
0000
,  // measure 56
0010
0000
1000
0000
,  // measure 57
0001
0000
0000
0000
,  // measure 58
1000
0000
0100
0000
,  // measure 59
0010
0000
0001
0000
,  // measure 60
1000
0000
0000
0000
,  // measure 61
0001
0000
0000
0000
,  // measure 62
1000
0000
0010
0000
,  // measure 63
0100
0000
0001
0000
,  // measure 64
0100
0000
0000
0000
,  // measure 65
0001
0000
0000
0000
,  // measure 66
1001
0000
0000
0000
,  // measure 67
0000
0000
0000
0000
,  // measure 68
1001
0000
0000
0000
,  // measure 69
0110
0000
0000
0000
,  // measure 70
0010
0000
1000
0000
,  // measure 71
0001
0000
0000
0000
,  // measure 72
1001
0000
0000
0000
,  // measure 73
0110
0000
0000
0000
,  // measure 74
0010
0000
0001
0000
,  // measure 75
1000
0000
0000
0000
,  // measure 76
0001
0000
0100
0000
,  // measure 77
0001
0000
1000
0000
,  // measure 78
0001
0000
0000
0000
,  // measure 79
1000
0000
0000
0000
,  // measure 80
1000
0000
0001
0000
,  // measure 81
1000
0000
0100
0000
,  // measure 82
1000
0000
0000
0000
,  // measure 83
1000
0000
0000
0000
,  // measure 84
0001
0000
0100
0000
,  // measure 85
0001
0000
1000
0000
,  // measure 86
0100
0000
0000
0000
,  // measure 87
0110
0000
0000
0000
,  // measure 88
2002
0000
0000
0000
,  // measure 89
3003
0000
0000
0000
;
