#TITLE:Virus Funk;
#SUBTITLE:;
#ARTIST:Nhato;
#TITLETRANSLIT:;
#SUBTITLETRANSLIT:;
#ARTISTTRANSLIT:;
#CREDIT:;
#BANNER:Virus Funk.PNG;
#BACKGROUND:Virus Funk-bg.PNG;
#LYRICSPATH:;
#CDTITLE:;
#MUSIC:Virus Funk.mp3;
#OFFSET:-0.020;
#SAMPLESTART:49.110;
#SAMPLELENGTH:14.540;
#SELECTABLE:YES;
#BPMS:0.000=132.000;
#STOPS:;
#BGCHANGES:0.000=Virus Funk.avi=1.000=1=1=0,
264.000=Virus Funk-bg.PNG=1.000=1=0=1,
99999=-nosongbg-=1.000=0=0=0 // don't automatically add -songbackground-
;

//---------------dance-single - ----------------
#NOTES:
     dance-single:
     :
     Hard:
     7:
     0.533,0.484,0.397,0.364,0.132:
0000
0000
0000
0000
,
2000
0002
3003
0000
0002
0200
0303
0000
,
1010
0000
0000
0000
1001
0000
0000
2200
0000
0000
0000
0000
3300
0000
0000
0000
,
1000
0000
0100
0000
1000
0000
0000
0102
0000
0000
0000
0000
0013
0000
0001
0000
,
1001
0000
0000
0000
0011
0000
0000
0220
0000
0000
0000
0000
0330
0000
0000
0000
,
0010
0000
0000
0000
1001
0000
0000
0000
0100
0000
0000
0000
1000
0100
0000
0000
,
1100
0000
0000
0000
1001
0000
0000
0202
0000
0000
0000
0000
0303
0000
0000
0000
,
0001
0000
0100
0000
0010
0000
1000
0200
0000
0000
0000
0000
0310
0000
0001
0000
,
0011
1100
1010
0101
,
0001
0100
0001
1000
0100
0000
1000
0000
,
0001
0010
0100
0010
0001
0000
1000
0000
,
0001
0100
1000
0100
0000
0010
0100
0010
,
0000
1000
0001
1000
0100
0000
0011
0000
,
0001
1000
0010
1000
0100
0000
1000
0000
,
0010
0100
0001
0010
0100
0000
0010
0000
,
0001
0000
0000
1100
0000
0000
1002
0000
0000
0000
0100
0000
0103
0000
0000
0000
,
0101
0101
1001
1001
,
1000
0100
0010
0001
1000
0010
0100
0002
,
0100
0100
0103
0220
,
0330
0000
1001
0000
1000
0100
1000
0001
,
0100
0000
0000
0100
0000
0000
0010
0000
0000
0010
0000
0000
0110
0000
0000
0000
,
1001
0000
1100
0000
0010
0001
0100
0001
,
1000
0100
0010
0100
1000
0010
0100
0001
,
1000
0000
1001
0000
0001
0100
0010
1000
,
0100
0000
0000
1000
0000
0000
0001
0000
0000
0100
0000
0000
0101
0000
0000
0000
,
0110
0000
1001
0000
1000
0100
0001
0200
,
1000
1000
1000
1300
,
0001
1000
0100
1000
0020
0000
0130
0000
,
0010
0100
0001
0010
0200
0000
0301
0000
,
0010
0001
0100
2000
0000
3100
0001
0020
,
0000
0130
0010
0001
1000
0001
1001
0000
,
0010
1000
0100
1000
0200
0000
0310
0000
,
0100
1000
0010
0100
2000
0000
3100
0010
,
1000
0000
0000
0001
0000
0000
2001
0000
0000
0000
0100
0000
3100
0000
0000
0000
,
1001
1001
1001
2001
,
3002
0000
0000
0000
1003
0000
0000
0000
0001
0000
0000
0100
0000
0000
0010
0000
,
0200
0010
0000
0301
,
0002
0010
0000
1003
,
2000
0100
0000
3001
,
0020
0000
0000
0000
1030
0000
0010
0000
1000
0000
0000
0001
0000
0000
0010
0000
,
0200
0001
0000
1300
,
0020
0001
0000
1030
,
0001
0100
0010
1000
,
0001
0100
0001
0100
0001
1000
0001
1000
,
0001
0100
0010
1000
0100
0001
0100
1000
,
0010
0100
0001
0100
1000
0100
0010
1000
,
0100
0010
0100
0010
0100
0010
0100
0010
,
2002
0000
3003
0220
,
0330
0000
1010
0000
0001
0100
0001
0010
,
0100
0000
0000
0010
0000
0000
0001
0000
0000
1000
0000
0000
0001
0000
0100
0002
,
0000
0000
1003
0000
0100
0000
1000
0200
0000
0000
1300
0000
0010
0000
0100
0000
,
0001
0000
0010
0000
0100
0000
0001
0000
0100
0000
0010
0001
0000
0000
2000
0002
,
0000
0000
3003
0000
1001
0000
0000
0000
0001
0000
0100
0010
0000
0100
0010
0000
,
1000
0000
0000
0100
0000
0000
1000
0000
0000
0001
0000
0000
0100
0000
0001
0000
,
1000
0100
0010
0100
0010
0100
1000
0001
,
0100
0000
0000
0001
0000
0000
0100
0000
0001
0000
0000
0000
1001
0000
0000
0000
,
2100
0000
3001
0000
1000
0010
0100
0001
,
0020
0000
0000
0100
0000
0000
0100
0000
0000
0001
0000
0000
0031
0000
0000
0000
,
0010
0000
0001
0000
1000
0000
0001
0100
0000
0000
0100
0000
0010
0000
1000
0000
,
0001
0100
0010
1000
0001
1000
0100
0000
,
1001
0000
0101
0000
0110
0000
0010
1000
,
0002
0000
0000
0010
0000
0000
1000
0000
0000
0100
0000
0000
0103
0000
0000
0000
,
1000
0000
0100
0000
0010
0000
0001
2000
0000
0000
3100
0000
1000
0000
0010
0000
,
0100
0000
0000
0000
0010
0000
0000
0000
1100
0000
0000
0010
0000
0000
0001
0000
,
1000
0010
0010
0001
0100
0100
1000
0001
,
1001
0000
0000
0000
;

//---------------dance-single - ----------------
#NOTES:
     dance-single:
     :
     Challenge:
     8:
     0.596,0.592,0.372,0.405,0.252: // measure 1
0000
0000
0000
0000
,  // measure 2
1001
2002
3003
0000
0110
0220
0330
0000
,  // measure 3
1001
0000
0000
0000
0101
0000
0000
0202
0000
0000
0303
0000
0001
1000
0001
1000
,  // measure 4
0100
0000
0010
0000
0100
0000
1000
0002
0000
0000
0000
0000
0103
0000
0010
0000
,  // measure 5
1001
0000
0000
0000
0101
0000
0000
2002
0000
0000
3003
0000
1000
0100
1000
0100
,  // measure 6
1000
0000
0000
0000
0110
0000
0000
0000
0011
0000
0000
0000
0100
0001
0000
0000
,  // measure 7
0101
0000
0000
0000
1010
0000
0000
2002
0000
0000
3003
0000
0001
1000
0001
1000
,  // measure 8
0001
0000
0100
0000
0010
0000
1000
0002
0000
0000
0000
0000
0013
0000
0001
1000
,  // measure 9
0001
0101
1010
1001
,  // measure 10
1000
0100
0001
0100
2000
0000
3010
0000
,  // measure 11
0100
0010
1000
0001
0020
0000
0130
0000
,  // measure 12
0010
0001
0100
2000
0000
3100
0001
0020
,  // measure 13
0000
0031
1000
0001
1000
1000
1001
0000
,  // measure 14
0001
0010
0100
0010
0002
0000
1003
0000
,  // measure 15
1000
0010
0100
0001
0020
0000
0130
1000
,  // measure 16
0100
0000
0000
0010
0000
0000
1002
0000
0000
0000
0100
0000
0103
0000
0000
0000
,  // measure 17
1010
0101
0011
1100
,  // measure 18
1000
0100
0001
0100
1000
0010
0001
0020
,  // measure 19
0100
0100
0130
2002
,  // measure 20
3003
0000
0000
0000
1001
0000
0000
0000
0001
0100
0001
0000
1000
0010
1000
0000
,  // measure 21
0001
0000
0000
0010
0000
0000
0001
0000
0000
1000
0000
0000
0100
0000
0010
0000
,  // measure 22
0210
0000
0000
0000
1300
0000
0000
0000
1000
0010
1000
0000
0001
0100
0001
0000
,  // measure 23
1000
0100
0001
1000
0010
0001
0100
0000
,  // measure 24
1020
0000
0000
0000
0130
0000
0000
0000
0001
1000
0001
0000
1000
0100
0010
0000
,  // measure 25
0001
0000
0000
0100
0000
0000
0001
0000
0000
1000
0000
0000
0100
0000
0010
0000
,  // measure 26
0012
0000
0000
0000
1003
0000
0000
0000
1000
0001
1000
0001
1000
0000
0002
0000
,  // measure 27
0100
0100
0100
0103
,  // measure 28
1001
0000
0000
1000
0100
0000
1000
0000
0100
0000
0010
0000
0001
0000
0000
0000
,  // measure 29
0100
0000
0000
0010
1000
0000
0001
0000
0010
0000
0100
0000
0010
0000
0001
0000
,  // measure 30
1000
0100
0001
0200
0000
1300
0010
0002
,  // measure 31
0000
0013
1000
0001
1000
0100
0011
0000
,  // measure 32
1001
0000
0000
0001
0100
0000
1000
0000
0100
0000
0010
0000
1000
0000
0000
0000
,  // measure 33
0001
0000
0000
0010
0100
0000
0010
0000
0001
0000
1000
0000
0100
0000
1000
0000
,  // measure 34
0001
0000
0000
1000
0000
0000
2001
0000
0000
0000
0100
0000
3100
0000
0000
0000
,  // measure 35
1000
0100
0001
0100
1000
0100
0001
0100
,  // measure 36
0020
0000
0000
0000
0031
0000
1000
0000
0001
0000
0000
0101
0000
0000
0100
0000
,  // measure 37
0020
0100
0000
1030
,  // measure 38
2000
0010
0000
3001
,  // measure 39
0020
0100
0000
1030
,  // measure 40
0002
0000
0000
0000
1003
0000
0100
0000
0010
0000
0000
0100
0000
0000
1000
0000
,  // measure 41
0002
0100
1000
0103
,  // measure 42
2000
0001
0100
3001
,  // measure 43
2000
3100
0020
0130
,  // measure 44
0001
0100
0001
0100
1000
0100
1000
0100
,  // measure 45
0001
0010
1000
0010
0001
0100
1000
0001
,  // measure 46
0010
1000
0001
0010
1000
0010
0001
1000
,  // measure 47
0100
0001
0010
1000
0100
0001
0010
1000
,  // measure 48
2002
0000
3003
0220
,  // measure 49
0330
0000
0000
0000
1001
0000
0000
0000
1000
0000
0100
0000
1000
0000
0001
0100
,  // measure 50
0010
0000
0000
0100
0000
0000
0001
0000
0000
1000
0000
0000
0100
0000
1000
0100
,  // measure 51
0000
0000
0010
0000
0001
0000
1000
0001
0000
0000
0100
0000
0010
0000
1000
0000
,  // measure 52
0100
0000
0010
0000
0001
0000
0100
0000
0010
0000
1000
0001
0000
0001
2000
0002
,  // measure 53
0000
0000
3003
0000
1001
0000
0000
0000
1000
0000
0001
0100
0000
0100
0001
0000
,  // measure 54
1000
0000
0000
0100
0000
0000
0001
0000
0000
0100
0000
0000
1000
0000
0001
0000
,  // measure 55
0100
0000
0010
0000
1000
0000
0100
0000
0010
0000
0001
1000
0001
1000
0001
0000
,  // measure 56
1000
0000
0000
0100
0000
0000
1000
0000
0001
0000
0000
0000
1001
0000
0000
0000
,  // measure 57
0102
0000
0000
0000
1003
0000
0100
0000
1000
0000
0100
0000
1000
0000
0001
0100
,  // measure 58
0002
0000
0000
0010
0000
0000
1000
0000
0000
0100
0000
0000
1003
0000
0000
0000
,  // measure 59
1000
0000
0100
0000
1000
0000
0001
0200
0000
0000
0310
0000
0100
0000
0001
0010
,  // measure 60
0001
1000
0100
1000
0010
0100
1001
0000
,  // measure 61
0120
0000
0000
0000
1030
0000
0001
0000
0010
0000
0001
0000
1000
0100
1000
0000
,  // measure 62
0002
0000
0000
0010
0000
0000
1000
0000
0000
0100
0000
0000
1003
0000
0001
0000
,  // measure 63
0010
0000
0001
0000
1000
0000
0100
0000
1000
0000
0001
0000
1000
0001
1000
0001
,  // measure 64
0100
0000
0000
0000
0010
0000
0000
0000
1010
0000
0000
0100
0000
0000
0001
0000
,  // measure 65
0100
0000
0001
0100
0001
0000
1000
0000
0100
1000
0100
0000
1100
0000
0000
0000
,  // measure 66
1001
0000
0000
0000
;

//---------------dance-single - ----------------
#NOTES:
     dance-single:
     :
     Medium:
     6:
     0.455,0.457,0.356,0.314,0.087:
0000
0000
0000
0000
,
1000
2000
3000
0000
0001
0002
0003
0000
,
0100
0000
0000
0000
0010
0000
0000
0220
0000
0000
0000
0000
0330
0000
0000
0000
,
0100
0200
0300
0000
0010
0020
0030
0000
,
1000
0000
0000
0000
0001
0000
0000
2002
0000
0000
0000
0000
3003
0000
0000
0000
,
0010
0110
0100
0001
,
1000
0000
0000
0000
0001
0000
0000
2002
0000
0000
0000
0000
3003
0000
0000
0000
,
0001
0002
0003
0000
0100
0200
0300
0000
,
0101
0101
0110
1001
,
1000
0000
0001
0100
0002
0000
0013
0000
,
0001
0000
0100
0010
0200
0000
0301
0000
,
1000
0100
0010
0001
0000
0010
0001
0010
,
0000
0001
0100
0001
0100
0000
1010
0000
,
0010
0000
0100
0001
2000
0000
3100
0000
,
1000
0000
0001
0010
0200
0000
0310
0000
,
0001
0000
0000
1000
0000
0000
2001
0000
0000
0000
0001
0000
3001
0000
0000
0000
,
1001
1001
0110
0110
,
0010
0100
0010
0100
0001
1000
0001
2000
,
0002
0000
3003
2002
,
3003
0000
1001
0000
0001
0100
0001
0000
,
1000
0000
0000
0100
0000
0000
1000
0000
0000
0100
0000
0000
1000
0000
0000
0000
,
0001
0000
0110
0000
1000
0001
1000
0000
,
0001
0000
0010
0000
0100
0010
0001
1000
,
0001
0000
1001
0000
0010
0100
0010
0000
,
0100
0000
0000
0010
0000
0000
1000
0000
0000
0001
0000
0000
1000
0000
0000
0000
,
0001
0000
0011
0000
1000
0100
0010
0002
,
1000
1000
1000
1003
,
0001
0100
0001
0100
0001
0000
1100
0000
,
1000
0100
1000
0100
1000
0000
0011
0000
,
0001
0100
0001
1000
0000
0001
1000
0100
,
0000
1000
0100
0010
0001
0000
1100
0000
,
0001
0010
0100
0010
0001
0000
1100
0000
,
0010
1000
0001
1000
0010
0000
0101
0000
,
1000
0000
0000
0001
0000
0000
1002
0000
0000
0000
0100
0000
0103
0000
0000
0000
,
0101
1001
1100
1001
,
0001
0000
0000
0000
1000
0000
0000
0000
0001
0000
0000
1000
0000
0000
0001
0000
,
0020
0100
0000
0130
,
0002
1000
0000
1003
,
0200
0010
0000
0301
,
0020
0000
0000
0000
1030
0000
0000
0000
0001
0000
0000
0100
0000
0000
0001
0000
,
2000
0010
0000
3001
,
0002
0010
0000
0103
,
0010
0100
0001
1000
,
0001
0010
0001
0000
1000
0100
1000
0000
,
0101
0101
1010
1010
,
0001
0100
0001
0000
1000
0001
1000
0000
,
0001
0010
0001
0010
0100
1000
0100
2000
,
0002
0000
3003
0220
,
0330
0000
1001
0000
0001
0100
0001
0000
,
1000
0000
0000
0100
0000
0000
0010
0000
0000
0100
0000
0000
1000
0000
0000
0000
,
0001
0100
0001
0000
1000
0010
0100
0000
,
0001
1000
0001
1000
0100
0000
0010
0000
,
2002
0000
3003
0000
0001
1000
0010
0000
,
0100
0000
0000
0010
0000
0000
0100
0000
0000
0001
0000
0000
1000
0000
0000
0000
,
0001
0010
0100
0000
0010
0001
1000
0000
,
0001
0000
0000
1000
0000
0000
0001
0000
1000
0000
0000
0000
0110
0000
0000
0000
,
2001
0001
0100
3100
,
1000
0000
0000
0100
0000
0000
0010
0000
0000
0001
0000
0000
0100
0000
0000
0000
,
0002
0010
1000
0103
,
0001
0100
0001
0000
1000
0100
1000
0000
,
1002
0010
1000
0103
,
0001
0000
0000
0100
0000
0000
0001
0000
0000
1000
0000
0000
0001
0000
0000
0000
,
1000
0000
0100
0000
1000
0100
0010
0001
,
0100
0000
0000
0000
0010
0000
0000
0000
1000
0000
0000
0010
0000
0000
0100
0000
,
0101
0000
0000
1001
0000
0000
0110
0000
,
1001
0000
0000
0000
;

//---------------dance-single - ----------------
#NOTES:
     dance-single:
     :
     Easy:
     3:
     0.290,0.377,0.199,0.265,0.000:
0000
0000
0000
0000
,
1000
0000
0001
0000
,
0100
0010
0100
0010
,
0100
0000
0001
0000
,
1000
0100
0010
0001
,
0100
0000
0001
0000
,
1000
0010
0100
0001
,
1000
0000
0100
0000
,
1002
1000
1000
1003
,
0001
0000
0100
0000
,
0001
0100
0001
0000
,
1000
0000
0100
0000
,
1000
0100
0010
0000
,
0001
0000
1000
0000
,
0001
1000
0001
0000
,
0110
0000
0100
0000
,
1001
1001
0110
0110
,
0001
0100
0010
1000
,
2002
0000
0000
3003
,
0220
0330
0010
1000
,
0001
0000
1000
0000
,
0001
0010
0001
0010
,
0100
0010
0001
1000
,
1001
0000
0100
0010
,
0100
0000
0001
0000
,
1000
0100
0010
0002
,
1000
1000
1000
1003
,
0100
0010
0220
0330
,
1000
0001
2002
3003
,
0001
0010
0100
1000
,
0100
0010
0002
1003
,
0001
0100
0220
0330
,
1000
0001
2002
3003
,
1000
0100
0001
0100
,
1000
1000
0001
0001
,
0100
0010
0110
0000
,
1002
0000
0000
0000
,
0203
0000
0000
0000
,
0320
0000
0000
0000
,
2030
0000
3200
0000
,
0320
0000
0000
0000
,
0032
0000
0000
0000
,
2003
0000
0000
0000
,
0002
0000
0000
3003
,
1000
0100
0010
0001
,
1000
0010
0100
0001
,
0100
1000
0100
0001
,
2002
0000
0000
3003
,
0220
0330
0010
1000
,
0001
0010
0100
0010
,
0001
0000
1000
0100
,
0001
0100
1000
0001
,
2002
3003
0001
0100
,
0001
0100
0010
1000
,
0001
0001
1000
1000
,
1001
0000
0110
1001
,
0220
0330
0010
1000
,
0001
0010
0100
0000
,
0010
0001
1000
0100
,
0010
0100
1000
0000
,
0001
0100
1000
0100
,
0001
1000
0001
0000
,
1000
0100
0010
0001
,
0100
0010
1000
0001
,
0100
0000
0000
0100
0000
0000
0110
0000
,
1001
0000
0000
0000
;

//---------------dance-single - ----------------
#NOTES:
     dance-single:
     :
     Beginner:
     1:
     0.145,0.215,0.083,0.017,0.000:
0000
0000
0000
0000
,
1000
0000
0001
0000
,
0110
0000
0000
0000
,
0001
0000
1000
0000
,
0110
0000
0000
0000
,
0100
0000
0010
0000
,
1001
0000
0000
0000
,
0010
0000
0100
0000
,
1001
0000
0000
0000
,
0001
0000
0100
0000
,
0001
0000
1000
0000
,
0100
0000
0010
0000
,
0001
0000
0000
0000
,
1000
0000
0010
0000
,
1000
0000
0001
0000
,
0100
0000
0010
0000
,
0100
0100
0100
0100
,
0200
0000
0000
0300
,
0110
0000
0000
0000
,
1001
0000
0001
0000
,
0100
0000
0000
0000
,
0001
0000
0010
0000
,
0100
0000
0010
0000
,
0001
0000
1000
0000
,
0001
0000
0000
0000
,
1000
0000
0010
0000
,
0100
0100
0100
0100
,
0100
0000
0001
0000
,
1000
0000
0001
0000
,
0010
0000
0100
0000
,
0010
0000
0000
0000
,
0001
0000
0100
0000
,
0010
0000
1000
0000
,
0001
0000
1000
0000
,
0001
0001
0001
0001
,
0001
0000
0000
0000
,
1000
0000
0000
0000
,
0100
0000
0000
0000
,
1000
0000
0000
0000
,
0001
0000
0100
0000
,
0001
0000
0000
0000
,
0100
0000
0000
0000
,
0010
0000
0000
0000
,
1000
0000
0100
0000
,
0001
0000
0100
0000
,
1000
1000
1000
1000
,
2000
0000
0000
0000
,
3000
0000
0000
0000
,
1001
0000
0000
0000
,
0001
0000
0100
0000
,
0001
0000
1000
0000
,
0100
0000
0010
0000
,
0001
0000
0000
0000
,
1000
0000
0010
0000
,
1000
0000
0001
0000
,
1001
0000
0000
0000
,
1001
0000
0001
0000
,
0100
0000
0000
0000
,
0010
0000
1000
0000
,
0001
0000
0000
0000
,
1000
0000
0100
0000
,
0010
0000
0000
0000
,
0100
0000
0010
0000
,
0001
0001
0001
0000
,
1000
0000
0000
0000
,
1001
0000
0000
0000
;
