#TITLE:Think About Things;
#SUBTITLE:;
#ARTIST:Daưi & Gagnamagniư;
#TITLETRANSLIT:;
#SUBTITLETRANSLIT:;
#ARTISTTRANSLIT:;
#CREDIT:;
#BANNER:Think About Things.PNG;
#BACKGROUND:Think About Things-bg.PNG;
#LYRICSPATH:;
#CDTITLE:;
#MUSIC:Think About Things.mp3;
#OFFSET:-0.960;
#SAMPLESTART:61.430;
#SAMPLELENGTH:15.110;
#SELECTABLE:YES;
#BPMS:0.000=127.000;
#STOPS:;
#BGCHANGES:-2.500=Think About Things.avi=1.000=1=0=1,
231.000=Think About Things-bg.PNG=1.000=1=0=1,
99999=-nosongbg-=1.000=0=0=0 // don't automatically add -songbackground-
;

//---------------dance-single - ----------------
#NOTES:
     dance-single:
     :
     Hard:
     7:
     0.406,0.469,0.220,0.229,0.147: // measure 1
0000
0000
0000
0000
,  // measure 2
0000
0000
0000
0000
,  // measure 3
0000
0000
0000
0000
,  // measure 4
0000
0000
0000
0000
,  // measure 5
0020
0000
0000
0000
,  // measure 6
0000
0000
0000
0000
,  // measure 7
0200
0000
0000
0000
,  // measure 8
0330
0000
0000
0000
,  // measure 9
0002
0000
0000
0000
0000
0000
0000
0000
0000
0000
0000
0000
0100
0000
0000
0203
,  // measure 10
0000
0000
0010
0001
,  // measure 11
0301
0000
0000
0000
0000
0000
0000
0000
1000
0000
0000
0000
0100
0000
0000
2000
,  // measure 12
0000
0000
0000
3000
,  // measure 13
0001
0000
0000
0000
0100
0000
0001
0000
0100
0000
0000
0000
0001
0000
0000
0001
,  // measure 14
1000
0000
0100
0010
0100
0000
0010
0000
,  // measure 15
0001
0100
0001
1000
0010
1000
0100
0010
,  // measure 16
0001
1000
0002
0000
2000
0000
3003
0000
,  // measure 17
1000
0000
0000
0000
0100
0000
0000
0000
1000
0000
0000
0000
0001
0000
0000
0100
,  // measure 18
0000
0001
0010
0000
0001
1000
0001
1000
,  // measure 19
0100
0000
0000
0000
0010
0000
0100
0000
0010
0000
0000
0000
0001
0000
0000
2000
,  // measure 20
0000
0010
0000
3010
,  // measure 21
0100
0000
0010
0000
1000
0000
0001
0000
0100
0000
0000
0000
0001
0000
0000
0010
,  // measure 22
0000
0001
1000
0000
0001
0000
0010
0100
,  // measure 23
0010
0001
1000
0010
0100
0010
1000
0002
,  // measure 24
0000
0010
0000
0013
,  // measure 25
1000
0000
0010
0000
1000
0000
0000
0000
0001
0000
0100
0000
0001
0000
0000
0101
,  // measure 26
0000
0001
1000
0000
0100
0010
0100
0000
,  // measure 27
0010
0000
0000
0000
0001
0000
0000
1000
0000
0010
0000
0100
0000
0010
0000
2000
,  // measure 28
0000
0000
0001
0000
0000
3000
0001
0010
,  // measure 29
0100
0000
0000
0000
0010
0000
0001
0000
0100
0000
0010
0000
1000
0000
0000
0001
,  // measure 30
0000
0100
0001
1000
0100
0000
1000
0001
,  // measure 31
0100
0000
1000
0000
0100
0000
0001
0000
0010
0000
0000
0000
0100
0000
0000
0020
,  // measure 32
0000
0001
0031
0000
1000
0001
1001
0000
,  // measure 33
0001
0000
0001
0000
0100
0000
0010
0000
1000
0000
0000
0000
0001
0000
0000
2100
,  // measure 34
0000
0000
0000
0000
0010
0000
0000
0000
0001
0000
0000
0000
3100
0000
0000
1000
,  // measure 35
0001
0000
0101
0000
0010
1000
0001
0000
,  // measure 36
1000
0000
0100
0000
0010
0000
0001
0000
1000
0001
1000
0000
0001
0000
0000
0000
,  // measure 37
0100
0000
0100
0000
0001
0000
1000
0000
0100
0000
0000
0000
1001
0000
0000
0102
,  // measure 38
0000
0000
0000
0000
0010
0000
0000
0000
1000
0000
0000
0000
0103
0000
0000
0001
,  // measure 39
1000
0000
0001
0100
0010
0000
1001
0000
,  // measure 40
1000
0100
1000
0100
0010
0001
1000
0001
,  // measure 41
0200
0000
0000
0000
1000
0000
0000
0000
0010
0000
0000
0000
0301
0000
0000
0102
,  // measure 42
0000
0000
0000
0000
1003
0000
0000
1000
0100
0000
0000
0100
0010
0000
0000
0010
,  // measure 43
0002
0010
1003
1001
,  // measure 44
1020
0000
0130
0001
2000
0000
3100
0000
,  // measure 45
0021
0000
0000
0000
0100
0000
0000
0000
1000
0000
0000
0000
0130
0000
0000
0210
,  // measure 46
0000
0000
1300
0000
1000
0010
0100
0000
,  // measure 47
0201
1000
0010
0301
,  // measure 48
0001
0100
1000
0100
0001
1000
0001
0000
,  // measure 49
0220
0000
0000
0330
,  // measure 50
0000
0000
0110
0000
0000
1001
0000
0000
0101
0000
0000
0000
0110
0000
0000
0000
,  // measure 51
1001
0000
0001
0000
0100
0000
0001
0100
0000
0001
0000
1000
0000
0000
0100
0000
,  // measure 52
1000
0000
0000
0000
0100
0000
0010
0000
0001
0010
0001
0000
1000
0000
0001
0000
,  // measure 53
0100
0000
0100
0000
0010
0000
0100
0000
0001
0000
0000
0000
1100
0000
0000
1002
,  // measure 54
0000
0000
0000
0000
0010
0000
0000
0000
1000
0000
0000
0000
0103
0000
0000
0001
,  // measure 55
1000
0000
0100
0001
0100
1000
0010
0000
,  // measure 56
0100
0010
0100
1000
0100
0001
0010
0100
,  // measure 57
0020
0000
0000
0000
0031
0000
0000
0000
0011
0000
0000
0000
1100
0000
0000
1001
;

//---------------dance-single - ----------------
#NOTES:
     dance-single:
     :
     Medium:
     6:
     0.368,0.391,0.211,0.293,0.073:
0000
0000
0000
0000
,
0000
0000
0000
0000
,
0000
0000
0000
0000
,
0000
0000
0000
0000
,
2000
0000
0000
0000
,
0000
0000
0000
0000
,
0002
0000
0000
0000
,
3003
0000
0000
0000
,
2000
0000
0000
0000
0000
0000
0000
0000
0000
0000
0000
0000
0001
0000
0000
0002
,
0000
3003
1000
0001
,
0220
0000
0000
0000
0330
0000
0000
0000
0010
0000
0000
0000
1000
0000
0000
2000
,
0000
0000
0000
3000
,
0001
0000
0100
0000
0001
0000
1000
0100
,
1000
0001
0011
1100
,
1000
0001
1000
0000
0001
0100
0001
0000
,
1000
0010
0100
0001
2000
0000
3000
0000
,
0001
0000
0000
0000
0100
0000
0000
0000
0001
0000
0000
0000
1000
0000
0000
2000
,
0000
0000
3100
0000
0010
0000
0001
0100
,
0001
0000
0000
0000
1000
0000
0010
0000
1000
0000
0000
0000
0001
0000
0000
0002
,
0000
1000
0000
1003
,
0001
0000
0100
0000
0001
0000
0000
0000
1000
0000
0000
0000
0100
0000
0000
0200
,
0000
0310
0100
0010
,
0001
0000
1000
0000
0001
1000
0001
2000
,
0000
0100
0000
3100
,
1001
0000
0000
0000
0001
0000
0000
0000
0100
0000
0000
0000
0010
0000
0000
0020
,
0000
0000
0130
0000
0010
1000
0010
0000
,
1000
0000
0001
0000
1000
0100
1000
0100
,
1000
0001
0100
0010
,
1001
0000
0100
0000
0010
1000
0001
0000
,
0010
0000
0100
0000
0010
0001
1000
0000
,
0001
0000
0100
0000
0001
0000
0000
0000
1000
0000
0010
0000
1000
0000
0000
0002
,
0000
2000
3003
0000
1001
0000
0110
0000
,
1000
0000
0010
0000
0100
0000
0000
0000
0001
0000
0000
0000
0100
0000
0000
0001
,
2000
0000
0000
0000
0010
0000
0000
0000
0001
0000
0000
0000
3100
0000
0000
0100
,
1000
0000
0001
0000
0100
0001
0100
0000
,
0001
1000
0001
0000
0100
0010
1000
0000
,
0001
0000
1000
0000
0100
0000
0000
0000
0010
0000
0000
0000
0001
0000
0000
0010
,
0002
0000
0000
0000
0010
0000
0000
0000
1000
0000
0000
0000
0103
0000
0000
0100
,
0001
0000
0100
0000
0010
1000
0010
0000
,
2002
0000
3003
0000
1000
0001
1000
0001
,
0200
0000
0000
0000
0010
0000
0000
0000
0001
0000
0000
0000
0310
0000
0000
2001
,
0000
0100
0010
0001
,
3200
0010
1300
1001
,
0201
0010
0302
2003
,
3002
0000
0000
0000
0010
0000
0000
0000
1000
0000
0000
0000
0103
0000
0000
0201
,
0000
0000
0310
0000
0010
0100
0001
0000
,
2001
0001
0100
3100
,
1000
0100
1000
0100
0010
0001
0010
0000
,
2002
0000
0000
3003
,
0000
0000
0100
0000
0000
0100
0000
0000
0100
0000
0000
0000
0110
0000
0000
0000
,
1000
0100
0010
0000
0001
0000
1001
0000
,
1000
0010
1000
0000
0001
0100
0001
0100
,
0001
0000
0000
0000
1010
0000
0000
0000
0010
0000
0100
0000
0010
0000
0000
0210
,
0000
0000
0301
0000
1000
0001
1000
0000
,
0100
0011
0100
1001
,
1000
0010
0100
0001
0100
0000
0001
1000
,
0200
0000
0000
0000
0310
0000
0000
0000
1001
0000
0000
0000
0110
0000
0000
0110
;

//---------------dance-single - ----------------
#NOTES:
     dance-single:
     :
     Easy:
     3:
     0.264,0.339,0.192,0.366,0.000:
0000
0000
0000
0000
,
0000
0000
0000
0000
,
0000
0000
0000
0000
,
0000
0000
0000
0000
,
0002
0000
0000
0000
,
0000
0000
0000
0000
,
2000
0000
0000
0000
,
3003
0000
0000
0000
,
2002
0000
0000
0000
,
3003
0000
0001
0100
,
0110
0000
2000
0002
,
3003
0000
0000
0000
,
1000
0100
1000
0100
,
0010
0001
0010
0001
,
1000
0001
0100
0010
,
1000
0001
2002
3003
,
1001
0000
0001
0100
,
0001
0000
1000
0010
,
1000
0100
0010
0001
,
1000
0000
0001
0000
,
1001
0000
1000
0010
,
1000
0000
0001
0000
,
0100
0001
1000
0100
,
0020
0000
0130
0010
,
2002
3003
0001
0100
,
0220
0330
0010
1000
,
0001
1000
0100
0010
,
0002
0003
1000
0001
,
1001
0000
1000
0100
,
0010
0000
0100
0010
,
0110
0000
0010
0002
,
2000
3003
0010
0100
,
2002
3003
0001
0100
,
0002
1000
1000
2000
,
3003
0100
0010
0001
,
1000
0010
0220
0330
,
2002
3003
1000
0100
,
2000
0001
0001
0002
,
3003
0000
1000
0001
,
2002
0000
0000
3003
,
0102
0000
0003
0000
,
2100
0000
3001
0100
,
0020
0000
0030
0000
,
0200
0000
0320
0000
,
2030
0000
0010
0000
,
3002
0000
0100
0000
,
2000
0000
0000
3003
,
0001
1000
0001
1000
,
0220
0000
0000
0000
,
0000
0330
0000
0000
0000
0000
0110
0000
,
1001
0001
0100
0001
,
1000
0100
0010
0110
,
1001
0001
1000
0010
,
0100
1000
0100
0001
,
1000
0100
0010
0001
,
1000
0010
1000
0001
,
0100
0010
0100
2002
,
3003
0000
0000
0000
;

//---------------dance-single - ----------------
#NOTES:
     dance-single:
     :
     Beginner:
     1:
     0.114,0.157,0.064,0.000,0.000:
0000
0000
0000
0000
,
0000
0000
0000
0000
,
0000
0000
0000
0000
,
0000
0000
0000
0000
,
1000
0000
0000
0000
,
0000
0000
0000
0000
,
0100
0000
0000
0000
,
0000
0000
0000
0000
,
1001
0000
0000
0000
,
0000
0000
0000
0000
,
0110
0000
0000
0000
,
0000
0000
0000
0000
,
1000
0000
0100
0000
,
1000
0000
0001
0000
,
0100
0000
0010
0000
,
0100
0000
0000
0000
,
1001
0000
0000
0000
,
0001
0000
0100
0000
,
0001
0000
1000
0000
,
0100
0000
0000
0000
,
1001
0000
0000
0000
,
1000
0000
0100
0000
,
0010
0000
0001
0000
,
0100
0000
0000
0000
,
0010
0000
0000
0100
,
0100
0000
0000
0001
,
0001
0000
1000
0000
,
0100
0000
0000
0000
,
1000
0000
0100
0000
,
0010
0000
0001
0000
,
1000
0000
0001
0000
,
1000
0000
0100
0100
,
0100
0000
0000
0000
,
1000
0000
0010
0000
,
0100
0000
0000
0000
,
0001
0000
0100
0000
,
0001
0000
0000
0000
,
1000
0000
0100
0000
,
0010
0000
0001
0000
,
1000
0000
0000
0000
,
1001
0000
0000
0000
,
0001
0000
0100
0000
,
0001
0000
0000
0000
,
1000
0000
0010
0000
,
0100
0000
0000
0000
,
0001
0000
1000
0000
,
0100
0000
0000
0000
,
1001
0000
0000
0000
,
0110
0000
0000
0000
,
0000
0000
0000
1000
,
1000
0000
0001
0000
,
0100
0000
0001
0000
,
1000
0000
0100
0000
,
0010
0000
0001
0000
,
1000
0000
0100
0000
,
1000
0000
0001
0000
,
0100
0000
0010
0010
,
0010
0000
0000
0000
;
