#TITLE:The Mother We Share;
#SUBTITLE:;
#ARTIST:CHVRCHES;
#TITLETRANSLIT:;
#SUBTITLETRANSLIT:;
#ARTISTTRANSLIT:;
#CREDIT:;
#BANNER:;
#BACKGROUND:;
#LYRICSPATH:;
#CDTITLE:;
#MUSIC:The Mother We Share.mp3;
#OFFSET:-5.540;
#SAMPLESTART:38.150;
#SAMPLELENGTH:11.030;
#SELECTABLE:YES;
#DISPLAYBPM:87.000;
#BPMS:0.000=87.000;
#STOPS:;
#BGCHANGES:;

//---------------dance-single - ----------------
#NOTES:
     dance-single:
     :
     Hard:
     7:
     0.451,0.376,0.231,0.240,0.561: // measure 1
1000
0000
0000
0000
0101
0000
0000
0001
0000
0100
0000
0000
0101
0000
0000
0010
,  // measure 2
0100
0000
0000
0000
1001
0000
0000
0001
0000
0000
1000
0000
1001
0000
0000
0000
,  // measure 3
1000
0000
0000
0000
1100
0000
0000
0100
0000
1000
0000
0000
1100
0000
0000
1000
,  // measure 4
0001
0000
0001
0000
0000
0010
0100
0010
0001
0000
0000
1000
0010
0000
0100
0010
,  // measure 5
0100
0000
0001
0000
2000
0000
0000
0100
0000
3100
0000
0000
1100
0000
0100
0010
,  // measure 6
0001
0000
1000
0000
0002
0000
0000
0100
0000
0103
0000
0000
0101
0000
0010
1000
,  // measure 7
0100
0000
0010
0000
0200
0000
0000
0010
0000
0310
0000
0000
0100
0000
0010
0001
,  // measure 8
0010
0001
0000
0001
0100
0000
0100
0010
0000
1000
0000
0001
0000
1000
0100
0010
,  // measure 9
0001
0000
0100
0000
2010
0000
0000
0010
0000
3010
0000
0000
1000
0000
0100
1000
,  // measure 10
0001
0100
0001
0000
0201
0000
0000
0010
0000
0000
0310
0000
0100
0000
0010
1000
,  // measure 11
0001
0000
1000
0000
2001
0000
0000
0100
0000
3100
0000
0000
0001
0000
1000
0010
,  // measure 12
1000
0001
0000
0001
0100
0000
0100
0010
0000
1000
0000
0001
0000
1000
0100
1000
,  // measure 13
0200
0000
0000
0000
1300
0000
0001
0000
0100
0001
0000
1000
0000
0100
0000
0010
,  // measure 14
0001
0000
0100
0000
0010
0000
0200
0000
0000
0000
0001
0000
0301
0000
0100
0010
,  // measure 15
0000
0010
1000
0000
0100
0000
0010
0000
0001
0100
0000
0010
0000
1000
0000
0100
,  // measure 16
2000
0000
0000
0000
3010
0000
0000
1000
0000
0000
0001
0000
0010
0000
0001
2000
,  // measure 17
0000
0000
3001
0000
0001
0000
0100
0000
0010
0100
0000
0001
0000
1000
0000
0100
,  // measure 18
0010
0100
0010
0000
0200
0000
0000
1300
0000
0000
0001
0000
1001
0000
0001
0100
,  // measure 19
0000
0100
0001
0000
1000
0000
0100
0000
0010
0100
0000
0010
0000
0001
0000
1000
,  // measure 20
0001
0000
1000
0000
1020
0000
0000
0130
0000
0000
0100
0010
1000
0001
1000
0000
,  // measure 21
0000
0000
0001
0000
0000
0100
0010
0200
0000
0010
0000
0000
0310
0000
0000
0000
,  // measure 22
0000
0000
1000
0000
0000
0100
0010
0100
0020
0000
0000
0001
0000
0000
0130
0000
,  // measure 23
0000
0000
0001
0000
0000
0100
0010
0200
0000
0010
0000
0000
0310
0000
0000
0000
,  // measure 24
0000
0000
1000
0000
0000
0100
0010
0100
0020
0000
0000
0001
0000
0000
0130
0010
,  // measure 25
0100
0000
0010
0000
2002
0000
0000
0000
0000
0000
0000
0000
3003
0000
0001
0100
,  // measure 26
0001
0000
0100
0000
0220
0000
0000
0000
0000
0000
0000
0000
0330
0000
0010
1000
,  // measure 27
0001
0000
1000
0000
2002
0000
0000
0000
0000
0000
0000
0000
3003
0000
0001
1000
,  // measure 28
0001
1000
0000
1000
0001
0000
1000
0100
0000
0010
0000
0001
0010
0001
1000
0100
,  // measure 29
2000
0000
0000
0000
3001
0000
0100
0000
0010
0100
0000
0010
0000
1000
0000
0001
,  // measure 30
0010
0000
0100
0000
0120
0000
0000
0001
0000
0000
0031
0000
1000
0010
1000
0001
,  // measure 31
0000
0001
0100
0000
0010
0000
1000
0000
0001
0010
0000
0100
0000
1000
0000
0001
,  // measure 32
0100
0000
0010
0000
2010
0000
0000
3100
0000
0000
0010
0000
0001
0000
1000
0010
,  // measure 33
0000
0010
1000
0000
0001
0000
0100
0000
0010
0100
0000
1000
0000
0100
0000
0001
,  // measure 34
0010
0000
0001
0000
2001
0000
0000
0010
0000
0000
3010
0000
1010
0000
0001
0100
,  // measure 35
0000
0001
1000
0000
0100
0000
0010
0000
0001
1000
0000
0010
0000
0100
0000
0001
,  // measure 36
1000
0000
0010
0000
2010
0000
0000
0010
0000
0000
3001
0000
1001
0000
0000
0000
,  // measure 37
0010
0000
0000
0000
1001
0000
0000
1000
0000
0100
0000
0100
0010
0001
0010
0001
,  // measure 38
1000
0000
0000
0000
0101
0000
0000
0010
0000
0000
1000
0000
0010
0000
1000
0000
,  // measure 39
1001
0000
0000
0000
1200
0000
0000
0010
0000
0310
0000
0000
1001
0000
0001
0000
,  // measure 40
0000
0000
0001
0000
0000
0010
0100
0010
0001
0000
0000
1000
0000
0000
0100
0000
;

//---------------dance-single - ----------------
#NOTES:
     dance-single:
     :
     Medium:
     5:
     0.313,0.342,0.146,0.351,0.124: // measure 1
0002
0010
1000
0103
,  // measure 2
2000
0010
0001
3100
,  // measure 3
0020
1000
0100
0031
,  // measure 4
2002
0000
0000
3003
,  // measure 5
1000
0000
0100
0000
2000
0000
0000
0001
0000
3001
0000
0000
0010
0000
0000
0000
,  // measure 6
0100
0000
0010
0000
0200
0000
0000
0001
0000
0301
0000
0000
0010
0000
0000
0000
,  // measure 7
1000
0000
0100
0000
0020
0000
0000
0100
0000
0130
0000
0000
0001
0000
0100
0000
,  // measure 8
0001
0000
0000
0100
0000
0000
0002
0000
0000
2000
0000
0000
3003
0000
0000
0000
,  // measure 9
0001
0000
0010
0000
0200
0000
0000
0010
0000
0310
0000
0000
1001
0000
0000
0000
,  // measure 10
0001
0000
0001
0000
2001
0000
0000
0001
0000
0000
0100
0000
3100
0000
0000
0000
,  // measure 11
1000
0000
0001
0000
0020
0000
0000
0100
0000
0130
0000
0000
0001
0000
1000
0000
,  // measure 12
0220
0000
0000
0000
0330
0000
0000
1001
0000
2002
0000
0000
3003
0000
0000
0000
,  // measure 13
1001
0000
1000
0100
1000
0001
0100
0000
,  // measure 14
0010
0000
0100
0001
0020
0000
0130
0000
,  // measure 15
1001
0000
0001
0010
0100
0010
0001
0000
,  // measure 16
1000
0000
0010
1000
0100
0000
1100
0000
,  // measure 17
1000
0100
0010
0000
0100
1000
0001
0100
,  // measure 18
0020
0000
1030
0010
0100
0000
1001
0000
,  // measure 19
0001
0010
0100
0010
0001
0000
1000
0001
,  // measure 20
0100
0000
0000
0001
0000
0000
1000
0000
0200
0000
0000
0000
1300
0000
0000
0000
,  // measure 21
0000
0000
2000
0000
0000
0002
0000
0000
0000
0000
0000
0000
3003
0000
0000
0000
,  // measure 22
0000
0000
0020
0000
0000
0230
0000
0000
0301
0000
0000
0100
0000
0000
0001
0000
,  // measure 23
0000
0000
0020
0000
0000
0200
0000
0000
0000
0000
0000
0000
0330
0000
0000
0000
,  // measure 24
0000
0000
0200
0000
0000
0320
0000
0000
0031
0000
0000
1000
0000
0000
0100
0000
,  // measure 25
1000
2002
0000
3003
,  // measure 26
0001
0100
0202
0000
0000
0000
0303
0000
,  // measure 27
0100
0010
0220
0000
0000
0000
0330
0000
,  // measure 28
0010
0000
0000
1000
0000
0000
0000
0001
0000
1000
0000
0000
1001
0000
0000
0000
,  // measure 29
0002
0000
0103
0010
0100
0001
1000
0000
,  // measure 30
0100
0010
0100
1000
0001
0000
0101
0000
,  // measure 31
0200
0000
0310
1000
0001
0010
0100
0000
,  // measure 32
0010
0000
0001
1000
0001
0000
0101
0000
,  // measure 33
0010
1000
0100
0000
0010
0100
1000
0100
,  // measure 34
0010
1002
0100
1003
,  // measure 35
0001
0100
1000
0100
0001
0000
1000
0100
,  // measure 36
1000
0000
0100
0000
0000
0010
0000
0000
0002
0000
0000
0100
0000
0000
0100
0000
,  // measure 37
0203
0000
1000
0000
0010
0000
0301
0010
,  // measure 38
0200
0000
0001
0000
0010
0000
1300
0001
,  // measure 39
2000
0000
0010
0000
0001
0000
3100
1000
,  // measure 40
0000
0000
0001
0000
0000
0010
0000
0000
0001
0000
0000
1000
0000
0000
0100
0000
;

//---------------dance-single - ----------------
#NOTES:
     dance-single:
     :
     Easy:
     2:
     0.162,0.221,0.103,0.240,0.000: // measure 1
0002
0000
0000
0003
,  // measure 2
0200
0000
0000
0300
,  // measure 3
0020
0000
0000
0030
,  // measure 4
1001
0000
0000
0000
,  // measure 5
2002
3003
0001
0100
,  // measure 6
0010
0000
0100
0001
,  // measure 7
1000
0000
0001
0010
,  // measure 8
0200
0000
0300
0000
,  // measure 9
0220
0330
0010
0001
,  // measure 10
1000
0000
0001
0100
,  // measure 11
0001
0000
1000
0010
,  // measure 12
2002
0000
3003
1001
,  // measure 13
0220
0330
0010
0100
,  // measure 14
0010
0000
1000
0000
,  // measure 15
0001
0000
0010
0001
,  // measure 16
0010
0000
0001
0000
,  // measure 17
0200
0300
0010
1000
,  // measure 18
0001
0000
1000
0000
,  // measure 19
0100
0000
1000
0100
,  // measure 20
0010
0001
1000
0001
,  // measure 21
0200
0000
0000
0300
,  // measure 22
0020
0000
0000
0030
,  // measure 23
2000
0000
0000
0000
,  // measure 24
3000
0000
0000
0000
,  // measure 25
0001
2002
3003
0000
,  // measure 26
0100
0220
0330
0000
,  // measure 27
1000
2002
3003
0000
,  // measure 28
0220
0000
0330
0110
,  // measure 29
1001
0000
0001
0100
,  // measure 30
0001
1000
0100
0000
,  // measure 31
2000
3000
0001
1000
,  // measure 32
0001
0100
0010
0000
,  // measure 33
0200
0300
0010
0100
,  // measure 34
0001
0001
1000
0000
,  // measure 35
0002
0003
1000
0100
,  // measure 36
1000
0000
0001
0100
,  // measure 37
0001
0000
0100
0010
,  // measure 38
1000
0000
1000
0100
,  // measure 39
0010
0000
0100
0010
,  // measure 40
0002
0000
0000
0003
;

//---------------dance-single - ----------------
#NOTES:
     dance-single:
     :
     Beginner:
     1:
     0.070,0.084,0.034,0.026,0.000: // measure 1
1000
0000
0000
0000
,  // measure 2
0100
0000
0000
0000
,  // measure 3
1000
0000
0000
0000
,  // measure 4
0001
0000
0000
0000
,  // measure 5
1001
0000
0000
0000
,  // measure 6
0100
0000
0000
0000
,  // measure 7
0010
0000
0000
0000
,  // measure 8
1000
0000
0001
0000
,  // measure 9
1000
0000
0000
0000
,  // measure 10
0100
0000
0000
0000
,  // measure 11
0010
0000
0000
0000
,  // measure 12
0001
0000
0010
0000
,  // measure 13
0100
0000
0010
0000
,  // measure 14
0001
0000
0000
0000
,  // measure 15
1000
0000
0010
0000
,  // measure 16
0100
0000
0001
0000
,  // measure 17
1000
0000
0000
0000
,  // measure 18
1001
0000
0000
0000
,  // measure 19
0001
0000
1000
0000
,  // measure 20
0100
0000
1000
0000
,  // measure 21
0001
0000
0000
0000
,  // measure 22
0100
0000
0000
0000
,  // measure 23
0010
0000
0000
0000
,  // measure 24
0000
0000
0000
0000
,  // measure 25
1000
0000
0000
0000
,  // measure 26
0001
0000
0000
0000
,  // measure 27
0100
0000
0000
0000
,  // measure 28
0110
0000
0000
0000
,  // measure 29
1001
0000
0100
0000
,  // measure 30
1000
0000
0000
0000
,  // measure 31
0001
0000
0100
0000
,  // measure 32
0001
0000
0000
0000
,  // measure 33
1000
0000
0100
0000
,  // measure 34
0010
0000
0000
0000
,  // measure 35
0001
0000
0100
0000
,  // measure 36
0010
0000
0100
0000
,  // measure 37
0002
0000
0003
0000
,  // measure 38
2000
0000
3000
0000
,  // measure 39
0020
0000
0000
0000
,  // measure 40
0030
0000
0000
0000
;
