#TITLE:The Dirty of Loudness;
#SUBTITLE:;
#ARTIST:Tatsh Assault X;
#TITLETRANSLIT:;
#SUBTITLETRANSLIT:;
#ARTISTTRANSLIT:;
#CREDIT:;
#BANNER:;
#BACKGROUND:;
#LYRICSPATH:;
#CDTITLE:;
#MUSIC:The Dirty of Loudness.mp3;
#OFFSET:-2.920;
#SAMPLESTART:27.650;
#SAMPLELENGTH:11.630;
#SELECTABLE:YES;
#BPMS:0.000=330.000,288.000=165.000,292.000=330.000,412.000=82.500,416.000=330.000,428.000=82.500,432.000=330.000,464.000=82.500,468.000=330.000;
#STOPS:114.000=0.364
,128.000=0.364
,270.000=0.364
,284.000=0.364
;
#BGCHANGES:;

//---------------dance-single - ----------------
#NOTES:
     dance-single:
     :
     Hard:
     10:
     0.943,0.987,0.435,0.368,0.000: // measure 1
1000
0100
1000
0001
,  // measure 2
0100
0001
1000
0100
,  // measure 3
1100
1000
0001
0100
,  // measure 4
0010
1000
0100
1000
,  // measure 5
1001
0001
0100
0001
,  // measure 6
0010
0100
0010
0001
,  // measure 7
1001
1001
2002
0000
,  // measure 8
3003
0000
0110
0000
,  // measure 9
1000
0010
1000
0000
0001
0000
0100
0000
,  // measure 10
0001
0010
0100
0010
,  // measure 11
0001
0010
0100
0000
0010
0000
0001
1000
,  // measure 12
0001
0000
0000
0101
0000
0000
0010
0000
,  // measure 13
1000
0010
1000
0000
0001
0000
0010
0000
,  // measure 14
0100
0000
0010
0001
0010
0000
0001
0000
,  // measure 15
1000
0010
0100
0000
0001
0000
1000
0010
,  // measure 16
0100
0000
0001
0000
1000
0000
0100
0010
,  // measure 17
0100
0010
0001
1000
,  // measure 18
0001
0100
0010
0100
,  // measure 19
1001
0010
1000
0100
,  // measure 20
1001
0010
0001
0100
,  // measure 21
0101
0001
1001
1000
,  // measure 22
1100
0010
1001
0100
,  // measure 23
1010
0010
0110
1000
,  // measure 24
0101
0001
1001
0010
,  // measure 25
1001
1001
0110
0110
,  // measure 26
1001
0000
1000
0010
0100
0001
1000
0100
,  // measure 27
0010
0100
0020
0200
0330
0000
0000
0000
,  // measure 28
0001
1000
0002
2000
3003
0000
0000
0000
,  // measure 29
0100
0010
0200
0020
0330
0000
0000
0000
,  // measure 30
0000
0000
0000
0000
1000
0100
0020
0002
,  // measure 31
0033
0000
0000
0000
0001
0100
0020
2000
,  // measure 32
3030
0000
0000
0000
1000
0001
2000
0002
,  // measure 33
3003
0000
0000
0000
,  // measure 34
1000
0000
0001
0010
0001
0000
1000
0001
,  // measure 35
0000
1000
0001
0000
0100
0000
0010
0000
,  // measure 36
1000
0000
0100
1000
0100
0000
0010
0001
,  // measure 37
0000
1000
0001
0000
0100
0000
0010
0100
,  // measure 38
0001
0000
0001
0100
0010
0000
1000
0010
,  // measure 39
0000
1000
0001
0000
1000
0000
0100
0010
,  // measure 40
0100
0000
0010
0001
1000
0000
0001
1000
,  // measure 41
2002
3003
0220
0330
,  // measure 42
0001
0000
0100
0001
0100
0000
0001
1000
,  // measure 43
0000
0100
1000
0000
0100
0000
0010
0000
,  // measure 44
0001
0000
1000
0100
0010
0000
0100
1000
,  // measure 45
0000
0001
0100
0000
0010
0100
0001
0000
,  // measure 46
1000
0000
0010
1000
0001
0000
0010
0001
,  // measure 47
0000
1000
0100
0000
1000
0000
0010
0100
,  // measure 48
0001
0000
0010
0000
0001
1000
0010
0000
,  // measure 49
0110
0110
1001
1001
,  // measure 50
0011
0000
1000
0100
0010
0000
0100
1000
,  // measure 51
0000
0010
0100
0000
0001
0100
0001
0100
,  // measure 52
0010
0000
1000
0001
1000
0000
0001
0010
,  // measure 53
0000
0100
1000
0000
0001
0010
0001
0000
,  // measure 54
1000
0000
0010
0100
0001
0000
0010
0001
,  // measure 55
0000
1000
0001
0000
1000
0100
0010
0001
,  // measure 56
0100
0000
0010
0000
1000
0001
1000
0000
,  // measure 57
0001
0100
0010
0100
,  // measure 58
0001
0000
1000
0010
1000
0001
0100
0001
,  // measure 59
0000
1000
0001
0000
1000
0100
1000
0000
,  // measure 60
0001
0000
0010
0001
0010
0100
1000
0001
,  // measure 61
0000
0100
0001
0000
0100
0010
0100
0010
,  // measure 62
1000
0000
0001
0100
0001
1000
0100
0010
,  // measure 63
0000
0100
1000
0000
0010
0100
0001
0000
,  // measure 64
1000
0100
1000
0000
0001
0000
0010
0000
,  // measure 65
0100
0010
0001
0000
1000
0000
0010
0000
,  // measure 66
1000
0010
0200
0020
0330
0000
0000
0000
,  // measure 67
0100
0001
0020
0200
0330
0000
0000
0000
,  // measure 68
0100
0010
0002
2000
3003
0000
0000
0000
,  // measure 69
0000
0000
0000
0000
1000
0100
0002
0200
,  // measure 70
0303
0000
0000
0000
1000
0010
0002
0020
,  // measure 71
0033
0000
0000
0000
0100
0010
2000
0002
,  // measure 72
3003
0000
1001
0000
,  // measure 73
1000
0100
0010
0001
0100
0010
1000
0001
,  // measure 74
1000
0010
0100
1000
,  // measure 75
0100
0000
0001
0000
0010
0000
0001
0010
,  // measure 76
0001
0100
0010
1000
,  // measure 77
0100
0000
0001
0000
0100
0000
1000
0100
,  // measure 78
0010
0100
0010
0001
,  // measure 79
0100
0000
0010
0000
1000
0010
1000
0001
,  // measure 80
0100
0001
0100
1000
,  // measure 81
0001
0000
0010
0000
1000
0000
0001
1000
,  // measure 82
0001
1000
0100
0001
,  // measure 83
0100
0000
0010
0000
0001
0000
1000
0010
,  // measure 84
1000
0000
0010
0000
0100
0000
0010
1000
,  // measure 85
0100
0000
0010
0000
0100
0000
0010
0001
,  // measure 86
1000
0000
0001
0000
0100
0000
0010
1000
,  // measure 87
0100
0000
0010
0001
1000
0001
1000
0001
,  // measure 88
1000
0010
1000
0010
0100
0010
0100
0010
,  // measure 89
1000
0001
1000
0001
0010
0001
0010
0001
,  // measure 90
1000
0100
0010
0001
,  // measure 91
0100
0000
0010
1000
0100
1000
0001
1000
,  // measure 92
0001
0010
0001
0010
0100
1000
0100
1000
,  // measure 93
0001
0100
0001
0100
0010
1000
0010
1000
,  // measure 94
0001
0100
0001
0000
1000
0010
0100
0000
,  // measure 95
0001
0010
0100
0010
0001
1000
0001
1000
,  // measure 96
0001
0100
0001
1000
0100
0010
0001
0100
,  // measure 97
0010
0000
1000
0000
0001
0010
0001
0000
,  // measure 98
1000
0100
0010
0100
1000
0001
0010
0100
,  // measure 99
0010
0000
0001
1000
0001
1000
0001
1000
,  // measure 100
0001
0100
0010
0100
0001
0000
1000
0000
,  // measure 101
0001
1000
0100
0010
0100
0000
1000
0000
,  // measure 102
0100
0010
0001
0100
0010
1000
0100
1000
,  // measure 103
0001
0100
0010
1000
0010
0100
0001
0010
,  // measure 104
0200
0000
0000
0000
0020
0000
0000
0330
,  // measure 105
0001
0010
0100
1000
0100
1000
0010
0100
,  // measure 106
0001
0100
0010
1000
0100
1000
0100
0010
,  // measure 107
0001
0100
0010
1000
0100
1000
0001
2000
,  // measure 108
0002
0000
0000
0000
0000
3003
0000
0000
,  // measure 109
1000
0100
1000
0010
0100
0010
1000
0001
,  // measure 110
0000
0010
0100
0000
0010
0001
0000
0011
,  // measure 111
0000
0000
1001
0000
,  // measure 112
0000
1100
0000
0000
0000
0000
1010
0000
,  // measure 113
0000
0011
0000
0110
0000
1100
0000
0000
,  // measure 114
1000
0100
1000
0100
0010
0001
0010
0001
,  // measure 115
1000
0010
0100
0001
0010
0100
0010
0001
,  // measure 116
1000
0010
0100
0001
1000
0001
0100
0020
,  // measure 117
0200
0000
0000
0330
,  // measure 118
1010
0110
0101
0011
,  // measure 119
0110
0000
1001
0000
,  // measure 120
0220
0000
0330
0000
,  // measure 121
1001
0000
0000
0000
;

//---------------dance-single - ----------------
#NOTES:
     dance-single:
     :
     Beginner:
     3:
     0.218,0.348,0.232,0.000,0.000: // measure 1
1001
0000
0000
0000
,  // measure 2
0000
0000
0000
0000
,  // measure 3
1001
0000
0000
0000
,  // measure 4
0000
0000
0000
0000
,  // measure 5
1001
0000
0000
0000
,  // measure 6
0000
0000
0000
0000
,  // measure 7
1001
0000
1001
0000
,  // measure 8
0000
0000
0000
0000
,  // measure 9
0001
0000
0000
0000
,  // measure 10
0100
0000
0001
0000
,  // measure 11
1000
0000
0000
0000
,  // measure 12
0100
0000
0100
0000
,  // measure 13
0100
0000
0000
0000
,  // measure 14
0010
0000
0001
0000
,  // measure 15
0010
0000
0000
0000
,  // measure 16
0001
0000
0000
0000
,  // measure 17
1001
0000
0000
0000
,  // measure 18
1000
0000
0010
0000
,  // measure 19
1000
0000
0000
0000
,  // measure 20
0001
0000
0000
0000
,  // measure 21
0100
0000
0000
0000
,  // measure 22
0001
0000
0000
0000
,  // measure 23
1000
0000
0001
0000
,  // measure 24
1000
0000
0001
0000
,  // measure 25
0100
0000
0010
0000
,  // measure 26
0100
0000
0000
0000
,  // measure 27
0110
0000
0000
0000
,  // measure 28
1001
0000
0000
0000
,  // measure 29
0110
0000
0000
0000
,  // measure 30
0000
0000
1001
0000
,  // measure 31
0000
0000
0110
0000
,  // measure 32
0000
0000
1001
0000
,  // measure 33
0000
0000
0000
0000
,  // measure 34
1000
0000
0000
0000
,  // measure 35
0100
0000
0000
0000
,  // measure 36
1000
0000
0000
0000
,  // measure 37
0001
0000
0000
0000
,  // measure 38
0100
0000
0000
0000
,  // measure 39
0010
0000
0000
0000
,  // measure 40
0100
0000
0000
0000
,  // measure 41
0001
0000
0100
0000
,  // measure 42
0001
0000
0000
0000
,  // measure 43
1000
0000
0000
0000
,  // measure 44
0100
0000
0000
0000
,  // measure 45
0010
0000
0000
0000
,  // measure 46
0100
0000
0000
0000
,  // measure 47
1000
0000
0000
0000
,  // measure 48
1001
0000
0000
0000
,  // measure 49
0110
0000
0000
0000
,  // measure 50
1001
0000
0000
0000
,  // measure 51
0001
0000
0000
0000
,  // measure 52
0100
0000
0000
0000
,  // measure 53
0010
0000
0000
0000
,  // measure 54
1000
0000
0000
0000
,  // measure 55
0100
0000
0000
0000
,  // measure 56
1000
0000
0100
0000
,  // measure 57
0010
0000
0001
0000
,  // measure 58
0100
0000
0000
0000
,  // measure 59
0001
0000
0000
0000
,  // measure 60
0100
0000
0000
0000
,  // measure 61
0010
0000
0000
0000
,  // measure 62
0100
0000
0000
0000
,  // measure 63
0001
0000
0000
0000
,  // measure 64
1000
0000
0001
0000
,  // measure 65
1000
0000
0001
0000
,  // measure 66
1000
0000
0000
0000
,  // measure 67
0001
0000
0000
0000
,  // measure 68
1001
0000
0000
0000
,  // measure 69
0000
0000
0100
0000
,  // measure 70
0000
0000
0010
0000
,  // measure 71
0000
0000
0110
0000
,  // measure 72
0000
0000
0000
0000
,  // measure 73
0000
0000
0000
0000
,  // measure 74
1000
0000
0100
0000
,  // measure 75
1000
0000
0001
0000
,  // measure 76
0100
0000
0000
0000
,  // measure 77
0001
0000
0000
0000
,  // measure 78
0010
0000
0000
0000
,  // measure 79
0100
0000
0000
0000
,  // measure 80
0010
0000
0001
0000
,  // measure 81
1000
0000
0100
0000
,  // measure 82
1000
0000
0000
0000
,  // measure 83
0001
0000
0000
0000
,  // measure 84
1000
0000
0001
0000
,  // measure 85
1000
0000
0000
0000
,  // measure 86
0001
0000
0100
0000
,  // measure 87
0001
0000
0100
0000
,  // measure 88
0001
0000
0000
0000
,  // measure 89
1000
0000
0000
0000
,  // measure 90
0100
0000
0000
0000
,  // measure 91
1000
0000
0010
0000
,  // measure 92
0100
0000
0000
0000
,  // measure 93
0001
0000
0000
0000
,  // measure 94
0100
0000
0000
0000
,  // measure 95
0001
0000
0100
0000
,  // measure 96
0001
0000
0000
0000
,  // measure 97
1000
0000
0000
0000
,  // measure 98
0001
0000
0010
0000
,  // measure 99
0001
0000
0000
0000
,  // measure 100
1000
0000
0100
0000
,  // measure 101
1000
0000
0000
0000
,  // measure 102
0001
0000
0100
0000
,  // measure 103
0010
0000
0100
0000
,  // measure 104
0001
0000
0000
0000
,  // measure 105
1001
0000
0000
0000
,  // measure 106
0000
0000
0000
0000
,  // measure 107
0000
0000
0000
0000
,  // measure 108
0110
0000
0000
0000
,  // measure 109
1001
0000
0000
0000
,  // measure 110
0000
0000
0000
0000
,  // measure 111
0000
0000
0000
0000
,  // measure 112
0000
0000
0000
0000
,  // measure 113
0000
0000
0000
0000
,  // measure 114
1001
0000
0000
0000
,  // measure 115
0100
0000
0000
0000
,  // measure 116
0010
0000
0000
0000
,  // measure 117
1001
0000
0000
0000
,  // measure 118
0100
0000
0000
0000
,  // measure 119
0010
0000
0000
0000
,  // measure 120
0110
0000
0000
0000
,  // measure 121
1001
0000
0000
0000
;

//---------------dance-single - ----------------
#NOTES:
     dance-single:
     :
     Easy:
     6:
     0.509,0.581,0.377,0.368,0.000: // measure 1
1001
0000
0000
0000
,  // measure 2
0000
0000
0000
0000
,  // measure 3
0110
0000
0000
0000
,  // measure 4
0000
0000
0000
0000
,  // measure 5
1001
0000
0000
0000
,  // measure 6
0000
0000
0000
0000
,  // measure 7
1000
0001
2000
0000
,  // measure 8
0000
0000
3000
0000
,  // measure 9
0001
0000
0100
0000
,  // measure 10
0001
0100
0001
0000
,  // measure 11
1000
0100
0010
0001
,  // measure 12
0100
0000
0000
0001
0000
0000
0100
0000
,  // measure 13
0001
0000
1000
0000
,  // measure 14
0001
0010
0001
0000
,  // measure 15
1000
0100
1000
0000
,  // measure 16
0001
0000
1000
0010
,  // measure 17
0100
0000
0001
0000
,  // measure 18
1000
0001
1000
0000
,  // measure 19
1001
0000
0001
0000
,  // measure 20
0101
0000
0100
0000
,  // measure 21
0110
0000
0110
0000
,  // measure 22
1001
0000
1001
0000
,  // measure 23
1100
0000
1010
0000
,  // measure 24
0011
0000
0101
0000
,  // measure 25
0001
1000
0001
1000
,  // measure 26
0001
0000
0100
0000
,  // measure 27
0220
0000
0330
0000
,  // measure 28
2002
0000
3003
0000
,  // measure 29
0220
0000
0330
0000
,  // measure 30
0000
0000
2002
0000
,  // measure 31
3003
0000
0220
0000
,  // measure 32
0330
0000
2002
0000
,  // measure 33
3003
0000
0000
0000
,  // measure 34
1000
0001
1000
0001
,  // measure 35
0100
0000
0010
0000
,  // measure 36
0100
0000
0010
1000
,  // measure 37
0001
0000
0100
0000
,  // measure 38
0001
0010
0001
0010
,  // measure 39
0100
0000
0010
0000
,  // measure 40
0001
1000
0001
0000
,  // measure 41
0110
0000
1001
0000
,  // measure 42
0010
1000
0001
1000
,  // measure 43
0100
0000
0010
0000
,  // measure 44
0100
0000
0010
0001
,  // measure 45
1000
0000
0010
0000
,  // measure 46
0100
0001
0100
0001
,  // measure 47
0010
0000
0100
0000
,  // measure 48
1001
0000
0000
0000
,  // measure 49
0010
0010
0100
0100
,  // measure 50
0010
0000
0100
0000
,  // measure 51
0001
1000
0100
0000
,  // measure 52
0001
1000
0001
1000
,  // measure 53
0100
0000
0010
0000
,  // measure 54
0100
0010
0001
0000
,  // measure 55
0001
1000
0010
0000
,  // measure 56
0010
0100
0001
1000
,  // measure 57
0001
0000
0100
0000
,  // measure 58
0010
0100
0010
0000
,  // measure 59
1000
0010
1000
0000
,  // measure 60
0001
0100
0001
0000
,  // measure 61
0010
0001
0100
0000
,  // measure 62
0010
1000
0100
0000
,  // measure 63
0010
0100
0010
0000
,  // measure 64
0001
0100
0010
1000
,  // measure 65
0100
0010
0001
0000
,  // measure 66
2002
0000
3003
0000
,  // measure 67
0220
0000
0330
0000
,  // measure 68
2002
0000
3003
0000
,  // measure 69
0000
0000
2002
0000
,  // measure 70
3003
0000
0220
0000
,  // measure 71
0330
0000
2002
0000
,  // measure 72
3003
0000
2002
0000
,  // measure 73
3003
0000
0000
0000
,  // measure 74
2000
0000
3020
0000
,  // measure 75
0230
0000
0302
0000
,  // measure 76
0103
0001
0100
0001
,  // measure 77
1000
0010
1000
0000
,  // measure 78
0001
0000
1000
0100
,  // measure 79
1000
0100
1000
0000
,  // measure 80
0001
0010
0100
0010
,  // measure 81
0001
0000
1000
0000
,  // measure 82
0002
0000
0203
0000
,  // measure 83
0320
0000
2030
0000
,  // measure 84
3001
0000
0010
1000
,  // measure 85
0100
0000
0010
0000
,  // measure 86
0001
0100
0001
0000
,  // measure 87
0010
0000
1001
0000
,  // measure 88
1000
0010
1000
0000
,  // measure 89
0001
0100
0001
0000
,  // measure 90
1000
0100
0010
0001
,  // measure 91
0100
0000
0110
0000
,  // measure 92
0010
1000
0001
0000
,  // measure 93
0010
0001
1000
0000
,  // measure 94
0001
0100
0001
1000
,  // measure 95
0100
0000
0110
0000
,  // measure 96
0010
0001
0100
0001
,  // measure 97
1000
0001
0100
0000
,  // measure 98
0010
1000
0001
1000
,  // measure 99
0100
1000
0100
0000
,  // measure 100
1000
0100
0010
0000
,  // measure 101
0100
1000
0001
0000
,  // measure 102
1000
0010
0100
0001
,  // measure 103
0010
0100
1000
0001
,  // measure 104
0200
0000
0300
0000
,  // measure 105
0001
0000
0000
0100
0000
0000
0001
0000
,  // measure 106
1000
0100
1000
0001
,  // measure 107
0100
0001
1000
0100
,  // measure 108
0020
0000
0000
0000
0000
0030
0000
0000
,  // measure 109
0100
0000
0000
0010
0000
0000
0100
0000
,  // measure 110
0000
0010
0000
0000
0001
0000
0000
1001
,  // measure 111
0000
0000
1001
0000
,  // measure 112
0000
0110
0000
0000
0000
0000
1001
0000
,  // measure 113
0000
1000
0000
0001
0000
1000
0000
0000
,  // measure 114
0001
0000
0000
0010
0000
0000
0001
0000
,  // measure 115
0100
0010
1000
0100
,  // measure 116
1000
0010
0100
0001
,  // measure 117
0200
0000
0000
0300
,  // measure 118
0010
0100
0010
0100
,  // measure 119
0010
0000
0110
0000
,  // measure 120
1001
0000
0000
0000
,  // measure 121
1001
0000
0000
0000
;

//---------------dance-single - ----------------
#NOTES:
     dance-single:
     :
     Medium:
     9:
     0.758,0.813,0.474,0.387,0.000: // measure 1
1001
0000
0100
0000
,  // measure 2
0001
0000
0100
0000
,  // measure 3
1001
0000
0010
0000
,  // measure 4
1000
0000
0001
0000
,  // measure 5
1001
0000
1000
0000
,  // measure 6
0100
0000
0010
0000
,  // measure 7
0110
0110
0220
0000
,  // measure 8
0330
0000
0110
0000
,  // measure 9
0010
0001
1000
0001
,  // measure 10
0100
0010
1000
0001
,  // measure 11
0100
1000
0100
0001
,  // measure 12
1000
0000
0000
1001
0000
0000
0001
0000
,  // measure 13
1000
0100
0001
0100
,  // measure 14
1000
0010
0100
0001
,  // measure 15
0010
0001
0010
0000
0001
0000
0010
0001
,  // measure 16
0010
0001
1001
0000
,  // measure 17
1000
0010
0100
1000
,  // measure 18
0100
0001
0010
0000
,  // measure 19
0011
0001
0100
0010
,  // measure 20
0110
0100
0010
1000
,  // measure 21
1001
0001
1001
1000
,  // measure 22
1010
0010
0110
0100
,  // measure 23
0101
0001
0011
0010
,  // measure 24
0110
0100
1100
1000
,  // measure 25
0001
1000
0001
1000
,  // measure 26
0001
0000
1000
0001
1000
0001
1000
0000
,  // measure 27
0101
0000
0200
0002
0303
0000
0000
0000
,  // measure 28
1001
0000
2000
0002
3003
0000
0000
0000
,  // measure 29
0110
0000
0200
0020
0330
0000
0000
0000
,  // measure 30
0000
0000
0000
0000
1001
0000
0002
2000
,  // measure 31
3003
0000
0000
0000
1010
0000
0020
2000
,  // measure 32
3030
0000
0000
0000
1001
0000
0002
2000
,  // measure 33
3003
0000
0000
0000
,  // measure 34
1000
0000
0100
0000
1000
0000
0001
0100
,  // measure 35
0000
0001
0100
0000
0001
0000
0000
0000
,  // measure 36
1000
0000
0010
0000
1000
0000
0001
0010
,  // measure 37
0001
1000
0100
0000
,  // measure 38
0010
0000
0001
0000
0100
0000
0010
0100
,  // measure 39
0000
0010
0100
0000
0001
0000
0000
0000
,  // measure 40
1000
0001
0100
0010
,  // measure 41
2002
3003
0220
0330
,  // measure 42
0001
0000
0100
0000
0001
0000
1000
0100
,  // measure 43
0000
1000
0001
0000
0100
0000
0010
0000
,  // measure 44
1000
0000
0100
0000
0010
0000
0001
1000
,  // measure 45
0001
0100
0010
0000
,  // measure 46
1000
0000
0010
0000
0100
0000
0001
0100
,  // measure 47
0000
0001
1000
0000
0100
0000
1000
0000
,  // measure 48
2002
0000
3003
0000
,  // measure 49
0100
0010
0100
0010
,  // measure 50
1000
0000
0001
0010
0001
0000
0100
0000
,  // measure 51
0010
1000
0001
0000
,  // measure 52
1000
0000
0010
1000
0001
0000
0010
0001
,  // measure 53
0010
0001
0100
0000
,  // measure 54
0001
0000
1000
0100
1000
0000
0001
0000
,  // measure 55
0010
0100
0010
0000
,  // measure 56
0001
0000
1000
0100
1000
0000
0010
0100
,  // measure 57
0001
1000
0010
0100
,  // measure 58
0001
0000
1000
0100
1000
0000
0001
0000
,  // measure 59
0010
0100
0010
0001
,  // measure 60
1000
0000
0010
0100
0010
0000
0100
0001
,  // measure 61
1000
0100
1000
0001
,  // measure 62
0010
0000
0001
0100
0001
0000
0100
0000
,  // measure 63
0010
0000
1000
0010
1000
0000
0001
0000
,  // measure 64
1000
0000
0100
0000
0010
0000
0001
1000
,  // measure 65
0001
1000
0001
1000
,  // measure 66
1001
0000
0002
2000
3003
0000
0000
0000
,  // measure 67
0110
0000
0200
0020
0330
0000
0000
0000
,  // measure 68
1001
0000
2000
0002
3003
0000
0000
0000
,  // measure 69
0000
0000
0000
0000
1000
0100
2000
0200
,  // measure 70
3300
0000
0000
0000
0010
0001
0020
0002
,  // measure 71
0033
0000
0000
0000
0001
1000
0002
2000
,  // measure 72
3003
0000
1001
0000
,  // measure 73
0200
0000
0000
0300
,  // measure 74
0010
0100
0001
0100
,  // measure 75
1000
0100
0001
1000
,  // measure 76
0100
0010
0100
0001
,  // measure 77
1000
0010
0001
1000
,  // measure 78
0001
0100
0010
1000
,  // measure 79
0001
0100
0010
0010
,  // measure 80
0010
0100
0001
1000
,  // measure 81
0100
0010
0001
1000
,  // measure 82
0100
0001
1000
0010
,  // measure 83
0100
1000
0010
0100
,  // measure 84
0001
0100
1000
0001
,  // measure 85
0010
0100
0001
1000
,  // measure 86
0100
0010
0001
1000
,  // measure 87
0001
0000
1000
0001
1000
0001
1000
0000
,  // measure 88
0001
0100
0001
0000
1000
0000
0100
0000
,  // measure 89
0010
0001
1000
0001
,  // measure 90
0100
0010
0100
0001
,  // measure 91
1000
0000
0001
0010
0001
0000
1000
0000
,  // measure 92
0001
0100
0001
0000
1000
0000
0010
0000
,  // measure 93
1000
0100
1000
0001
,  // measure 94
0100
0010
1000
0001
,  // measure 95
0010
0000
0001
0100
0001
0000
1000
0010
,  // measure 96
1000
0001
0100
1000
,  // measure 97
0001
0010
1000
0001
,  // measure 98
1000
0100
1000
0000
0001
0000
0010
0000
,  // measure 99
1000
0001
0100
1000
,  // measure 100
0001
0010
0001
0000
1000
0000
0100
0000
,  // measure 101
1000
0010
1000
0000
0001
0000
0100
0000
,  // measure 102
0010
1000
0001
0000
0010
0001
1000
0000
,  // measure 103
0001
0010
0001
0010
0100
1000
0100
1000
,  // measure 104
0002
0000
1003
0000
,  // measure 105
1000
0000
0001
0100
0000
0100
0010
0000
,  // measure 106
1000
0100
1000
0000
0001
0010
0000
0001
,  // measure 107
1000
0000
0001
0000
1000
0001
0000
0000
,  // measure 108
2002
0000
0000
0000
0000
3003
0000
0000
,  // measure 109
1000
0100
0000
1000
0100
0000
0010
0001
,  // measure 110
0000
0010
0001
0000
1000
0001
0000
1001
,  // measure 111
0000
0000
1001
0000
,  // measure 112
0000
0110
0000
0000
0000
0000
1001
0000
,  // measure 113
0000
1100
0000
1100
0000
1100
0000
0000
,  // measure 114
1000
0000
0001
0010
0000
0010
0001
0000
,  // measure 115
1000
0010
0100
0000
0001
0100
0000
0100
,  // measure 116
0010
0000
1000
0000
0001
1000
0000
0000
,  // measure 117
2002
0000
0000
3003
,  // measure 118
1001
1001
1001
1001
,  // measure 119
1001
0000
0110
0000
,  // measure 120
2002
0000
3003
0000
,  // measure 121
1001
0000
0000
0000
;
