#TITLE:TARZAN & JANE;
#SUBTITLE:;
#ARTIST:TOY-BOX;
#TITLETRANSLIT:;
#SUBTITLETRANSLIT:;
#ARTISTTRANSLIT:;
#CREDIT:;
#BANNER:TARZAN & JANE.png;
#BACKGROUND:TARZAN & JANE-bg.PNG;
#LYRICSPATH:;
#CDTITLE:;
#MUSIC:TARZAN & JANE.mp3;
#OFFSET:-0.020;
#SAMPLESTART:42.570;
#SAMPLELENGTH:15.320;
#SELECTABLE:YES;
#DISPLAYBPM:141.000;
#BPMS:0.000=140.985;
#STOPS:;
#BGCHANGES:0.000=TARZAN & JANE.avi=1.000=1=1=0,
284.000=TARZAN & JANE-bg.PNG=1.000=1=0=1,
99999=-nosongbg-=1.000=0=0=0 // don't automatically add -songbackground-
;

//---------------dance-single - ----------------
#NOTES:
     dance-single:
     :
     Hard:
     6:
     0.405,0.409,0.159,0.000,0.017:
0000
0000
0000
0000
,
0000
0000
0000
0000
,
0000
0000
0000
0000
,
0000
0000
0000
0000
,
1000
0000
0001
0100
0001
0000
1000
0010
,
0100
0000
0001
0010
0100
0000
0010
0001
,
0010
0001
0100
1010
,
1000
0000
0000
1000
0100
0000
0010
0000
0001
0000
0000
0000
0100
0000
0000
0000
,
1001
0000
0000
0110
,
0001
0000
0100
0001
1000
0000
0100
0000
,
1000
0000
0001
0010
0100
0000
0010
0001
,
0010
0000
0001
0000
0100
0010
1000
0000
,
0001
0000
1000
0001
0000
0001
1000
0000
,
0110
0000
0010
1000
0001
0000
0100
0000
,
0001
0000
0010
0001
0010
0000
0100
0000
,
1000
0000
1000
0000
0001
0100
0001
0000
,
1000
0000
0100
0010
0001
0000
0000
0000
,
1001
0000
1000
0100
0010
0000
0100
0000
,
1000
0000
1000
0100
0010
0000
0001
0000
,
0100
0000
0010
1000
0001
0000
0010
0001
,
1000
0000
0001
0100
0001
0000
1100
0000
,
1001
0000
0001
0100
0010
0000
0100
0000
,
0001
0000
0001
0100
0010
0000
1000
0000
,
0001
1000
0001
1000
0001
0000
0100
0000
,
1001
0000
0000
0000
0000
0100
0100
0000
,
1001
0000
0001
1000
0001
0000
0010
0001
,
1000
0000
0001
0100
0001
0000
1000
0100
,
0010
0001
0100
1000
,
0010
0001
0010
0001
1000
0000
0000
0000
,
0001
0000
0100
0001
0100
0000
0010
1000
,
0010
0000
1000
0001
1000
0000
0001
0000
,
0010
1000
0001
1100
,
0001
0000
0000
0100
0001
0000
0100
0000
0001
0000
0000
0000
1000
0000
0000
0000
,
1001
0000
0000
0110
,
1001
0000
0001
0100
1000
0000
0100
0000
,
0001
0000
1000
0100
0001
0000
0100
0000
,
0010
0000
0001
0100
0010
0000
1000
0000
,
0010
0000
1000
0100
1000
0000
0000
0000
,
0001
0000
0010
0001
0100
0000
0010
0000
,
1000
0000
0100
0100
0100
0000
1001
0000
,
0100
0010
0100
0010
0100
0000
0001
0000
,
1000
0000
0001
0010
0100
0000
0000
0000
,
1000
0001
0100
1000
,
0010
0000
0001
1000
0001
0000
1000
0000
,
0100
0001
0010
1000
,
0001
0000
1000
0001
1000
0000
0010
0100
,
0100
0000
0010
1000
0100
0000
0010
0000
,
0100
0000
0010
0001
1000
0000
0001
0100
,
0001
0100
0010
0100
0010
0000
1000
0000
,
1001
0000
0000
0000
0000
0100
0100
0000
,
1001
0000
1000
0100
1000
0000
0001
0100
,
0001
0000
1000
0001
0100
0000
0010
1000
,
0001
0010
0100
0010
,
0001
1000
0010
0100
0001
0000
0000
0000
,
1000
0000
0100
1000
0010
0000
0100
0001
,
0010
0000
0001
1000
0100
0000
0010
0001
,
1000
0100
0010
0001
,
1000
0000
0000
0001
0100
0000
0010
0000
1000
0000
0000
0000
0000
0000
0000
0000
,
1001
0000
0001
0100
0001
0000
0100
0000
,
0010
0000
1000
0001
1000
0000
0000
0000
,
0001
0100
0001
0100
0000
0010
1000
0010
,
0000
0100
0001
0100
0000
0001
0010
0100
,
1000
0000
0001
0010
0001
0000
1000
0100
,
1000
0000
0001
0000
0100
0000
0010
1000
,
0100
0000
0010
0001
1000
0000
0001
0000
,
0100
0000
0000
0100
0001
0000
0100
0000
0010
0000
0000
0000
1000
0000
0000
0000
,
1001
0000
0001
0000
,
0100
0000
0000
0000
0010
0000
0000
1000
,
1000
0000
0100
0000
,
0010
0000
0000
0000
,
0110
0000
0000
0000
;

//---------------dance-single - ----------------
#NOTES:
     dance-single:
     :
     Challenge:
     7:
     0.543,0.526,0.384,0.259,0.046: // measure 1
0000
0000
0000
0000
,  // measure 2
0000
0000
0000
0000
,  // measure 3
0000
0000
0000
0000
,  // measure 4
0000
0000
0000
0000
,  // measure 5
1010
0000
0001
0100
0001
0000
1000
0100
,  // measure 6
0010
0000
0000
0100
1000
0000
0001
0000
0200
0000
0000
0000
1300
0000
0100
0000
,  // measure 7
0001
0000
0010
0001
0100
0000
1010
0000
,  // measure 8
1001
0000
0000
0001
0010
0000
0100
0000
1000
0000
0000
0000
0010
0000
0000
0000
,  // measure 9
0220
0000
0330
1001
,  // measure 10
0101
0000
0010
1000
0001
0010
0100
0000
,  // measure 11
0010
0001
1000
0100
1000
0000
0001
0100
,  // measure 12
0002
0000
1000
0000
0010
0010
0013
0000
,  // measure 13
0001
0100
0010
1000
0100
0000
1100
0000
,  // measure 14
1000
0000
0001
0010
0001
0000
1000
0010
,  // measure 15
0100
1000
0100
0001
0010
0000
0011
0000
,  // measure 16
2000
0000
0001
0000
0010
0010
3010
0000
,  // measure 17
0101
0000
0001
1000
0001
0010
0100
0000
,  // measure 18
1000
0100
0001
0100
1000
0000
1001
0000
,  // measure 19
0001
0100
1000
0100
0001
0000
1001
0000
,  // measure 20
1000
0100
0010
0001
0200
0000
1300
0100
,  // measure 21
0010
0000
0100
0010
0100
0000
1001
0000
,  // measure 22
0011
0000
1000
0100
0010
0100
0010
0000
,  // measure 23
0001
0100
1000
0100
0001
0000
1000
0100
,  // measure 24
0010
0100
1000
0100
0001
0100
1000
0000
,  // measure 25
2002
0000
0000
0000
3003
0110
1001
0000
,  // measure 26
0101
0000
0010
1000
1100
0000
0010
0001
,  // measure 27
1000
0000
0000
0001
1000
0000
0001
0000
0200
0000
0000
0000
0310
0000
0100
0000
,  // measure 28
0001
0010
0100
0010
0001
0000
1100
0000
,  // measure 29
1000
0010
0100
0001
2000
0000
3100
0000
,  // measure 30
1100
0000
0010
0001
0101
0000
0010
1000
,  // measure 31
0100
0000
0000
1000
0100
0000
0010
0000
0002
0000
0000
0000
0103
0000
0010
0000
,  // measure 32
1000
0100
0001
0100
1000
0000
1001
0000
,  // measure 33
0001
0000
0000
0001
0100
0000
0010
0000
2000
0000
0000
0000
3100
0000
0000
0000
,  // measure 34
0220
0000
0330
1001
,  // measure 35
0001
0100
1000
0100
1000
0100
0001
0000
,  // measure 36
1000
0100
0001
0100
1000
0000
0011
0000
,  // measure 37
0002
0000
0010
0010
0013
0000
0101
0000
,  // measure 38
0010
0100
0001
0100
0010
0000
0101
0000
,  // measure 39
0001
0100
1000
0100
1000
0100
0010
0000
,  // measure 40
0110
0000
0100
0001
2000
0000
3001
0000
,  // measure 41
1000
0100
0001
1000
0010
0000
0011
0000
,  // measure 42
0001
0100
0010
1000
0001
0000
0011
0000
,  // measure 43
2000
0000
0100
0100
0100
0000
0010
0000
,  // measure 44
3002
0000
0100
0100
0200
0000
0303
0000
,  // measure 45
0001
0100
0001
1000
0100
0000
1000
0100
,  // measure 46
1000
0000
0001
0010
0200
0000
0310
0001
,  // measure 47
0012
0000
1000
1000
1000
0000
0100
0000
,  // measure 48
2003
0000
0001
0001
0002
0000
3003
1000
,  // measure 49
0100
1000
0001
0100
0101
0000
1010
0000
,  // measure 50
2002
0000
0000
0000
3003
0110
1001
0000
,  // measure 51
1100
0000
1000
0001
0101
0000
0001
1000
,  // measure 52
0100
0000
0000
1000
0100
0000
0010
0000
0001
0000
0000
0000
0100
0000
0010
0000
,  // measure 53
0100
1000
0100
0010
0100
0001
0010
0000
,  // measure 54
0001
0010
0001
1000
0100
0000
1001
0000
,  // measure 55
0101
0000
0010
1000
1010
0000
1000
0100
,  // measure 56
0010
0000
0000
0001
1000
0000
0001
0000
0200
0000
0000
0000
0310
0000
0100
0000
,  // measure 57
0001
0010
0100
0010
0001
1000
0100
1000
,  // measure 58
0001
0000
0000
0100
0001
0000
0100
0000
0020
0000
0000
0000
0130
0000
0000
0000
,  // measure 59
0010
1000
0100
0010
0100
1000
0010
0100
,  // measure 60
0001
0010
0100
0010
0001
0000
0011
0000
,  // measure 61
1000
0000
0100
0000
1000
0000
0100
0000
0000
0010
0000
0001
0010
0000
0001
0000
,  // measure 62
0000
0100
0001
0100
0000
0010
1000
0001
,  // measure 63
1000
0100
1000
0100
0001
0100
0001
0100
,  // measure 64
1000
0010
0100
0001
0010
0000
0001
1000
,  // measure 65
1100
0000
1000
0001
0100
0010
0200
0000
,  // measure 66
0301
0000
0000
0001
0100
0000
0010
0000
1000
0000
0000
0000
0010
0000
0000
0000
,  // measure 67
2001
0000
0010
0000
,  // measure 68
0001
0000
0000
0000
0100
0000
3000
1000
,  // measure 69
1002
0000
0010
0000
,  // measure 70
2000
0000
0000
3003
,  // measure 71
1001
0000
0000
0000
;

//---------------dance-single - ----------------
#NOTES:
     dance-single:
     :
     Beginner:
     1:
     0.145,0.205,0.058,0.000,0.000:
0000
0000
0000
0000
,
0000
0000
0000
0000
,
0000
0000
0000
0000
,
0000
0000
0000
0000
,
1000
0000
0001
0000
,
0100
0000
0100
0000
,
0001
0000
1000
0000
,
0100
0100
0100
0000
,
0000
0000
0000
0000
,
1001
0000
0001
0000
,
1000
0000
0100
0000
,
0010
0000
0010
0000
,
0100
0000
0000
0000
,
0010
0000
0001
0000
,
1000
0000
0001
0000
,
0100
0000
0100
0000
,
0010
0000
0000
0000
,
1000
0000
0010
0000
,
1000
0000
0000
0000
,
0001
0000
0100
0000
,
0001
0000
0000
0000
,
1000
0000
0100
0000
,
0010
0000
0001
0000
,
1000
0000
0001
0000
,
1001
0000
0000
0000
,
0100
0000
0100
0000
,
0010
0000
1000
0000
,
0001
0000
0010
0000
,
0100
0000
0000
0000
,
0010
0000
0010
0000
,
0001
0000
1000
0000
,
0001
0000
0100
0000
,
0010
0010
0010
0000
,
0000
0000
0000
0000
,
1001
0000
1000
0000
,
0100
0000
0000
0000
,
0010
0000
0001
0000
,
1000
0000
0000
0000
,
0001
0000
0100
0000
,
0010
0000
0000
0000
,
0100
0000
0010
0000
,
0100
0000
0000
0000
,
0010
0000
1000
0000
,
0001
0000
1000
0000
,
0001
0000
0010
0000
,
0100
0000
0000
0000
,
1001
0000
0001
0000
,
0100
0000
0010
0000
,
1000
0000
0001
0000
,
1001
0000
0000
0000
,
1000
0000
0100
0000
,
0010
0000
0001
0000
,
0100
0000
0010
0000
,
0100
0000
0000
0000
,
0010
0000
1000
0000
,
0001
0000
0100
0000
,
0010
0000
1000
0000
,
0001
0001
0001
0000
,
1000
0000
0100
0000
,
1000
0000
0000
0000
,
0001
0000
0010
0000
,
0100
0000
0010
0000
,
0001
0000
0100
0000
,
0001
0000
0000
0000
,
1000
0000
0010
0000
,
0100
0100
0100
0000
,
1001
0000
0000
0000
,
0100
0000
0010
0000
,
1000
0000
0000
0000
,
0001
0000
0000
0000
,
1001
0000
0000
0000
;

//---------------dance-single - ----------------
#NOTES:
     dance-single:
     :
     Easy:
     3:
     0.244,0.263,0.100,0.000,0.000:
0000
0000
0000
0000
,
0000
0000
0000
0000
,
0000
0000
0000
0000
,
0000
0000
0000
0000
,
1000
0001
0100
0001
,
1000
0100
0010
0000
,
0100
0010
0100
0000
,
0001
1000
1001
0000
,
0110
0000
0000
0110
,
0010
1000
0001
0000
,
0001
0100
0001
0000
,
1000
0100
0010
0001
,
0100
0010
0100
0000
,
0001
1000
0001
0000
,
0010
0100
0010
0000
,
0001
0100
0010
1000
,
0100
1000
0001
0000
,
1001
0000
0100
0000
,
0010
1000
0001
0000
,
0010
0100
0100
0010
,
0010
0001
1000
0000
,
0001
0100
1000
0100
,
0001
0010
0100
0000
,
1000
0010
0100
0010
,
1001
0000
0000
0000
,
0001
0100
0001
0100
,
0010
0010
0010
0000
,
1000
0000
0100
0000
,
0010
0001
1000
0000
,
1000
0100
1000
0100
,
0010
0010
0010
0000
,
0001
0000
0100
0000
,
0001
1000
0001
0000
,
0110
0000
0000
0110
,
0100
0000
0001
0000
,
1000
0100
1000
0000
,
0001
0010
0100
0010
,
0001
1000
0001
0000
,
0100
0001
0100
0000
,
0010
0100
0010
0000
,
1000
1000
0001
0001
,
1000
0001
1000
0000
,
1001
0000
0100
0000
,
0010
0001
1000
0000
,
0001
0100
0001
0010
,
0100
0010
0001
0000
,
1000
0100
0010
0000
,
0001
0100
0010
0000
,
1000
0001
1000
0001
,
0100
0000
0000
0000
,
0001
0001
0100
0100
,
0001
1000
0001
0000
,
1000
0000
0100
0000
,
0010
0001
1000
0000
,
1000
1000
0100
0100
,
1000
0001
0100
0000
,
0010
0000
0100
0000
,
0001
1000
1001
0000
,
0001
0010
0001
0010
,
0100
1000
0100
0000
,
1000
0000
0010
0000
,
0100
0000
0001
0000
,
1000
0010
0100
0001
,
0010
0100
1000
0001
,
1000
0000
0100
0000
,
0010
0001
1001
0000
,
0110
0000
0000
0000
,
0010
0000
1000
0000
,
0001
0000
0000
0000
,
1000
0000
0000
0000
,
1001
0000
0000
0000
;

//---------------dance-single - ----------------
#NOTES:
     dance-single:
     :
     Medium:
     4:
     0.333,0.351,0.250,0.000,0.000:
0000
0000
0000
0000
,
0000
0000
0000
0000
,
0000
0000
0000
0000
,
0000
0000
0000
0000
,
1000
0001
0100
0001
,
1000
0000
0001
0010
0100
0000
0000
0000
,
0010
0001
1000
0010
,
0100
0000
0010
0010
0010
0000
0000
0000
,
1001
0000
0000
1001
,
0001
0100
0001
0000
,
1000
0000
0100
1000
0100
0000
0000
0000
,
1000
0010
0100
1000
,
0100
0001
1000
0000
,
0001
0010
0001
0000
,
1000
0000
0010
0100
0001
0000
0000
0000
,
1000
0100
0001
0100
,
1000
0000
0010
0100
0010
0000
0000
0000
,
1001
0100
1001
0010
,
0001
0000
1000
0001
1000
0000
0000
0000
,
0001
0100
1000
0100
,
0010
0000
1000
0001
1000
0000
0000
0000
,
0110
1000
0110
0001
,
1000
0000
0001
0010
0001
0000
0000
0000
,
1000
0000
0001
1000
0001
0000
1000
0000
,
1001
0000
0000
0000
0000
0100
0100
0000
,
0101
0100
1100
0100
,
0001
0000
1000
0001
1000
0000
0000
0000
,
1000
0000
0100
0010
0100
0000
0010
0000
,
0001
0000
1000
0001
1000
0000
0000
0000
,
0011
0100
1010
0100
,
1001
0000
0010
0100
0010
0000
0000
0000
,
0001
0000
0010
0100
0010
0000
0001
0000
,
1000
0000
0100
0100
0100
0000
0000
0000
,
1001
0000
0000
0110
,
0010
0001
1000
0001
,
0100
0000
0010
0100
0010
0000
0000
0000
,
1000
0100
0010
0001
,
0100
0010
1001
0000
,
0001
0100
0010
1000
,
0100
0000
0010
0001
0010
0000
0000
0000
,
0101
1100
0001
0100
,
0010
0000
1000
0001
1000
0000
0000
0000
,
1001
0001
0100
1000
,
0100
0000
0001
1000
0001
0000
0000
0000
,
1000
0000
0100
0000
0010
0000
0001
0010
,
0001
1000
1001
0000
,
0001
0100
1000
0100
,
0001
0010
0100
0000
,
0010
0000
0001
0010
0001
0000
1000
0000
,
1001
0000
0000
0000
0000
0100
0100
0000
,
1001
0100
1001
0010
,
0001
0000
1000
0001
1000
0000
0000
0000
,
0001
0100
1000
0100
,
0001
0000
1000
0001
1000
0000
0000
0000
,
1010
0100
0011
0100
,
1000
0000
0001
0100
0001
0000
0000
0000
,
0001
0010
0100
1000
,
0010
0000
0100
0100
0100
0000
0000
0000
,
0011
1000
1010
0001
,
1000
0000
0001
1000
0001
0000
0000
0000
,
1000
0100
0000
0010
0000
0001
0000
0100
,
0000
0010
0000
1000
0000
0001
0000
0100
,
0001
0100
0010
1000
,
0001
0000
1000
0001
1000
0000
0001
0000
,
0110
1000
0110
0001
,
1000
0000
0100
0100
0100
0000
0000
0000
,
1001
0000
0000
0000
,
0001
0000
0100
0000
,
0001
0000
0000
0000
,
1000
0000
0000
0000
,
1001
0000
0000
0000
;
