#TITLE:竹;
#SUBTITLE:;
#ARTIST:立秋 feat. ちょこ;
#TITLETRANSLIT:TAKE;
#SUBTITLETRANSLIT:;
#ARTISTTRANSLIT:Risshou feat. Choko;
#CREDIT:;
#BANNER:TAKE.PNG;
#BACKGROUND:TAKE-bg.PNG;
#LYRICSPATH:;
#CDTITLE:;
#MUSIC:TAKE.mp3;
#OFFSET:-0.020;
#SAMPLESTART:15.280;
#SAMPLELENGTH:13.270;
#SELECTABLE:YES;
#BPMS:0.000=150.000,33.000=219.000,73.000=180.000,88.000=130.000,98.000=142.000,107.000=155.000,116.000=165.000,120.000=175.000,125.000=183.000,133.000=195.000,141.000=200.000,145.000=205.000,149.000=215.000,153.000=219.000,157.000=195.000,163.000=219.000,229.000=217.000,230.000=205.000,231.000=195.000,232.000=183.000,345.000=91.500,351.000=115.000,353.000=160.000,355.000=195.000,357.000=220.000,359.000=235.000,361.000=255.000,363.000=275.000,391.000=300.000,395.000=315.000,425.000=275.001,425.750=200.000,426.500=130.000,427.000=185.000,429.000=215.000,431.000=230.000,433.000=250.000,435.000=270.000,437.000=285.000,439.000=300.000,441.000=315.000,442.750=5.000,443.000=219.000;
#STOPS:;
#BGCHANGES:-0.250=TAKE.avi=1.000=0=0=1,
447.000=TAKE-bg.PNG=1.000=1=0=1,
99999=-nosongbg-=1.000=0=0=0 // don't automatically add -songbackground-
;

//---------------dance-single - ----------------
#NOTES:
     dance-single:
     :
     Hard:
     11:
     0.945,1.000,0.178,0.336,0.800: // measure 1
0000
0000
0000
0000
,  // measure 2
1000
0000
0000
0001
0100
0001
0100
0000
0000
0010
1000
0001
,  // measure 3
1000
0000
0000
1000
0100
0010
0001
0010
0100
0010
0001
1000
,  // measure 4
0001
0000
0000
0100
0010
0100
0001
0000
0000
1000
0100
1000
,  // measure 5
0100
0000
0000
0011
0000
0001
0100
0010
0100
0001
0000
1000
,  // measure 6
0100
0010
0100
1000
0000
0001
0100
0010
0100
0001
0000
0010
,  // measure 7
0100
1000
0001
0100
0000
0001
0100
1000
0100
0001
0000
1000
,  // measure 8
0100
1000
0100
0001
0100
0010
0001
0100
0010
1000
0010
0001
,  // measure 9
0010
0000
1000
0000
0001
0000
2000
0000
0000
0000
0000
0000
0000
0000
0000
0000
0000
0000
0000
0000
0000
3010
0000
0000
,  // measure 10
1000
0001
0010
0001
1000
0100
0010
0001
,  // measure 11
0100
0101
0000
0001
0010
0100
0010
0100
,  // measure 12
1000
0010
0100
0001
0010
0001
1000
0100
,  // measure 13
1000
0002
0000
0103
1000
1000
0100
0001
,  // measure 14
1000
1000
0100
0010
0001
0100
0010
0000
,  // measure 15
0100
0110
0000
0010
1000
0100
0010
0100
,  // measure 16
1000
0010
0100
0001
0010
0100
0010
0001
,  // measure 17
1000
0200
0000
1300
0010
0010
0100
0001
,  // measure 18
1000
0000
0100
0000
1000
0000
0001
1000
0001
0000
0100
0000
0200
0000
0000
0000
,  // measure 19
0300
2002
0000
0000
,  // measure 20
0000
3003
0000
0000
,  // measure 21
0000
0000
0000
0000
,  // measure 22
0000
0000
0000
0000
,  // measure 23
1000
0001
1000
0001
1000
0000
0000
0001
0100
0000
1000
0000
0100
0000
0010
0000
,  // measure 24
1000
0000
0100
0000
0010
0000
0000
0100
0010
0000
0100
0000
0001
0000
0100
0000
,  // measure 25
0010
0001
0010
0001
2000
0000
3002
0000
1003
0000
0000
0010
0100
0000
0010
0000
,  // measure 26
1000
0000
0001
0000
0010
0000
0100
0000
0010
0000
0000
0001
1000
0000
0010
0000
,  // measure 27
1000
0000
0100
0000
1000
0100
0010
0001
0020
0000
0032
0000
0103
0000
0001
0100
,  // measure 28
0001
0000
0100
0000
0010
0000
1000
0000
0100
0000
0010
0000
0100
0000
1000
0100
,  // measure 29
1000
0000
0001
0000
0100
0000
0010
0000
1000
0010
0100
0001
2000
0000
3002
0000
,  // measure 30
1003
0000
0100
0010
0001
0000
0100
0000
0010
0000
1000
0000
0001
0000
0100
0000
,  // measure 31
0010
0000
1000
0010
0100
0000
0010
0000
1000
0000
0001
0000
0010
0001
0010
0001
,  // measure 32
0020
0000
0032
0000
1003
0010
1000
0000
0001
0100
0001
0000
1000
0001
0100
0000
,  // measure 33
0010
0000
1000
0000
0100
1000
0100
0000
0010
0001
1000
0000
1000
0010
0100
0000
,  // measure 34
0020
0000
2030
0000
3001
1000
0001
0000
1000
0010
0100
0000
0001
0010
0001
0000
,  // measure 35
1000
0000
0001
0000
0100
0001
0100
0000
0010
0000
1000
0000
0100
0010
0001
0000
,  // measure 36
0020
0000
0032
0000
1003
0010
0100
0000
0010
0100
0001
0000
1000
0000
0001
0000
,  // measure 37
2002
0000
3003
0000
1000
0100
1000
0000
0001
0000
1000
0100
1000
0000
0001
0000
,  // measure 38
2000
0000
0000
3002
0000
0000
0103
0000
0000
0010
0000
0000
0100
0000
0000
0001
0000
0000
1000
0000
0100
0000
0010
0000
,  // measure 39
0001
0000
0000
0000
0100
0000
0000
0000
0010
0000
0000
0000
1000
0000
0000
0000
0000
0000
0100
0000
0000
0000
0000
0000
0010
0000
0000
0000
0000
0000
0001
0000
0000
0000
0000
0000
0100
0000
0000
0001
0000
0000
0100
0000
0000
0001
0000
0000
,  // measure 40
0100
0010
2001
0000
0000
0000
0100
0000
,  // measure 41
0000
0000
3001
0000
0000
0000
1000
0001
,  // measure 42
1000
1001
0000
0001
0100
0001
0100
0010
,  // measure 43
1000
0010
1000
0100
0010
0001
0100
0010
,  // measure 44
1000
0200
0000
0310
0100
1000
0100
0001
,  // measure 45
0100
1000
0010
0100
0001
0100
0010
0000
,  // measure 46
0100
0101
0000
0001
0010
0100
0010
0001
,  // measure 47
1000
0100
0010
0100
1000
0010
0100
0001
,  // measure 48
0100
0000
0020
0000
0000
0000
0130
0010
0100
0000
0010
0000
1000
0000
0001
0000
,  // measure 49
0010
0001
1000
0100
0010
0100
1000
1000
,  // measure 50
0001
1001
0000
1000
0010
0100
1000
0100
,  // measure 51
0010
1000
0100
0001
0100
0010
0001
1000
,  // measure 52
0001
0200
0000
0301
1000
0100
0010
0010
,  // measure 53
0100
1000
0010
0010
0100
0001
1000
0100
,  // measure 54
0010
0000
0011
0000
0000
0000
0001
0000
0100
0000
0010
0000
1000
0100
1000
0000
,  // measure 55
0001
0000
0100
0000
0010
0000
1000
0000
0100
0000
0010
0000
0001
0100
0010
0000
,  // measure 56
1000
0000
2000
0000
0000
0000
3100
1000
0001
0000
0100
0000
0001
0000
1000
0000
,  // measure 57
0100
0000
0010
0000
0001
0000
1000
0010
1000
0000
0010
0000
1001
0000
0000
0000
,  // measure 58
0001
0100
0001
0100
0001
0000
0100
0000
0001
0000
0100
0000
0001
0000
0100
0000
,  // measure 59
0010
0000
2000
0000
0010
0000
0000
0000
0000
0000
0001
0000
0000
0000
0000
3100
,  // measure 60
0000
0000
0000
1000
0000
0100
0000
0010
0000
0012
0000
0000
,  // measure 61
0000
0000
0000
0103
0000
0010
0000
0100
0000
0001
0000
0100
,  // measure 62
0000
0010
0000
1000
0000
0100
0000
1000
0000
1200
0000
0000
,  // measure 63
0000
0000
0000
1300
0000
0010
0000
0100
0000
1000
0000
0100
,  // measure 64
0000
0000
0001
0000
0000
0000
1000
0000
0000
0100
0000
0000
1000
0000
0000
0001
0000
0000
0201
0000
0000
0000
0000
0000
,  // measure 65
0000
0000
0310
0100
0001
1000
0100
0010
,  // measure 66
0001
0000
1000
0000
0100
0000
1000
0001
1000
0000
0100
0000
2100
0000
0000
0000
,  // measure 67
0000
0000
3010
0100
0001
1000
0100
0010
,  // measure 68
0001
0000
0000
0000
0000
0000
0000
0000
0000
0000
0000
0000
0000
0000
0000
0000
0000
0000
0000
0000
0000
0000
0000
0000
1000
0000
0000
0000
0000
0000
0000
0000
0000
0000
0000
0000
0000
0000
0000
0000
0000
0000
0000
0000
0000
0000
0000
0000
0001
0000
0000
0000
0000
0000
0000
0000
0000
0000
0000
0000
0000
0000
0000
0000
0000
0000
0000
0100
0000
0000
0000
0000
0000
0000
0000
0000
0000
0000
0000
0000
0000
0000
0000
0000
0000
0000
0001
0000
0000
0000
0000
0000
0000
0000
0000
0000
0000
0000
0000
0000
0000
0000
0000
0000
0000
0100
0000
0000
0000
0000
0000
0000
0000
0000
0000
0000
0000
0000
0000
0000
0000
0000
0000
0000
0000
0000
0000
0000
0000
0000
0000
0000
0000
0000
0000
0000
0000
0000
0000
0000
0000
0000
0000
0000
0001
0000
0000
0000
0000
0000
0000
0000
0000
0000
0000
0000
0000
0000
0000
0000
0000
0000
0000
1000
0000
0000
0000
0000
0000
0000
0000
0000
0000
0000
0000
0000
0000
0000
0000
0000
0000
0000
0001
0000
0000
0000
0000
0000
0000
0000
0000
0000
,  // measure 69
0000
0000
0000
0000
0000
0000
0000
0000
0000
1000
0000
0000
0000
0000
0000
0000
0000
0000
0000
0000
0000
0000
0000
0000
0000
0000
0000
0000
0000
0000
0000
0000
0000
0000
0000
0000
0000
0000
0000
0000
0000
0000
0000
0000
0000
0000
0000
0000
0100
0000
0000
0000
0000
0000
0000
0000
0000
0000
0000
0000
0000
0000
0000
0000
0000
0000
0000
0010
0000
0000
0000
0000
0000
0000
0000
0000
0000
0000
0000
0000
0000
0000
0000
0000
0000
0000
0001
0000
0000
0000
0000
0000
0000
0000
0000
0000
0000
0000
0000
0000
0000
0000
0000
0000
0000
0010
0000
0000
0000
0000
0000
0000
0000
0000
0000
0000
0000
0000
0000
0000
0000
0000
0000
0001
0000
0000
0000
0000
0000
0000
0000
0000
0000
0000
0000
0000
0000
0000
0000
0000
0000
0000
0000
0000
1000
0000
0000
0000
0000
0000
0000
0000
0000
0000
0000
0000
0000
0000
0000
0000
0000
0000
0000
0001
0000
0000
0000
0000
0000
0000
0000
0000
0000
0000
0000
0000
0000
0000
0000
0000
0000
0000
1000
0000
0000
0000
0000
0000
0000
0000
0000
0000
,  // measure 70
0000
0000
0000
0000
0000
0000
0000
0000
0000
0001
0000
0000
0000
0000
0000
0000
0000
0000
0000
0000
0000
0000
0000
0000
0000
0000
0000
0100
0000
0000
0000
0000
0000
0000
0000
0000
0000
0000
0000
0000
0000
0000
0000
0000
0000
0000
0000
0000
0010
0000
0000
0000
0000
0000
0000
0000
0000
0000
0000
0000
0000
0000
0000
0000
0000
0000
0000
0100
0000
0000
0000
0000
0000
0000
0000
0000
0000
0000
0000
0000
0000
0000
0000
0000
0000
0000
0001
0000
0000
0000
0000
0000
0000
0000
0000
0000
0000
0000
0000
0000
0000
0000
0000
0000
0000
2000
0000
0000
0000
0000
0000
0000
0000
0000
0000
0000
0000
0000
0000
0000
0000
0000
0000
0000
0000
0000
0000
0000
0000
0000
0000
0000
0000
0000
0000
0000
0000
0000
0000
0000
0000
0000
0000
0000
3001
0000
0000
0000
0000
0000
0000
0000
0000
0000
0000
0000
0000
0000
0000
0000
0000
0000
0000
0100
0000
0000
0000
0000
0000
0000
0000
0000
0000
0000
0000
0000
0000
0000
0000
0000
0000
0000
0001
0000
0000
0000
0000
0000
0000
0000
0000
0000
,  // measure 71
0000
0000
0000
0000
0000
0000
0000
0000
0000
0020
0000
0000
0000
0000
0000
0000
0000
0000
0000
0000
0000
0000
0000
0000
0000
0000
0000
0000
0000
0000
0000
0000
0000
0000
0000
0000
0000
0000
0000
0000
0000
0000
0000
0000
0000
0000
0000
0000
0031
0000
0000
0000
0000
0000
0000
0000
0000
0000
0000
0000
0000
0000
0000
0000
0000
0000
0000
0100
0000
0000
0000
0000
0000
0000
0000
0000
0000
0000
0000
0000
0000
0000
0000
0000
0000
0000
0001
0000
0000
0000
0000
0000
0000
0000
0000
0000
0000
0000
0000
0000
0000
0000
0000
0000
0000
1000
0000
0000
0000
0000
0000
0000
0000
0000
0000
0000
0000
0000
0000
0000
0000
0000
0000
0100
0000
0000
0000
0000
0000
0000
0000
0000
0000
0000
0000
0000
0000
0000
0000
0000
0000
0000
0000
0000
0010
0000
0000
0000
0000
0000
0000
0000
0000
0000
0000
0000
0000
0000
0000
0000
0000
0000
0000
0001
0000
0000
0000
0000
0000
0000
0000
0000
0000
0000
0000
0000
0000
0000
0000
0000
0000
0000
1000
0000
0000
0000
0000
0000
0000
0000
0000
0000
,  // measure 72
0000
0000
0000
0000
0000
0000
0000
0000
0000
0010
0000
0000
0000
0000
0000
0000
0000
0000
0000
0000
0000
0000
0000
0000
0000
0000
0000
0100
0000
0000
0000
0000
0000
0000
0000
0000
0000
0000
0000
0000
0000
0000
0000
0000
0000
0000
0000
0000
0001
0000
0000
0000
0000
0000
0000
0000
0000
0000
0000
0000
0000
0000
0000
0000
0100
0000
0000
0000
0000
0000
0000
0000
0000
0000
0000
0000
0000
0000
0000
0000
0001
0000
0000
0000
0000
0000
0000
0000
0000
0000
0000
0000
0000
0000
0000
0000
2000
0000
0000
0000
0000
0000
0000
0000
0000
0000
0000
0000
0000
0000
0000
0000
0000
0000
0000
0000
0000
0000
0000
0000
0000
0000
0000
0000
0000
0000
0000
0000
0000
0000
0000
0000
0000
0000
0000
0000
0000
0000
0000
0000
0000
0000
0000
0000
3100
0000
0000
0000
0000
0000
0000
0000
0000
0000
0000
0000
0000
0000
0000
0000
1000
0000
0000
0000
0000
0000
0000
0000
0000
0000
0000
0000
0000
0000
0000
0000
0001
0000
0000
0000
0000
0000
0000
0000
0000
0000
0000
0000
0000
0000
0000
0000
,  // measure 73
0020
0000
0000
0130
0010
0100
0010
0001
1000
0001
1000
0001
,  // measure 74
0200
0000
0000
0310
0100
0001
2000
0000
0000
3100
0001
0100
,  // measure 75
2000
0000
0000
3001
0100
0010
1000
0100
0010
0001
0100
0010
,  // measure 76
0100
0000
0000
2002
0000
0000
3003
1000
0001
1000
0001
1000
,  // measure 77
0100
0000
0000
0000
0000
0000
0000
0000
0000
0000
0000
0000
0000
0000
0000
0000
0000
0000
0000
0000
0000
0000
0000
0000
0000
0000
0000
0000
0000
0000
0000
0000
0000
0000
0000
0000
0000
0000
0000
0000
0000
0000
0000
0000
0000
0000
0000
0000
1000
0000
0000
0000
0000
0000
0000
0000
0000
0000
0000
0000
0000
0100
0000
0000
0000
0000
0000
0000
0000
0000
0000
0000
0000
0000
1000
0000
0000
0000
0000
0000
0000
0000
0000
0000
0000
0000
0000
0001
0000
0000
0000
0000
0000
0000
0000
0000
0000
0000
0000
0000
0000
1000
0000
0000
0000
0000
0000
0000
0000
0000
0000
0000
0000
0000
0000
0000
0000
0000
0000
0000
0000
0000
0000
0000
0000
0000
0000
0000
0000
0000
0000
0000
0000
0000
0000
0000
0000
0000
0000
0000
0000
0000
0000
0000
0001
0000
0000
0000
0000
0000
0000
0000
0000
0000
0000
0000
0000
0010
0000
0000
0000
0000
0000
0000
0000
0000
0000
0000
0000
0000
0100
0000
0000
0000
0000
0000
0000
0000
0000
0000
0000
0000
0000
0010
0000
0000
0000
0000
0000
0000
0000
0000
,  // measure 78
0000
0000
0000
0000
0000
0001
0000
0000
0000
0000
0000
0000
0000
0000
0000
0000
0000
0000
0000
0000
0000
0000
0000
0000
0000
0000
0000
0000
0000
0000
0000
0000
0000
0000
0000
0000
0000
0000
0000
0000
0000
0000
0000
0000
0000
0000
0000
0000
0100
0000
0000
0000
0000
0000
0000
0000
0000
0000
0000
0000
0000
0001
0000
0000
0000
0000
0000
0000
0000
0000
0000
0000
0000
0000
0100
0000
0000
0000
0000
0000
0000
0000
0000
0000
0000
0000
0000
0010
0000
0000
0000
0000
0000
0000
0000
0000
0000
0000
0000
0000
0000
1000
0000
0000
0000
0000
0000
0000
0000
0000
0000
0000
0000
0000
0000
0000
0000
0000
0000
0000
0000
0000
0000
0000
0000
0000
0000
0000
0000
0000
0000
0000
0000
0000
0000
0000
0000
0000
0000
0000
0000
0000
0000
0000
0001
0000
0000
0000
0000
0000
0000
0000
0000
0000
0000
0000
0000
1000
0000
0000
0000
0000
0000
0000
0000
0000
0000
0000
0000
0000
0100
0000
0000
0000
0000
0000
0000
0000
0000
0000
0000
0000
0000
1000
0000
0000
0000
0000
0000
0000
0000
0000
,  // measure 79
0000
0000
0000
0000
0000
0100
0000
0000
0000
0000
0000
0000
0000
0000
0000
0000
0000
0000
0000
0000
0000
0000
0000
0000
0000
0000
0000
0000
0000
0000
0000
0000
0000
0000
0000
0000
0000
0000
0000
0000
0000
0000
0000
0000
0000
0000
0000
0000
0010
0000
0000
0000
0000
0000
0000
0000
0000
0000
0000
0000
0000
0001
0000
0000
0000
0000
0000
0000
0000
0000
0000
0000
0000
0000
0010
0000
0000
0000
0000
0000
0000
0000
0000
0000
0000
0000
0000
0001
0000
0000
0000
0000
0000
0000
0000
0000
0000
0000
0000
0000
0000
0100
0000
0000
0000
0000
0000
0000
0000
0000
0000
0000
0000
0000
0000
0000
0000
0000
0000
0000
0000
0000
0000
0000
0000
0000
0000
0000
0000
0000
0000
0000
0000
0000
0000
0000
0000
0000
0000
0000
0000
0000
0000
0000
0010
0000
0000
0000
0000
0000
0000
0000
0000
0000
0000
0000
0000
1000
0000
0000
0000
0000
0000
0000
0000
0000
0000
0000
0000
0000
0100
0000
0000
0000
0000
0000
0000
0000
0000
0000
0000
0000
0000
0010
0000
0000
0000
0000
0000
0000
0000
0000
,  // measure 80
0000
0000
0000
0000
0000
0001
0000
0000
0000
0000
0000
0000
0000
0000
0000
0000
0000
0000
0000
0000
0000
0000
0000
0000
0000
0000
0000
0000
0000
0000
0000
0000
0000
0000
0000
0000
0000
0000
0000
0000
0000
0000
0000
0000
0000
0000
0000
0000
1000
0000
0000
0000
0000
0000
0000
0000
0000
0000
0000
0000
0000
0001
0000
0000
0000
0000
0000
0000
0000
0000
0000
0000
0000
0000
1000
0000
0000
0000
0000
0000
0000
0000
0000
0000
0000
0000
0000
0001
0000
0000
0000
0000
0000
0000
0000
0000
0000
0000
0000
0000
0000
1000
0000
0000
0000
0000
0000
0000
0000
0000
0000
0000
0000
0000
0000
0100
0000
0000
0000
0000
0000
0000
0000
0000
0000
0000
0000
0000
0000
0000
0000
0000
0000
0000
0000
0000
0000
0000
0000
0000
0000
0000
0000
0000
0010
0000
0000
0000
0000
0000
0000
0000
0000
0000
0000
0000
0000
0001
0000
0000
0000
0000
0000
0000
0000
0000
0000
0000
0000
0000
1000
0000
0000
0000
0000
0000
0000
0000
0000
0000
0000
0000
0000
0001
0000
0000
0000
0000
0000
0000
0000
0000
,  // measure 81
0000
0000
0000
0000
0000
0100
0000
0000
0000
0000
0000
0000
0000
0000
0000
0000
0000
0000
0000
0010
0000
0000
0000
0000
0000
0000
0000
0000
0000
0000
0000
0000
0000
0000
0000
0000
0000
0000
0000
0000
0000
0000
0000
0000
0000
0000
0000
0000
1000
0000
0000
0000
0000
0000
0000
0000
0000
0000
0000
0000
0010
0000
0000
0000
0000
0000
0000
0000
0000
0000
0000
0000
1000
0000
0000
0000
0000
0000
0000
0000
0000
0000
0000
0000
0000
0000
0000
0000
0000
0000
0000
0000
0000
0000
0000
0000
0100
0000
0000
0000
0000
0000
0000
0000
0000
0000
0000
0000
0010
0000
0000
0000
0000
0000
0000
0000
0000
0000
0000
0000
0001
0000
0000
0000
0000
0000
0000
0000
0000
0000
0000
0000
0000
0000
0000
0000
0000
0000
0000
0000
0000
0000
0000
0000
0010
0000
0000
0000
0000
0000
0000
0000
0000
0000
0000
0000
0001
0000
0000
0000
0000
0000
0000
0000
0000
0000
0000
0000
0010
0000
0000
0000
0000
0000
0000
0000
0000
0000
0000
0000
0000
0000
0000
0000
0000
0000
0000
0000
0000
0000
0000
0000
,  // measure 82
0001
0100
0010
0000
1000
0010
1000
0000
0001
0100
0001
0000
1000
0100
0010
0001
,  // measure 83
0010
0000
0001
0000
1000
0010
1000
0010
1000
0000
0001
0000
0100
0001
0100
0001
,  // measure 84
0100
0000
0001
0000
0010
0001
1000
0001
0100
0000
0010
0000
1000
0100
0010
0001
,  // measure 85
0010
0001
1000
0000
2002
0000
0000
0000
3003
0000
0001
0000
0100
0000
0000
0000
,  // measure 86
0110
0000
1001
0000
1000
0100
0010
0001
,  // measure 87
0100
0000
0110
0000
0000
0010
1000
0010
1000
0001
0100
0001
0010
0100
1000
0100
,  // measure 88
0001
0100
1000
0020
0000
0130
0001
1000
2002
0000
0000
0000
3003
0000
0000
0000
,  // measure 89
1000
0001
1000
0001
,  // measure 90
1000
0001
1000
0001
,  // measure 91
1000
0100
0010
0001
0100
0101
0000
0001
,  // measure 92
1000
0100
1000
0001
0010
0100
0010
0001
,  // measure 93
1000
0100
0010
0100
1000
0001
0000
0001
,  // measure 94
0100
0001
1000
0001
0010
0001
1000
0100
,  // measure 95
0010
0100
0010
0000
0001
1001
0000
1000
,  // measure 96
0010
0100
0010
1000
0001
0010
0100
1000
,  // measure 97
0001
1000
0100
0010
0001
0100
0000
0001
,  // measure 98
0100
0010
1000
0010
1000
0001
0010
0100
,  // measure 99
0010
0001
0010
0100
0010
0110
0000
0010
,  // measure 100
0001
1000
0001
0100
0010
1000
0001
1000
,  // measure 101
0100
0010
0001
0100
0010
1000
0000
0010
,  // measure 102
1000
0100
0001
0100
1000
0001
1000
0001
,  // measure 103
0100
0010
0100
0000
0001
0101
0000
0001
,  // measure 104
1000
0100
0010
0001
1000
0010
0100
0001
,  // measure 105
0010
0100
0010
0001
1000
0100
0000
0100
,  // measure 106
1000
0010
0100
0001
0010
0001
1000
0001
,  // measure 107
0100
0000
0010
0000
1000
0000
0000
0010
0000
0000
1000
0000
0010
0000
0000
1000
,  // measure 108
0000
0000
0001
0000
0010
0000
0000
0001
0000
0000
1000
0000
0001
0000
0000
0100
,  // measure 109
0000
0000
0010
0000
1000
0000
0000
0100
0000
0000
0010
0000
0001
0000
0000
0100
,  // measure 110
0000
0000
0001
0000
1000
0000
0000
0100
0000
0000
0010
0000
0001
0000
0000
1000
,  // measure 111
0000
0000
0010
0000
0100
0000
0000
0001
0000
0000
0000
0200
0301
0000
0000
0000
;

//---------------dance-single - ----------------
#NOTES:
     dance-single:
     :
     Medium:
     9:
     0.700,0.751,0.221,0.257,0.303:
0000
0000
0000
0000
,
1000
0000
0000
0001
0000
0100
0001
0000
0000
1000
0000
0100
,
1000
0000
0000
0001
0000
0000
1000
0100
1000
0100
0000
0010
,
0001
0000
0000
0001
0000
0100
0010
0000
0000
1000
0000
0000
,
0110
0000
0000
1001
0000
0000
0001
0100
0001
0100
0000
0000
,
0010
1000
0010
1000
0000
0000
0100
1000
0100
1000
0000
0001
,
0100
0000
0010
0100
0000
0000
0010
1000
0001
1000
0000
0000
,
0001
0010
0100
0010
0000
0010
0001
0000
0001
0100
0000
0100
,
0010
0000
1000
0000
0001
0000
2000
0000
0000
0000
0000
0000
0000
0000
0000
0000
0000
0000
0000
0000
0000
0002
0000
0000
,
0000
0000
0000
3003
,
0000
1001
0000
1000
0100
0000
0010
0001
,
0010
0000
0001
0100
0001
0000
1000
0010
,
0100
0001
0000
0001
0100
0000
0010
1000
,
0001
0000
1000
0100
0010
0001
0100
0000
,
0010
0100
0000
0100
0001
0000
1000
0100
,
1000
0000
0001
0010
0100
0010
0001
0000
,
1000
0001
0000
1000
0001
0000
0100
0010
,
0100
0000
0010
1000
0001
1000
0200
0000
,
0300
2002
0000
0000
,
0000
3003
0000
0000
,
0000
0000
0000
0000
,
0000
0000
0000
0000
,
1000
0001
1000
0001
1000
0000
0000
0001
0200
0000
0000
0000
0310
0000
0100
0000
,
0001
1000
0200
0000
0310
0001
1000
0001
,
1000
0000
0002
0000
0100
0000
0103
0000
0100
0000
0000
0001
1000
0000
0100
0000
,
1000
0000
0100
0000
0010
0000
0100
0000
1000
0000
0000
0001
0100
0000
0010
0000
,
0100
0000
0001
0000
1000
0000
0002
0000
0100
0000
0103
0000
0100
0000
0000
0001
,
1000
0000
0100
0000
0010
0000
0100
0000
1000
0000
0001
0000
0100
0000
0000
0010
,
0100
0010
1000
0001
1000
0002
0100
0103
,
0100
0000
0000
0010
0100
0000
0001
0000
1000
0000
0100
0000
0010
0000
0001
0000
,
0100
0010
1000
0001
1000
0100
1000
0002
,
0100
0103
0100
0010
1000
0001
0010
0100
,
0010
0001
1000
0100
1000
0010
0100
0002
,
0100
0103
0100
0010
0100
0010
1000
0010
,
1000
0010
1000
0100
0010
0001
0010
0002
,
0100
0103
0100
0001
1000
0100
0010
0100
,
0010
0001
1000
0010
0100
0010
0100
0002
,
0100
0103
0100
0001
1000
0100
2200
0000
,
0000
0000
0000
0000
3300
0000
1000
0000
0000
0100
0000
0000
0010
0000
0000
0001
0000
0000
0100
0000
0000
0010
0000
0000
,
1000
0001
2001
0000
0000
0000
3100
0000
,
0000
0000
1000
0000
0000
0000
0001
1000
,
0001
0200
0000
0010
0310
0000
0100
0001
,
1000
0000
0001
0010
0001
0000
1000
0100
,
0010
0001
0000
0010
0001
0000
1000
0010
,
0100
0000
0001
0010
0001
1000
0100
1000
,
0001
0100
0000
0100
0010
0000
1000
0001
,
1000
0000
0001
0010
0100
0010
0001
0000
,
1000
0010
0000
1000
0010
0000
0100
0001
,
0100
0000
0001
0010
0100
1000
0010
0100
,
0001
0100
0000
0010
0100
0000
0010
1000
,
0001
0000
1000
0100
1000
0000
0001
0010
,
0100
0010
0000
0100
0010
0000
0001
1000
,
0001
0000
1000
0010
0100
0001
0100
0000
,
0010
1000
0000
1000
0001
0000
1000
0100
,
1000
0000
0001
0010
0100
0010
0001
0000
,
1000
0100
0000
0100
0001
0000
0001
0100
,
1000
0000
0001
1000
0001
1000
0001
0000
,
0110
0000
1000
0010
1000
0010
0100
0001
,
0100
0000
0002
0000
1000
0000
0000
0000
0000
0000
1000
0000
0000
0000
0000
1003
,
0000
0000
0000
0001
0000
0000
0000
0100
0000
0102
0000
0000
,
0000
0000
0000
1003
0000
0100
0000
1000
0000
0001
0000
0100
,
0000
0001
0000
0100
0000
0000
0000
0001
0000
2001
0000
0000
,
0000
0000
0000
3100
0000
1000
0000
0100
0000
0010
0000
0001
,
0000
0000
1000
0000
0000
0000
0001
0000
0000
0000
0000
0000
0100
0000
0000
0001
0000
0000
0102
0000
0000
0000
0000
0000
,
0000
0000
1003
0000
0100
1000
0001
0000
,
0100
0000
0000
0000
0010
0000
0000
1000
0000
0000
0001
0000
2001
0000
0000
0000
,
0000
0000
3010
0000
1000
0100
0010
0100
,
1000
0000
0000
0000
0000
0000
0000
0000
0000
0000
0000
0000
0000
0000
0000
0000
0000
0000
0000
0000
0000
0000
0000
0000
0000
0000
0000
0000
0000
0000
0000
0000
0000
0000
0000
0000
0000
0000
0000
0000
0000
0000
0000
0000
0000
0000
0000
0000
0001
0000
0000
0000
0000
0000
0000
0000
0000
0000
0000
0000
0000
0000
0000
0000
0000
0000
0000
0000
0000
0000
0000
0000
0000
0000
0000
0000
0000
0000
0000
0000
0000
0000
0000
0000
0000
0000
0000
0000
0000
0000
0000
0000
0000
0000
0000
0000
0000
0000
0000
0000
0000
0000
0000
0000
0000
0000
0000
0000
0000
0000
0000
0000
0000
0000
0000
0000
0000
0000
0000
0000
0000
0000
0000
0000
0000
0000
0000
0001
0000
0000
0000
0000
0000
0000
0000
0000
0000
0000
0000
0000
0000
0000
0000
0000
0200
0000
0000
0000
0000
0000
0000
0000
0000
0000
0000
0000
0000
0000
0000
0000
0000
0000
0000
0000
0000
0000
0000
0000
0000
0000
0000
0000
0000
0000
0000
0000
0000
0000
0000
0000
0000
0000
0000
0000
0000
0000
0000
0000
0000
0000
0000
0000
,
0000
0000
0000
0000
0000
0000
0000
0000
0000
0000
0000
0000
0000
0000
0000
0000
0310
0000
0000
0000
0000
0000
0000
0000
0000
0000
0000
0000
0000
0000
0000
0000
0000
0000
0000
0100
0000
0000
0000
0000
0000
0010
0000
0000
0000
0000
0000
0000
1000
0000
0000
0000
0000
0000
0000
0000
0000
0000
0000
0000
0000
0000
0000
0000
,
0000
0000
0000
0001
0000
0000
0000
0000
0000
0000
0000
0000
0000
0000
0000
0000
1001
0000
0000
0000
0000
0000
0000
0000
0000
0000
0000
0000
0000
0000
0000
0000
0000
0000
0000
0000
0000
0000
0000
0000
0000
0001
0000
0000
0000
0000
0000
0000
2000
0000
0000
0000
0000
0000
0000
0000
0000
0000
0000
0000
0000
0000
0000
0000
,
0000
0000
0000
0000
0000
0000
0000
0000
0000
0000
0000
0000
0000
0000
0000
0000
3001
0000
0000
0000
0000
0000
0000
0000
0000
0000
0000
0000
0000
0000
0000
0000
0000
0000
0000
0001
0000
0000
0000
0000
0000
0100
0000
0000
0000
0000
0000
0000
0002
0000
0000
0000
0000
0000
0000
0000
0000
0000
0000
0000
0000
0000
0000
0000
,
0003
0000
0000
0000
0000
0000
0000
0000
0000
1000
0000
0000
0000
0000
0000
0000
0000
0000
0000
0000
0000
0000
0000
0000
0000
0000
0000
0100
0000
0000
0000
0000
0000
0000
0000
0000
0000
0000
0000
0000
0000
0000
0000
0000
0000
0000
0000
0000
1000
0000
0000
0000
0000
0000
0000
0000
0000
0000
0000
0000
0000
0000
0000
0000
0000
0000
0000
0000
0000
0000
0000
0000
0000
0000
0000
0000
0000
0000
0000
0000
0100
0000
0000
0000
0000
0000
0000
0000
0000
0000
0000
0000
0000
0000
0000
0000
1000
0000
0000
0000
0000
0000
0000
0000
0000
0000
0000
0000
0000
0000
0000
0000
0000
0000
0000
0000
0000
0000
0000
0000
0000
0000
0000
0000
0000
0000
0000
0000
0000
0000
0000
0000
0000
0000
0000
0000
0000
0000
0000
0000
0000
0000
0000
0000
0001
0000
0000
0000
0000
0000
0000
0000
0000
0000
0000
0000
0000
0000
0000
0000
0000
0000
0000
0000
0000
0000
0000
0000
0000
0000
0000
0000
0000
0000
0000
0000
0100
0000
0000
0000
0000
0000
0000
0000
0000
0000
0000
0000
0000
0000
0000
0000
,
0001
0000
0000
1000
0000
0100
0000
0010
0001
1000
0000
0001
,
0000
0100
0000
0010
0000
1000
0000
1010
0000
1000
0000
0001
,
0000
0011
0000
0010
0000
0001
0000
1000
0001
1000
0000
0001
,
0100
0001
0000
2002
0000
0000
0000
0000
0000
3003
0000
0000
,
1001
0000
0000
0000
0000
0000
0000
0000
0000
0000
0000
0000
0000
0000
0000
0000
0000
0000
0000
0000
0000
0000
0000
0000
0000
0000
0000
0000
0000
0000
0000
0000
0000
0000
0000
0000
0000
0000
0000
0000
0000
0000
0000
0000
0000
0000
0000
0000
1000
0000
0000
0000
0000
0000
0000
0000
0000
0000
0000
0000
0000
0000
0000
0000
0000
0000
0000
0000
0000
0000
0000
0000
0000
0000
0100
0000
0000
0000
0000
0000
0000
0000
0000
0000
0000
0000
0000
0000
0000
0000
0000
0000
0000
0000
0000
0000
0000
0000
0000
0000
0000
1000
0000
0000
0000
0000
0000
0000
0000
0000
0000
0000
0000
0000
0000
0000
0000
0000
0000
0000
0000
0000
0000
0000
0000
0000
0000
0000
0000
0000
0000
0000
0000
0000
0000
0000
0000
0000
0000
0000
0000
0000
0000
0000
0001
0000
0000
0000
0000
0000
0000
0000
0000
0000
0000
0000
0000
0000
0000
0000
0000
0000
0000
0000
0000
0000
0000
0000
0000
0000
0100
0000
0000
0000
0000
0000
0000
0000
0000
0000
0000
0000
0000
0000
0000
0000
0000
0000
0000
0000
0000
0000
,
0000
0000
0000
0000
0000
0001
0000
0000
0000
0000
0000
0000
0000
0000
0000
0000
0000
0000
0000
0000
0000
0000
0000
0000
0000
0000
0000
0000
0000
0000
0000
0000
0000
0000
0000
0000
0000
0000
0000
0000
0000
0000
0000
0000
0000
0000
0000
0000
1000
0000
0000
0000
0000
0000
0000
0000
0000
0000
0000
0000
0000
0000
0000
0000
0000
0000
0000
0000
0000
0000
0000
0000
0000
0000
0000
0000
0000
0000
0000
0000
0000
0000
0000
0000
0000
0000
0000
0010
0000
0000
0000
0000
0000
0000
0000
0000
0000
0000
0000
0000
0000
0000
0000
0000
0000
0000
0000
0000
0000
0000
0000
0000
0000
0000
0000
0000
0000
0000
0000
0000
0000
0000
0000
0000
0000
0000
0000
0000
0000
0000
0000
1000
0000
0000
0000
0000
0000
0000
0000
0000
0000
0000
0000
0000
0000
0000
0000
0000
0000
0000
0000
0000
0000
0000
0000
0000
0000
0000
0000
0000
0000
0000
0000
0000
0000
0000
0000
0000
0000
0000
0000
0000
0000
0000
0000
0000
0000
0000
0000
0000
0000
0000
0000
0000
0000
0001
0000
0000
0000
0000
0000
0000
,
0000
0000
0000
0000
0000
0000
0000
0000
0000
0000
0000
0000
0000
0000
0000
0000
0000
0000
0000
0000
0000
0000
0100
0000
0000
0000
0000
0000
0000
0000
0000
0000
0000
0000
0000
0000
0000
0000
0000
0000
0000
0000
0000
0000
0000
0000
0000
0000
0001
0000
0000
0000
0000
0000
0000
0000
0000
0000
0000
0000
0000
0000
0000
0000
0000
0000
0000
0000
0000
0000
0000
0000
0000
0000
0010
0000
0000
0000
0000
0000
0000
0000
0000
0000
0000
0000
0000
0000
0000
0000
0000
0000
0000
0000
0000
0000
0000
0000
0000
0000
0000
0001
0000
0000
0000
0000
0000
0000
0000
0000
0000
0000
0000
0000
0000
0000
0000
0000
0000
0000
0000
0000
0000
0000
0000
0000
0000
0000
0000
0000
0000
0000
0000
0000
0000
0000
0000
0000
0000
0000
0000
0000
0000
0000
1000
0000
0000
0000
0000
0000
0000
0000
0000
0000
0000
0000
0000
0000
0000
0000
0000
0000
0000
0000
0000
0000
0000
0000
0000
0000
0010
0000
0000
0000
0000
0000
0000
0000
0000
0000
0000
0000
0000
0000
0000
0000
0000
0000
0000
0000
0000
0000
,
0000
0000
0000
0000
0000
1000
0000
0000
0000
0000
0000
0000
0000
0000
0000
0000
0000
0000
0000
0000
0000
0000
0000
0000
0000
0000
0000
0000
0000
0000
0000
0000
0000
0000
0000
0000
0000
0000
0000
0000
0000
0000
0000
0000
0000
0000
0000
0000
0001
0000
0000
0000
0000
0000
0000
0000
0000
0000
0000
0000
0000
0000
0000
0000
0000
0000
0000
0000
0000
0000
0000
0000
0000
0000
0000
0000
0000
0000
0000
0000
0000
0000
0000
0000
0000
0000
0000
0100
0000
0000
0000
0000
0000
0000
0000
0000
0000
0000
0000
0000
0000
0000
0000
0000
0000
0000
0000
0000
0000
0000
0000
0000
0000
0000
0000
0000
0000
0000
0000
0000
0000
0000
0000
0000
0000
0000
0000
0000
0000
0000
0000
0001
0000
0000
0000
0000
0000
0000
0000
0000
0000
0000
0000
0000
0000
0000
0000
0000
0000
0000
0000
0000
0000
0000
0000
0000
0000
0000
0000
0000
0000
0000
0000
0000
0000
0000
0000
0000
0000
0000
0000
0000
0000
0000
0000
0000
0000
0000
0000
0000
0000
0000
0000
0000
0000
1000
0000
0000
0000
0000
0000
0000
,
0000
0000
0000
0000
0000
0000
0000
0000
0000
0000
0000
0000
0000
0000
0000
0000
0000
0000
0000
0000
0000
0000
0010
0000
0000
0000
0000
0000
0000
0000
0000
0000
0000
0000
0000
0000
0000
0000
0000
0000
0000
0000
0000
0000
0000
0000
0000
0000
1000
0000
0000
0000
0000
0000
0000
0000
0000
0000
0000
0000
0000
0000
0000
0000
0000
0000
0000
0000
0000
0000
0000
0000
0100
0000
0000
0000
0000
0000
0000
0000
0000
0000
0000
0000
0000
0000
0000
0000
0000
0000
0000
0000
0000
0000
0000
0000
1000
0000
0000
0000
0000
0000
0000
0000
0000
0000
0000
0000
0000
0000
0000
0000
0000
0000
0000
0000
0000
0000
0000
0000
0100
0000
0000
0000
0000
0000
0000
0000
0000
0000
0000
0000
0000
0000
0000
0000
0000
0000
0000
0000
0000
0000
0000
0000
0001
0000
0000
0000
0000
0000
0000
0000
0000
0000
0000
0000
0000
0000
0000
0000
0000
0000
0000
0000
0000
0000
0000
0000
0100
0000
0000
0000
0000
0000
0000
0000
0000
0000
0000
0000
0000
0000
0000
0000
0000
0000
0000
0000
0000
0000
0000
0000
,
0001
0100
1000
0010
0100
0001
0010
0100
,
0010
0000
0001
0010
0001
1000
0001
0100
,
0010
1000
0010
0100
0001
0010
0100
0010
,
0001
1000
1002
0000
0000
0100
0100
0000
,
1000
0000
0103
0000
0001
1000
0001
1000
,
0001
2000
0000
0010
3001
0000
0002
0010
,
1003
0000
0001
0100
0000
0000
0010
0000
0220
0000
0000
0000
0330
0000
0000
0000
,
0100
0100
0100
0100
,
0100
0100
0100
0100
,
0100
0000
0100
0010
0100
0010
0000
1000
,
0010
1000
0100
0010
,
0100
0000
1000
0000
0001
0100
0000
0100
,
0001
0000
1000
0010
1000
0000
0001
0100
,
0001
0000
1000
0000
0001
1000
0000
1000
,
0100
0000
0010
0001
0010
0000
0001
0000
,
1000
0000
0100
1000
0100
1000
0000
0001
,
0010
0000
0001
0100
0001
0000
1000
0000
,
0001
0000
1000
0010
0100
0001
0000
0001
,
0100
0000
0010
1000
0010
0000
1000
0000
,
0100
0000
0010
0000
0001
0010
0000
0001
,
0010
0000
0001
0000
0100
0000
0010
1000
,
0010
1000
0010
0000
0100
0001
0000
0001
,
1000
0001
0100
0010
,
1000
0000
0001
0000
0010
0001
0000
1000
,
0100
0000
1000
0010
1000
0000
0001
0100
,
0001
0000
0000
0000
2002
0000
0000
3000
0000
0000
0003
0000
1001
0000
0000
0000
,
0100
1100
0010
1001
,
0100
0011
0100
1010
,
1010
1100
1100
0110
,
0110
0011
0012
1003
;

//---------------dance-single - ----------------
#NOTES:
     dance-single:
     :
     Easy:
     6:
     0.480,0.593,0.307,0.250,0.011:
0000
0000
0000
0000
,
1000
0100
0001
0100
,
1000
1000
0001
1001
,
1000
0001
0100
0010
,
0110
1001
0001
0100
,
0010
1000
0100
0010
,
0001
1001
0100
0110
,
0010
1000
0100
0010
,
0001
2002
0000
0000
,
0000
0000
0000
3003
,
0000
1001
0000
0000
0001
0000
0100
0000
,
0001
1000
0100
0010
,
0001
0010
0000
0000
0001
0000
0100
0000
,
0001
1000
0010
0100
,
0010
0100
0000
0000
0010
0000
1000
0000
,
0100
0010
0001
1000
,
0001
1000
0000
0000
0001
0000
0100
0000
,
0010
0000
1000
0000
0001
1000
0002
0000
,
0003
2002
0000
0000
,
0000
3003
0000
0000
,
0000
0000
0000
0000
,
0000
0000
0000
0000
,
1000
0100
1000
0000
0101
0000
0001
0000
,
1010
0000
0100
0000
1001
0000
0001
0010
,
0100
0010
0002
0000
1003
0000
0101
0000
,
0010
1100
1000
0110
,
0010
1000
0010
1000
0002
0000
1003
0000
,
1100
0010
0011
0001
,
0101
0000
0010
1000
0010
1000
0002
0000
,
1003
1100
0001
0101
,
1000
0000
0101
0000
0001
0010
0100
1000
,
0200
1300
0010
0100
,
0001
0000
0010
0000
0100
0000
0010
0001
,
0020
0031
0100
0010
,
1000
0000
0001
0000
0100
0000
0010
1000
,
0002
0000
1003
0000
0100
0000
1000
0100
,
1000
0000
0001
0000
0100
0000
0010
0100
,
0020
0130
0001
2002
,
3003
0000
1000
0000
0100
0000
1000
0001
,
1000
0001
2000
0000
0000
0000
3001
0000
,
0000
0100
0000
0010
,
0010
0100
0000
0000
0001
0000
0100
0000
,
0001
1000
0100
0010
,
0001
1000
0000
0000
0001
0000
1000
0000
,
0010
0100
0001
1000
,
0100
1000
0000
0000
0100
0000
0001
0000
,
0100
1000
0100
0010
,
0001
1000
0000
0000
0001
0000
0100
0000
,
0010
0000
1000
0000
0001
0000
0100
0010
,
0100
0010
0000
0000
0100
0000
0001
0000
,
1000
0100
0010
0001
,
1000
0010
0000
0010
1000
0000
0001
0000
,
0100
0001
1000
0100
,
0010
0001
0000
0010
0001
0000
1000
0000
,
0001
0100
0010
1000
,
0001
0100
0000
0100
0001
0000
1000
0000
,
0010
0000
0100
0010
0100
0010
0200
0000
,
0300
1000
0001
1000
,
0001
0000
0000
0000
2002
0000
0000
0000
0000
0000
0000
0000
0000
0000
0000
3003
,
0000
1000
0000
1001
,
0000
0000
0000
0001
0000
0000
0000
0100
0000
0001
0000
0000
,
0000
0100
0000
0110
,
0000
0000
0000
0010
0000
0000
0000
1000
0000
0001
0000
0000
,
0000
0000
1000
0000
0000
0100
1000
0000
,
0000
0001
0100
0001
,
0100
0000
0010
0000
0000
0100
0001
0000
,
0010
0100
0010
0001
,
1001
1200
0000
0320
,
0000
0032
0000
0203
,
0000
0320
0000
0230
,
0000
2300
0000
3200
,
0000
0310
0100
0010
,
1000
0100
0010
0001
,
1000
0100
1000
0001
,
0010
0100
0010
0001
,
1000
2002
0000
3003
,
1001
0001
0101
0100
,
0101
0001
0010
0100
,
1000
0100
1010
0001
,
1010
0001
0100
0010
,
1000
0000
0001
0100
0001
0000
1000
0100
,
1000
0001
0010
0100
,
1000
0000
0001
0010
0100
0000
0010
0001
,
1000
0001
0100
0010
,
1000
0000
1001
0000
0001
0100
0000
0000
,
0101
1001
1000
2002
,
3003
0001
0101
1000
,
1100
0000
0000
1000
0000
0000
0002
0000
2000
0000
0000
0000
3003
0000
0000
0000
,
0010
0010
0010
0010
,
0000
0100
0000
0001
,
0000
1000
0000
0100
,
1000
0100
0010
0001
,
0010
0001
0000
1000
,
0010
1000
0000
0001
,
0100
0001
0000
1000
,
0100
1000
0001
0100
,
0010
0100
0000
0010
,
0100
0001
0000
1000
,
0001
1000
0001
0100
,
0001
0100
0000
0010
,
1000
0010
0000
1000
,
0100
1000
0000
0001
,
0010
0100
0000
0010
,
0001
1000
0000
0001
,
0100
0010
0000
1000
,
0010
0100
0001
0100
,
0010
2000
0000
3001
,
0000
1001
0000
1000
,
0000
1100
0000
0100
,
0000
0110
0000
1001
,
0000
2002
0000
3003
;

//---------------dance-single - ----------------
#NOTES:
     dance-single:
     :
     Beginner:
     3:
     0.203,0.277,0.107,0.014,0.000:
0000
0000
0000
0000
,
1000
0000
0100
0000
,
1000
0000
0001
0000
,
0100
0000
0020
0000
,
0030
0100
0000
0010
,
0000
0100
0000
0001
,
0000
1000
0000
0001
,
0000
1000
0000
0001
,
0000
1001
0000
0000
,
0000
0000
0000
0000
,
0000
1000
0000
0100
,
0000
1000
0000
0001
,
0000
0100
0000
0000
,
0000
0010
0000
0000
,
0000
0100
0000
0010
,
0000
0100
0000
0001
,
0000
1000
0000
0001
,
0000
1000
0000
0000
,
0000
1001
0000
0000
,
0000
0000
0000
0000
,
0000
0000
0000
0000
,
0000
0000
0000
0000
,
0000
1000
0000
0100
,
0000
1000
0000
0001
,
0000
0100
0100
0000
,
0001
0000
1000
0000
,
0100
0000
0010
0010
,
0000
0001
0000
1000
,
0000
0001
0000
0100
,
0100
0000
0010
0000
,
0100
0000
0001
0000
,
1000
1000
0000
0001
,
0000
1000
0000
0001
,
0000
0100
0000
0010
,
0000
0100
0000
0010
,
0000
1000
0000
0001
,
0000
1000
0000
0100
,
0000
0010
0000
0001
,
0000
1000
0000
0001
,
0000
1001
0000
0000
,
0000
0000
0000
0000
,
0000
1001
0000
0001
,
0000
0100
0000
0001
,
0000
1000
0000
0000
,
0000
0100
0000
0000
,
0000
0010
0000
0001
,
0000
1000
0000
0001
,
0000
0100
0000
0000
,
0000
0001
0000
1000
,
1000
1000
0000
0100
,
0000
1000
0000
0100
,
0000
0010
0000
0000
,
0000
0100
0000
0010
,
0000
0001
0000
1000
,
0000
0001
0000
0100
,
0000
0010
0000
0100
,
0000
0100
0000
0110
,
0000
1001
0000
0000
,
0000
0000
0000
0000
,
0000
0001
0000
0000
,
0000
0100
0000
0001
,
0000
1000
0000
0000
,
0000
0100
0000
1000
,
0000
0001
0000
0000
,
0000
0010
0000
0100
,
0000
0010
0000
0000
,
0000
0001
0000
1000
,
0000
0001
0000
0001
,
0000
1000
0000
0001
,
0000
0100
0000
0100
,
0000
0010
0000
1000
,
0000
0100
0000
0100
,
0000
0010
0000
0001
,
0000
1000
0000
1000
,
0000
0001
0000
1001
,
0000
0110
0000
0000
,
0000
1001
0000
1000
,
0000
0100
0000
0010
,
0000
0110
0000
0100
,
0000
0010
0000
0001
,
0000
1001
0000
0001
,
0000
0110
0000
0100
,
0000
0110
0000
0010
,
0000
1001
0000
0100
,
0100
0100
0000
0010
,
0000
0100
0000
0001
,
0000
1001
0000
0100
,
0000
0010
0010
0000
,
0000
0000
0000
0000
,
0000
0000
0000
0000
,
0000
0000
0000
1000
,
0000
0000
0000
0001
,
0000
0000
0000
1000
,
0000
0001
0000
0100
,
0000
0001
0000
1000
,
0000
0000
0000
0001
,
0000
0000
0000
1000
,
0000
0100
0000
1000
,
0000
0100
0000
1000
,
0000
0000
0000
0001
,
0000
0000
0000
0100
,
0000
0001
0000
0100
,
0000
0010
0000
0100
,
0000
0000
0000
0010
,
0000
0000
0000
0100
,
0000
0010
0000
1000
,
0000
0001
0000
1000
,
0000
1000
0000
1000
,
0000
1000
0000
0001
,
0000
0001
0000
0001
,
0000
0002
0000
0003
;
