#TITLE:Siren Song;
#SUBTITLE:;
#ARTIST:MARUV;
#TITLETRANSLIT:;
#SUBTITLETRANSLIT:;
#ARTISTTRANSLIT:;
#CREDIT:;
#BANNER:Siren Song.png;
#BACKGROUND:Siren Song-bg.PNG;
#LYRICSPATH:;
#CDTITLE:;
#MUSIC:Siren Song.mp3;
#OFFSET:-0.020;
#SAMPLESTART:43.320;
#SAMPLELENGTH:16.690;
#SELECTABLE:YES;
#BPMS:0.000=115.000;
#STOPS:;
#BGCHANGES:-0.250=Siren Song.avi=1.000=1=1=0,
180.000=Siren Song-bg.PNG=1.000=1=0=1,
99999=-nosongbg-=1.000=0=0=0 // don't automatically add -songbackground-
;

//---------------dance-single - ----------------
#NOTES:
     dance-single:
     :
     Hard:
     7:
     0.479,0.405,0.394,0.160,0.133: // measure 1
0000
0000
0000
0000
,  // measure 2
0002
0010
0000
1003
,  // measure 3
0001
0000
0000
0002
0000
0000
1000
0000
0000
2000
0000
0000
3003
0000
0000
0000
,  // measure 4
0200
1000
0000
0301
,  // measure 5
0100
0000
0000
0200
0000
0000
0010
0000
0000
0020
0000
0000
0330
0000
0000
0000
,  // measure 6
1000
0000
0001
0100
0000
0000
0001
0000
1000
0200
0000
0000
1300
0000
0000
0000
,  // measure 7
0001
0100
1000
0100
0001
0000
1100
0000
,  // measure 8
1000
0000
0001
0010
0000
0000
0001
0000
1000
0020
0000
0000
0130
0000
0000
0000
,  // measure 9
0010
0000
1000
0000
0001
0000
0010
0000
0001
0000
0000
0000
1000
0000
0100
1000
,  // measure 10
0100
0000
0000
0000
0010
0000
0000
0001
0100
0000
0010
0000
0100
0000
0001
0000
,  // measure 11
1000
0000
0000
0000
0010
0000
0000
0100
1000
0000
0100
0000
0001
0000
1000
0000
,  // measure 12
0001
0000
0000
0000
1000
0000
0000
0100
1000
0000
0100
0000
0010
0000
0001
0000
,  // measure 13
0100
0000
0000
0000
0010
0000
0000
0100
0001
0000
1000
0000
0100
0000
0010
0000
,  // measure 14
0011
0000
0101
0000
1001
0000
1100
1000
,  // measure 15
0200
0001
0010
1300
,  // measure 16
1010
0000
0110
0000
0101
0000
0011
0001
,  // measure 17
0100
1000
0100
0001
0010
0000
1100
0000
,  // measure 18
1010
0000
0101
0000
0011
0000
1100
1000
,  // measure 19
0020
0001
0100
1030
,  // measure 20
0001
1000
0001
0000
1000
0000
0001
0010
,  // measure 21
0000
2200
0000
0000
0000
3300
1001
0000
,  // measure 22
0110
0000
0001
1000
0001
0000
0100
0000
,  // measure 23
0110
0000
0001
1000
0001
0000
0100
0000
,  // measure 24
1001
0000
0001
0010
0100
0000
0010
0000
,  // measure 25
1001
1000
0001
0010
0100
0000
0010
0000
,  // measure 26
0101
0000
0010
1000
0100
1000
0001
0000
,  // measure 27
1100
1000
0010
0100
0001
0010
0100
0000
,  // measure 28
1001
0000
0100
0010
1000
0000
0101
0000
,  // measure 29
0001
0000
1000
0000
0000
0001
0000
1000
0001
0000
0100
0000
0110
0000
0000
0000
,  // measure 30
1100
0000
1000
0100
0001
0100
0010
0001
,  // measure 31
0100
0000
0010
0100
1000
0100
0001
0000
,  // measure 32
1001
0000
0000
0000
0001
0000
0010
0000
0001
0000
1000
0100
0000
1000
0100
0000
,  // measure 33
0010
0001
0100
0001
1000
0000
0110
0000
,  // measure 34
1001
0000
0001
0100
0010
0001
0010
1000
,  // measure 35
0001
0000
1000
0100
0010
0100
1000
0000
,  // measure 36
0011
0000
0000
0000
0001
0000
0100
0000
0010
0000
1000
0001
0000
0100
0010
0000
,  // measure 37
1000
0010
1000
0001
0020
0000
0130
0000
,  // measure 38
1001
0000
0001
0100
0110
0000
2001
0000
,  // measure 39
3100
0001
0100
1000
0010
0100
0100
0001
,  // measure 40
0010
0000
0000
0000
0001
0000
1000
0000
0100
0000
1000
0100
0000
1000
0100
0000
,  // measure 41
0010
0001
0100
0010
0110
0000
0010
1000
,  // measure 42
1001
0000
0001
0010
0100
0001
0100
1000
,  // measure 43
0010
0100
0100
0001
1001
0000
1000
0100
,  // measure 44
1000
0000
0000
0000
0001
0000
0010
0000
0100
0000
0010
0001
0000
0010
0001
0000
,  // measure 45
1000
0000
0001
0000
0000
1000
0000
0002
0103
0000
0000
0000
1001
0000
0000
0000
;

//---------------dance-single - ----------------
#NOTES:
     dance-single:
     :
     Medium:
     4:
     0.351,0.333,0.255,0.192,0.000:
0000
0000
0000
0000
,
2000
0010
0000
3010
,
1000
0010
0100
0001
,
0002
0010
0000
0013
,
0001
1000
0001
0000
,
1000
0000
0001
0000
0100
0001
0000
0000
,
0001
0000
0010
0000
0001
1000
0000
1000
,
0100
0000
1000
0000
0010
0100
0000
0000
,
0010
0000
0100
0000
0001
1000
0000
0001
,
1000
0000
0011
0000
0001
0100
0001
0000
,
1000
0000
0001
0010
0100
0000
0010
0000
,
0001
0000
1010
0000
0010
0100
0001
0000
,
1000
0000
0100
1000
0100
0000
1000
0000
,
0002
0010
1000
0100
,
2000
0000
3003
0000
0001
0000
0010
0001
,
2000
0010
0001
0100
,
3001
0000
1000
0010
0100
0000
0001
0000
,
0200
1000
0010
0001
,
0020
0000
0330
0000
0010
1000
0001
0000
,
1000
0000
0100
0000
0010
0000
0001
1000
,
0000
2002
0000
0000
3003
0000
1001
0000
,
0101
0000
0001
0100
0001
0000
1000
0000
,
1100
0000
1000
0100
1000
0000
0001
0000
,
1001
0000
0100
0010
0100
0000
0001
0000
,
0011
0000
1000
0100
0010
0000
0100
0000
,
1001
0000
0010
0100
0001
0000
0010
0000
,
1100
0000
1000
0010
0100
0000
0001
0000
,
0011
0000
0100
0001
0100
0000
0010
0000
,
2002
0000
3003
0110
,
1001
0000
0001
0100
0001
0000
0100
0000
,
0010
1000
0001
0000
1000
0000
0100
0000
,
0010
0000
0001
0100
0001
0000
0100
0001
,
0100
0010
1000
0001
,
0110
0000
0001
0100
0001
0000
1000
0000
,
0010
1000
0100
0000
0010
0000
0100
0000
,
0010
0000
0001
1000
0001
0000
1000
0001
,
1000
0001
0200
0300
,
0110
0000
2002
3003
,
1000
0100
0000
0100
1000
0000
0001
0000
,
0100
0000
1001
0001
,
0010
0001
0000
1000
0001
0000
0100
0000
,
1010
0000
2002
3003
,
0001
1000
0001
1000
0100
0000
0010
0000
,
1001
0000
0220
0330
,
0010
0100
0010
0000
0110
0000
1001
0000
;

//---------------dance-single - ----------------
#NOTES:
     dance-single:
     :
     Easy:
     4:
     0.313,0.357,0.383,0.255,0.000:
0000
0000
0000
0000
,
0200
0000
0000
0300
,
0010
0000
0100
0000
,
0020
0000
0000
0030
,
0100
0000
0001
0000
,
1001
0100
0020
0000
,
1030
0100
0020
0000
,
0031
0100
0010
1000
,
0100
0010
0200
0000
,
0310
0001
1000
0100
,
0010
0001
0200
0000
,
0310
0100
1000
0100
,
0001
1000
0200
0300
,
0110
0100
1001
0110
,
1002
0010
2000
3003
,
1001
0001
0100
0010
,
1000
0100
0220
0330
,
1001
0100
1001
0110
,
2001
0010
0002
3003
,
1001
0001
0100
0010
,
2002
0000
3003
0110
,
1001
0010
0100
0010
,
1001
0010
0100
0010
,
1001
1000
0100
0010
,
1001
0001
0100
0010
,
0110
0100
0001
0010
,
0110
0100
0010
0001
,
1001
0100
0010
1000
,
2002
0000
3003
1001
,
0110
0010
1000
0100
,
0020
0001
0001
0031
,
1001
0001
0100
0010
,
2000
0100
0100
3100
,
1001
0100
0010
1000
,
0200
0010
0010
0310
,
0110
0010
0001
1000
,
2001
0001
0002
3003
,
1001
0000
0110
0000
,
1000
0001
0010
0100
,
0010
0001
1001
0000
,
0010
0100
0001
1000
,
1001
0000
0110
0000
,
0100
0001
1000
0100
,
0010
0001
1001
1000
,
0220
0000
0330
0110
;

//---------------dance-single - ----------------
#NOTES:
     dance-single:
     :
     Beginner:
     1:
     0.105,0.119,0.032,0.000,0.000:
0000
0000
0000
0000
,
0001
0000
0000
0000
,
0000
0000
0000
0000
,
1000
0000
0000
0000
,
0000
0000
0000
0000
,
0001
0000
0100
0000
,
0001
0000
0000
0000
,
1000
0000
0100
0000
,
1000
0000
0000
0000
,
0001
0000
0010
0000
,
0100
0000
0000
0000
,
1000
0000
0010
0000
,
0100
0000
0000
0000
,
0001
0000
0100
0000
,
0001
0000
0000
0000
,
0100
0000
0001
0000
,
1000
0000
0100
0000
,
0010
0000
0100
0000
,
0010
0000
0000
0000
,
0001
0000
1000
0000
,
0001
0000
0000
0100
,
0100
0000
0100
0000
,
0010
0000
0010
0000
,
1000
0000
1000
0000
,
0001
0000
0001
0000
,
1000
0000
0100
0000
,
0010
0000
0001
0000
,
0100
0000
0010
0000
,
1000
0000
0000
1000
,
1000
0000
0000
0000
,
0001
0000
0000
0000
,
0100
0000
0001
0000
,
1000
0000
0001
0000
,
0100
0000
0000
0000
,
0010
0000
0000
0000
,
1000
0000
0001
0000
,
1000
0000
0000
0000
,
1001
0000
0000
0000
,
0001
0000
0000
0000
,
0010
0000
0001
0000
,
0100
0000
0000
0000
,
0110
0000
0000
0000
,
0010
0000
0000
0000
,
0100
0000
0010
0000
,
1000
0000
0000
1001
;
