#TITLE:Shadow Moses;
#SUBTITLE:;
#ARTIST:Bring Me The Horizon;
#TITLETRANSLIT:;
#SUBTITLETRANSLIT:;
#ARTISTTRANSLIT:;
#CREDIT:;
#BANNER:;
#BACKGROUND:;
#LYRICSPATH:;
#CDTITLE:;
#MUSIC:Shadow Moses.mp3;
#OFFSET:-6.730;
#SAMPLESTART:70.510;
#SAMPLELENGTH:13.420;
#SELECTABLE:YES;
#BPMS:0.000=143.000;
#STOPS:216.000=0.420
;
#BGCHANGES:;

//---------------dance-single - ----------------
#NOTES:
     dance-single:
     :
     Hard:
     9:
     0.668,0.597,0.476,0.094,0.485:
1000
0010
0100
0001
0020
0000
0130
0010
,
0001
1000
0001
0100
0020
0000
0030
0000
,
1000
0000
0001
1000
0000
0001
1000
0000
0000
0000
0200
0000
1000
0000
1000
0000
,
1300
0000
0001
0010
0000
0100
1000
0000
0010
0000
0100
0000
1001
0000
0000
0000
,
0001
0100
0001
0100
0010
0000
0000
0000
1000
0000
0001
0010
0000
0000
0011
0000
,
0000
0000
1000
0010
1000
0000
0001
0100
0001
0000
1000
0001
0000
0001
1000
0000
,
0001
0000
0010
0000
1100
0000
0000
0000
1001
0000
0001
0010
0000
0100
1000
0000
,
0100
0000
0000
0000
0010
0000
0001
1000
0001
0000
1000
0100
0000
1000
0100
0000
,
0010
0001
1000
0001
1000
0000
0000
0000
0101
0000
0010
1000
0000
0000
1001
0000
,
0000
0000
0100
0001
0100
0000
0010
1000
0001
0000
0010
0100
0000
0010
0100
0000
,
0010
0000
0000
0001
0000
0000
1000
0000
1010
0000
0000
0010
0000
0000
0100
0000
,
0101
0000
0000
0010
0000
0000
1000
0000
0001
0000
1000
0000
1001
0000
0000
0000
,
1000
0100
0010
0100
1000
0000
0000
0000
1001
0000
0001
0100
0000
0010
1000
0000
,
0000
0000
0001
0010
0100
0000
0010
0001
1000
0000
0001
0100
0000
0010
1000
0000
,
0001
0000
0100
0000
1001
0000
0000
0000
1010
0000
1000
0100
0000
1000
0100
0000
,
1000
0000
0000
0000
0001
0000
0100
0010
0100
0000
0010
1000
0000
0010
1000
0000
,
0001
0100
0001
0100
0010
0000
0000
0000
1000
0000
0001
0010
0000
0001
0010
0000
,
0100
0000
1000
0010
1000
0000
0001
0100
0001
0000
1000
0010
0000
0010
0100
0000
,
0010
0000
0000
1000
0000
0000
0001
0000
1001
0000
0000
0100
0000
0000
0010
0000
,
1001
0000
0000
0100
0000
0000
0001
0000
1000
0001
1000
0001
1000
0000
0000
0000
,
0001
0000
0100
0010
0000
0100
0010
0000
1000
0000
0100
0000
0010
0000
0100
0000
,
1000
0000
0000
0011
0000
0000
0100
0000
0010
0000
0001
0000
1000
0000
0001
0000
,
0100
1000
0001
0010
1000
0001
0010
0100
,
0110
0000
1001
0001
0011
0010
0100
1000
,
0001
0000
1000
0010
0000
0100
0001
0000
1000
0000
0100
0000
1000
0000
0001
0000
,
0101
0000
0110
0000
1010
1000
0100
0010
,
0100
0000
0010
0001
0000
1000
0001
0000
0100
0000
0010
0000
1000
0000
0100
0000
,
1000
0010
1000
0000
0001
0100
0010
0000
0100
0000
0001
0000
1001
0000
0000
0000
,
1100
0000
0000
1001
0000
0000
0101
0000
0100
0000
0010
0000
1000
0000
0100
0000
,
1000
0000
0000
0001
0000
0000
0010
0000
0100
0000
1000
0000
0100
0000
0010
0000
,
0100
0000
0010
0001
0000
0001
1000
0000
0010
0000
1000
0000
0100
0000
1000
0000
,
0010
0000
0100
0010
0000
0100
0010
0000
0100
0000
0001
0000
1000
0000
0100
0000
,
1100
0000
0000
0011
0000
0000
0101
0000
0001
0000
0100
0000
0010
0000
1000
0000
,
1100
0000
0000
0000
0011
0000
0000
0000
1000
0000
0001
0100
0001
0000
1000
0000
,
1010
0000
0000
0010
0000
0000
0100
0000
0101
0000
0000
0001
0000
0000
0010
0000
,
0110
0000
0000
0010
0000
0000
0001
0000
1000
0000
0000
0100
0000
0000
1000
0000
,
2002
0000
0000
0000
,
0000
0000
0000
3003
,
0101
0000
1000
0010
0100
0000
1000
0100
,
0001
0000
1000
0000
0001
0000
0010
0000
0100
0000
0000
0010
0000
0000
0001
0000
,
1000
0010
0100
0001
0101
0000
0011
0000
,
1000
0000
0100
0000
0001
0000
0100
0000
1000
0000
0010
0000
0100
0000
0001
0010
,
0001
0100
0010
0100
1010
0000
1000
0100
,
0001
0000
1000
0000
0010
0000
0100
0000
1000
0000
0000
0001
0000
0001
1000
0001
,
1000
0100
1000
0100
0001
0100
0001
0100
,
1000
0000
0010
0000
0100
0000
0001
0000
0010
0001
0010
0001
0010
0000
0001
1000
,
0010
0100
1000
0100
0110
0000
0010
1000
,
0001
0010
0001
1000
0000
1000
0100
0010
,
0001
0100
0010
2000
0000
3100
0001
0100
,
1000
0000
0010
0000
0100
0000
0002
0000
0000
0000
0013
0000
0100
0000
0010
0001
,
0010
0000
0000
0001
1000
0000
0100
0000
0011
0000
0000
0001
0000
0000
0100
0000
,
0010
0000
0000
0100
0000
0000
1000
0000
0100
0000
0010
1000
0000
0001
1000
0001
,
1000
0000
0010
0100
0001
0000
0010
0000
0100
0000
0000
0100
1000
0000
0001
0000
,
0011
0000
0000
0100
0000
0000
1000
0000
1100
0000
0100
0000
1000
0001
2000
0002
,
3003
0000
0000
0000
0001
0000
1000
0010
0000
1000
0001
0000
1000
0000
0001
0010
,
0001
1000
0000
0000
0001
0000
1000
0010
0000
0010
1000
0000
0001
0000
0010
0001
,
1000
0001
0000
0000
1000
0000
0010
0000
0100
0000
0001
0000
0101
0000
0000
0110
,
0000
0000
1010
0000
0000
1100
0000
0000
1001
0000
0011
0000
0100
0000
1000
0001
,
1000
0001
0000
0000
1001
0000
0001
0100
0000
0010
1000
0000
0001
0000
0100
0001
,
1000
0000
0001
0000
0010
0000
0100
0010
0000
0010
0001
0000
1000
0000
0010
1000
,
0001
0000
0100
0000
0001
0000
0010
0001
0100
0000
0001
0000
0101
0000
0000
0110
,
0000
0000
1010
0000
0000
1001
0000
0000
0011
0000
0110
0000
2002
0000
0000
0000
,
0000
0000
0000
0000
,
0000
0000
0000
3003
;

//---------------dance-single - ----------------
#NOTES:
     dance-single:
     :
     Medium:
     7:
     0.479,0.461,0.187,0.221,0.187:
1000
0000
0001
0010
0001
0000
0100
0000
,
0010
0100
0001
2000
0000
0000
3000
0000
,
0001
0000
0000
0001
0000
0000
0002
0000
0000
0000
0003
0000
0000
0000
0000
0000
,
0100
0000
0000
0100
0000
0000
0100
0000
0010
0000
0100
0000
0010
0000
0000
0000
,
1000
0000
0100
0000
1000
0000
0000
0000
0011
0000
0000
0001
0000
0000
0200
0000
,
0000
0000
0310
0000
0100
0000
0000
0000
0010
0000
0000
1000
0000
0000
0001
0000
,
0100
0000
0100
0000
0100
0000
0000
0000
0001
0000
0000
1000
0000
0000
0001
0000
,
0010
0000
0000
0000
0100
0000
0000
0000
1001
0000
0000
1000
0000
0000
0100
0000
,
0010
0000
0001
0000
0100
0000
0000
0000
1001
0000
0000
0100
0000
0000
0002
0000
,
0000
0000
1003
0000
0100
0000
1000
0000
0001
0000
0000
0010
0000
0000
0001
0000
,
1000
0000
0000
0100
0000
0000
1000
0000
0001
0000
0000
0100
0000
0000
0001
0000
,
1000
0000
0000
0010
0000
0000
0100
0000
0001
0000
0010
0000
0100
0000
0000
0000
,
1000
0000
0001
0000
0100
0000
0000
0000
0010
0000
0000
0100
0000
0000
0002
0000
,
0000
0000
1003
0000
0100
0000
0010
0000
0001
0000
0000
1000
0000
0000
0001
0000
,
1000
0000
1000
0000
0010
0000
0000
0000
0100
0000
0000
0010
0000
0000
0200
0000
,
0000
0000
0000
0000
0310
0000
0100
0000
0001
0000
0000
1000
0000
0000
0100
0000
,
0010
0000
0001
0000
0100
0000
0000
0000
0001
0000
0000
0001
0000
0000
2000
0000
,
0000
0000
3010
0000
1000
0000
0100
0000
0010
0000
0000
0100
0000
0000
0010
0000
,
0001
0000
0000
0100
0000
0000
0010
0000
1000
0000
0000
0100
0000
0000
0010
0000
,
0001
0000
0000
1000
0000
0000
0001
0000
0100
0000
0010
0000
1000
0000
0000
0000
,
0001
0100
0001
0000
1000
0100
0010
0100
,
1000
0000
0000
0001
0000
0000
0100
0000
0002
0000
0000
0000
0103
0000
0000
0000
,
0010
1000
0100
0010
0100
1000
0100
0010
,
0001
0000
0011
0000
1100
0000
1000
0010
,
0100
0000
0000
0001
0000
0000
1000
0000
0100
0000
0000
0000
0110
0000
0000
0000
,
1001
0000
0101
0000
0010
1000
0100
1000
,
0001
0000
0000
0100
0000
0000
0002
0000
0000
0000
1003
0000
0100
0000
0010
0000
,
0001
0000
0000
0100
0000
0000
1000
0000
0100
0000
0001
0000
1000
0000
0000
0000
,
0100
0000
0000
1001
0000
0000
0010
0000
0100
0000
0001
0000
0010
0000
0001
0000
,
1000
0000
0000
0100
0000
0000
1000
0000
0001
0000
0100
0000
1000
0000
0100
0000
,
0010
0100
0001
0010
0100
0010
0001
1000
,
0100
0000
0000
0010
0000
0000
0001
0000
1000
0000
0001
0000
0100
0000
0001
0000
,
0100
0000
0000
0010
0000
0000
1000
0000
0100
0000
1000
0000
0001
0000
0000
0000
,
0101
0000
1001
0000
1000
0100
0010
0001
,
1000
0000
0000
0100
0000
0000
1000
0000
0001
0000
0000
0100
0000
0000
1000
0000
,
0001
0000
0000
0010
0000
0000
1000
0000
0001
0000
0000
0010
0000
0000
0002
0000
,
2000
0000
0000
0000
,
3003
0000
0000
0000
,
1000
0010
1000
0001
0100
0000
0001
0010
,
0001
0000
1000
0000
0100
0000
0000
0000
1000
0000
0000
0100
0000
0000
1000
0000
,
0001
0000
0010
0001
0010
0000
0100
0000
,
2100
3010
0102
0013
,
0001
0100
0001
1000
0100
0000
1000
0100
,
1000
0001
0010
0200
0000
0310
0001
1000
,
0001
0100
0001
1000
0100
0000
0010
0000
,
0012
0103
2010
3100
,
1000
0001
0100
0001
0010
0000
0001
0010
,
0100
0010
0001
1000
0001
0000
1001
0000
,
1020
0000
0130
0001
0010
0000
0100
0000
,
1020
0000
0130
0001
0010
0001
0001
0000
,
1001
0000
1000
0100
0010
0001
0010
0000
,
0001
0000
0000
0100
0000
0000
0010
0000
0000
0000
0010
0000
0100
0000
0010
0000
,
2000
0010
0001
0100
,
0200
0300
0002
0000
,
3003
0000
0000
0000
1001
0000
0000
0001
0000
0000
0200
0000
0000
0000
0310
0000
,
0100
0000
0001
0000
1000
0000
0000
0100
0000
0000
1000
0000
0001
0000
0000
0000
,
0100
0000
0010
0000
0100
0000
0001
0000
1000
0000
0100
0000
0010
0000
0000
0010
,
0000
0000
0010
0000
0000
0100
0000
0000
0010
0000
0001
0000
2002
0000
0000
0000
,
3003
0000
0000
0000
0101
0000
0000
0010
0000
0000
2000
0000
0000
0000
3001
0000
,
0010
0000
0100
0000
0010
0000
0000
0001
0000
0000
1000
0000
0001
0000
0000
0100
,
0000
0000
0001
0000
1000
0000
0000
0100
0000
0000
0010
0000
0001
0000
0000
0001
,
0000
0000
1000
0000
0000
1000
0000
0000
0001
0000
1000
0000
0200
0000
0000
0000
,
0000
0000
0000
0000
,
0000
0000
0000
0300
;

//---------------dance-single - ----------------
#NOTES:
     dance-single:
     :
     Easy:
     4:
     0.304,0.353,0.289,0.196,0.000: // measure 1
1000
0000
0001
0100
,  // measure 2
0001
1000
1001
0000
,  // measure 3
0220
0000
0330
0000
,  // measure 4
2002
3003
1001
0110
,  // measure 5
1000
0100
0010
0000
,  // measure 6
0001
0100
0010
0100
,  // measure 7
0001
1000
0001
0000
,  // measure 8
0110
0000
1000
0100
,  // measure 9
0010
0001
1000
0000
,  // measure 10
0001
0100
0010
0000
,  // measure 11
1000
0010
0100
0010
,  // measure 12
1000
0001
1000
1001
,  // measure 13
0001
0010
0100
0000
,  // measure 14
0010
0001
1000
0000
,  // measure 15
0001
0100
0010
1000
,  // measure 16
0100
0000
0110
0100
,  // measure 17
0010
0001
1000
0000
,  // measure 18
0001
1000
0001
0000
,  // measure 19
1000
0100
0001
0100
,  // measure 20
1000
0010
0100
0110
,  // measure 21
1002
0100
0000
1003
,  // measure 22
0001
1000
0200
0300
,  // measure 23
0010
0001
1000
0001
,  // measure 24
0100
0010
1000
0100
,  // measure 25
1001
0200
0000
1300
,  // measure 26
0100
1000
0001
0000
,  // measure 27
2002
3003
0001
0100
,  // measure 28
0010
1000
0200
0310
,  // measure 29
1001
2000
0000
3010
,  // measure 30
1000
0100
0010
0100
,  // measure 31
0010
0010
0001
0001
,  // measure 32
1000
0001
1000
0001
,  // measure 33
1001
0020
0000
0130
,  // measure 34
0010
1000
1001
0000
,  // measure 35
1001
0000
1000
0100
,  // measure 36
0110
0000
1001
0100
,  // measure 37
0220
0000
0000
0000
,  // measure 38
0330
0000
0000
0000
,  // measure 39
1000
0001
1000
0001
,  // measure 40
0001
0100
0001
0000
,  // measure 41
1000
0100
0010
0001
,  // measure 42
0100
0000
0110
0000
,  // measure 43
0010
0100
0001
0100
,  // measure 44
0010
1000
0001
0000
,  // measure 45
1000
0100
0010
0001
,  // measure 46
1000
0000
1001
0000
,  // measure 47
0001
0100
0001
1000
,  // measure 48
1000
0100
0010
0000
,  // measure 49
0110
0000
1001
0000
,  // measure 50
0110
0000
0100
0010
,  // measure 51
0100
0010
1000
1000
,  // measure 52
0001
0010
0001
0000
,  // measure 53
1000
0100
0010
0001
,  // measure 54
1000
0001
2002
0000
,  // measure 55
3003
1001
0000
1000
,  // measure 56
0100
1001
0000
0001
,  // measure 57
0100
0010
1000
0220
,  // measure 58
0000
0330
0000
2002
,  // measure 59
3003
1001
0000
0001
,  // measure 60
0100
1001
0000
0100
,  // measure 61
0010
1000
0100
1001
,  // measure 62
0110
2002
3003
0200
,  // measure 63
0000
0000
0000
0000
,  // measure 64
0000
0000
0000
0300
;

//---------------dance-single - ----------------
#NOTES:
     dance-single:
     :
     Beginner:
     1:
     0.145,0.210,0.119,0.000,0.000: // measure 1
1000
0000
0001
0000
,  // measure 2
1000
0000
0001
0000
,  // measure 3
0100
0000
0000
0000
,  // measure 4
0100
0000
0000
0000
,  // measure 5
1001
0000
0000
0000
,  // measure 6
1000
0000
0100
0000
,  // measure 7
1000
0000
0000
0000
,  // measure 8
0001
0000
0000
0000
,  // measure 9
1001
0000
0000
0000
,  // measure 10
0001
0000
0100
0000
,  // measure 11
0010
0000
0100
0000
,  // measure 12
0010
0000
0100
0100
,  // measure 13
0100
0000
0000
0000
,  // measure 14
0010
0000
0000
0000
,  // measure 15
1000
0000
0100
0000
,  // measure 16
1000
0000
0001
0000
,  // measure 17
1001
0000
0000
0000
,  // measure 18
1000
0000
0000
0000
,  // measure 19
0001
0000
0100
0000
,  // measure 20
0001
0000
0100
0000
,  // measure 21
0110
0000
0000
0000
,  // measure 22
0010
0000
0000
0000
,  // measure 23
1000
0000
0100
0000
,  // measure 24
0010
0000
0001
0000
,  // measure 25
1001
0000
0000
0000
,  // measure 26
1000
0000
0010
0000
,  // measure 27
0110
0000
0100
0000
,  // measure 28
0001
0000
1000
1000
,  // measure 29
1000
0000
0001
0000
,  // measure 30
0100
0000
0001
0000
,  // measure 31
1000
0000
0100
0000
,  // measure 32
0010
0000
0001
0000
,  // measure 33
1001
0000
1000
0000
,  // measure 34
0010
0000
0100
0000
,  // measure 35
0110
0000
0100
0000
,  // measure 36
0110
0000
0010
0000
,  // measure 37
1001
0000
0000
0000
,  // measure 38
0000
0000
0000
0000
,  // measure 39
1000
0000
0100
0000
,  // measure 40
1000
0000
0000
0000
,  // measure 41
0001
0000
0100
0000
,  // measure 42
0010
0000
1000
0000
,  // measure 43
0001
0000
0010
0000
,  // measure 44
0001
0000
0000
0000
,  // measure 45
1000
0000
1000
0000
,  // measure 46
0100
0000
0100
0000
,  // measure 47
0010
0000
0001
0000
,  // measure 48
1000
0000
0000
0000
,  // measure 49
0001
0000
0100
0000
,  // measure 50
0010
0000
0010
0000
,  // measure 51
0100
0000
0100
0000
,  // measure 52
0010
0000
1000
0000
,  // measure 53
0001
0000
1000
0000
,  // measure 54
0100
0000
0010
0000
,  // measure 55
1001
0000
0000
0001
,  // measure 56
0000
0000
0000
1000
,  // measure 57
0000
0100
0000
0010
,  // measure 58
0000
0001
0000
1001
,  // measure 59
0000
0000
0000
0110
,  // measure 60
0000
0000
0000
0010
,  // measure 61
0000
1000
0000
0001
,  // measure 62
0001
0001
0000
1001
;
