#TITLE:雪月花;
#SUBTITLE:-Double Dragon Mix-;
#ARTIST:Ryu☆ remixed by good-cool;
#TITLETRANSLIT:SETSUGEKKA;
#SUBTITLETRANSLIT:;
#ARTISTTRANSLIT:Ryu remixed by good-cool;
#CREDIT:;
#BANNER:;
#BACKGROUND:;
#LYRICSPATH:;
#CDTITLE:;
#MUSIC:SETSUGEKKA -Double Dragon Mix-.mp3;
#OFFSET:-1.860;
#SAMPLESTART:83.090;
#SAMPLELENGTH:14.760;
#SELECTABLE:YES;
#BPMS:0.000=130.000;
#STOPS:;
#BGCHANGES:;

//---------------dance-single - ----------------
#NOTES:
     dance-single:
     :
     Hard:
     8:
     0.522,0.558,0.152,0.102,0.330:
1000
0100
2000
0000
0000
0000
0000
0000
0001
0000
0000
0000
0000
0000
0000
0000
,
0100
0000
0000
0000
3001
1000
0100
0010
,
0001
0100
0002
0000
0000
0000
0000
0000
0010
0000
0000
0000
0000
0000
0000
0000
,
1000
0000
0000
0000
0103
0001
0100
0010
,
1000
0001
2000
0000
0000
0000
0000
0000
0010
0000
0000
0000
0000
0000
0000
0000
,
0001
0000
0000
0000
3100
1000
0001
0100
,
0101
0000
0000
0000
1001
0000
0000
1000
0000
0000
0100
0000
0010
0000
0001
0000
,
1000
0000
1000
0000
0001
0000
0001
0000
1000
0100
1000
0000
0001
0100
0001
0000
,
0100
0000
0000
0010
0000
0000
0100
0000
0000
0001
0000
0000
1001
0000
0000
0000
,
1000
0000
0000
0100
0000
0000
0010
0000
0000
0001
0000
0000
1000
0001
1000
0000
,
0001
0100
1000
0100
0010
0100
0001
0010
,
0100
0010
0001
1000
0100
0010
1001
0000
,
1000
0000
0000
0010
0000
0000
0100
0000
0000
0010
0000
0000
1010
0000
0000
0000
,
0001
0000
0000
0010
0000
0000
0100
0000
0000
0010
0000
0000
0001
1000
0001
0000
,
1000
0100
0010
0100
1000
0001
0100
1000
,
0100
0010
0100
0001
1000
0100
0010
0001
,
2002
0000
0000
0003
,
0020
0000
0000
3030
,
1001
0001
0100
0110
0000
1010
0000
1000
,
0100
0000
0010
0000
0001
0000
0100
0000
0001
0100
0001
0100
0001
0000
0000
0000
,
1000
0000
0010
0000
0100
0000
0001
1000
0000
0000
0001
0000
0010
0000
0100
0000
,
0010
0000
0001
0000
1000
0000
0001
1000
0000
0000
0100
0000
1000
0000
0100
0000
,
0010
0000
0100
0000
0010
0000
0001
0100
0000
0000
0010
0000
1000
0000
0100
0000
,
1000
0000
0001
0000
0010
0000
0100
0000
0010
0001
0010
0000
0001
0000
1000
0000
,
0100
0000
0010
0000
0100
0000
0010
0001
0000
0000
1000
0000
0010
0000
0100
0000
,
0001
0000
1000
0000
0001
0000
0010
0001
0000
0000
0001
0000
0100
0000
0010
0000
,
1000
0000
0100
0000
0010
0000
0100
1000
0000
0000
0100
0000
0010
0000
0001
0000
,
0100
0000
0010
0000
1000
0000
0001
0000
0100
0010
0100
0000
1001
0000
0000
0000
,
1000
0000
0100
0000
0010
0000
0100
0000
1000
0000
0000
1001
0000
0000
0001
0000
,
0100
0000
1000
0000
0100
0000
0010
0000
0100
0000
0000
0101
0000
0000
0001
0000
,
1000
0000
0100
0000
0010
0000
0001
0000
1000
0100
0000
1000
0000
0000
0001
0000
,
0100
0000
0010
0000
0100
0000
0001
0000
0010
0001
0000
0100
0000
0000
0010
0000
,
1000
0000
0100
0000
0010
0000
1000
0000
0010
0000
0000
0011
0000
0000
0001
0000
,
0100
0000
0010
0000
0001
0000
1000
0000
0100
0000
0000
0110
0000
0000
0010
0000
,
1000
0000
0100
0000
1000
0000
0001
0000
0100
0010
0000
0100
0000
0000
0010
0000
,
1000
0000
0100
0000
0010
0000
0001
0000
1000
0001
0000
1000
0001
0000
0100
0000
,
0001
0100
0002
0000
0000
0000
0000
0000
0010
0000
0000
0000
0000
0000
0000
0000
,
1000
0000
0000
0000
0103
0001
0100
0010
,
1000
0100
2000
0000
0000
0000
0000
0000
0010
0000
0000
0000
0000
0000
0000
0000
,
0001
0000
0000
0000
3100
1000
0001
0100
,
0010
0100
0020
0000
0000
0000
0000
0000
0100
0000
0000
0000
0000
0000
0000
0000
,
1000
0000
0000
0000
0130
0010
1000
0001
,
2000
0000
0000
0000
,
0200
0300
0002
3003
,
1000
0000
0100
1000
0000
0000
0100
0000
0010
0000
0001
0000
0100
0000
0010
0000
,
0100
0000
0000
0100
0010
0000
1000
0000
0001
0000
1000
0000
0100
0000
0010
0000
,
0001
0000
1000
0001
0000
0000
0100
0000
0010
0000
0100
0000
0001
0000
1000
0000
,
0100
0000
0000
1000
0100
0000
1000
0000
0001
0100
0000
0001
0000
0000
0100
0000
,
0010
0000
1000
0001
0000
0000
0100
0000
0010
0000
1000
0000
0100
0000
1000
0000
,
0001
0000
0000
1000
0100
0000
0001
0000
0100
0000
1000
0000
0010
0000
0100
0000
,
0001
0000
0010
0001
0000
0000
1000
0000
0001
0000
0100
0000
0010
0000
0100
0000
,
0001
0000
0000
1000
0000
0000
0001
0000
0000
0001
0100
0000
0010
0000
1000
0000
,
0001
0000
0010
0000
0001
0000
1000
0010
0000
0100
0000
0001
0000
0000
0100
0000
,
0001
0000
0000
0001
0100
0000
0010
0000
1000
0000
0100
0000
0010
0000
0001
0000
,
1000
0000
0100
0000
1000
0000
0001
0010
0000
0001
0000
1000
0000
0001
0100
0000
,
0010
0000
0000
1000
0001
0000
0100
0000
0010
1000
0000
0001
0000
0000
1000
0000
,
0001
0000
0010
0001
0000
0100
0000
0010
0000
0100
0000
0010
0000
1000
0010
0000
,
0100
0000
0000
0001
1000
0000
0100
0000
0001
0000
1000
0000
0010
0000
0001
0000
,
1000
0000
0001
0100
0000
0010
1000
0010
0000
0100
0000
0001
0000
0001
0100
0000
,
0001
0000
0000
0011
0000
0000
1100
0000
0000
1000
0001
0000
1001
0000
0100
0000
,
0110
0000
0000
0000
;

//---------------dance-single - ----------------
#NOTES:
     dance-single:
     :
     Medium:
     5:
     0.361,0.406,0.220,0.144,0.017:
0002
0000
0000
0000
,
0003
0000
0000
0000
1000
0100
1000
0100
,
2000
0000
0000
0000
,
3000
0000
0000
0000
0001
0100
0001
0100
,
0002
0000
0000
0000
,
0003
0000
0000
0000
1000
0010
0100
0001
,
0100
0000
0001
0000
1000
0100
1000
0000
,
0001
0010
0001
0010
0001
0000
1100
0000
,
1001
0000
0100
0000
0010
0100
0001
0000
,
0010
0000
0100
0000
0010
0001
1000
0001
,
2000
0010
0001
3100
,
1000
0000
0001
0000
0100
0001
0100
0000
,
0011
0000
0100
0000
0010
0001
1000
0000
,
0001
0000
0100
0000
0010
1000
0010
1000
,
0002
0010
1000
0103
,
0010
0100
0010
0000
0110
0000
1010
0000
,
0102
0000
0000
0000
,
2000
0000
0000
3003
,
1000
0100
0000
0010
0000
0100
0000
0010
,
0000
0001
0000
1000
0100
0010
0001
0000
,
1001
0000
1000
0000
0010
0100
0001
0000
,
0001
0000
1000
0000
0100
1000
0100
0000
,
1000
0000
0100
0000
0010
0001
1000
0000
,
0010
0100
0010
0000
1000
0001
1000
0000
,
0011
0000
0100
0000
0010
0001
0100
0000
,
0010
0000
0100
0000
0010
1000
0001
0000
,
0010
0000
0100
0000
0010
0001
1000
0000
,
1100
1001
0101
0110
,
1002
0000
0000
0000
0000
0000
0000
0000
0100
0000
0000
0103
0000
0000
0000
0000
,
2001
0000
0000
0000
0000
0000
0000
0000
0100
0000
0000
3100
0000
0000
0000
0000
,
1000
0100
0010
0000
0100
0000
1001
0000
,
0001
0100
0010
0000
0100
0001
1000
0000
,
1002
0000
0000
0000
0010
0000
0000
0000
0100
0000
0000
0103
0000
0000
0000
0000
,
2001
0000
0000
0000
0010
0000
0000
0000
0100
0000
0000
3100
0000
0000
0000
0000
,
1000
0001
0100
0000
0010
0100
0001
0000
,
0101
1010
0011
1100
,
1002
0000
0000
0000
,
0003
0000
0000
0000
0100
0010
0100
0010
,
2000
0000
0000
0000
,
3000
0000
0000
0000
0100
0010
0001
1000
,
0020
0000
0000
0000
,
0030
0000
0000
0000
0100
0010
1000
0001
,
2000
0000
0000
0000
,
0020
0030
0002
3003
,
1000
0100
1000
0010
,
0100
0000
0001
0100
0001
0100
0001
0000
,
1000
0100
0010
0001
,
0100
0000
0010
1000
0001
0000
1001
0000
,
1000
0000
0100
0000
0010
0100
0010
0000
,
0001
0000
1000
0010
1000
0010
1000
0000
,
0001
0000
0100
0000
0010
0100
0010
0000
,
1010
0000
0100
0000
1000
0001
0100
0000
,
0001
0010
0001
0000
1000
0100
1000
0000
,
0001
0000
0100
0000
0010
1000
0001
1000
,
0001
0000
0010
0000
0100
0010
0001
0000
,
0100
0000
0010
0000
1000
0010
1000
0001
,
0100
0000
0001
0000
1000
0100
0010
0000
,
0100
0000
1000
0000
0001
0010
0001
1000
,
0001
0000
0100
0000
0010
0100
0010
0000
,
1010
0000
0100
0000
0011
0000
0100
0100
,
0100
0000
0000
0000
;

//---------------dance-single - ----------------
#NOTES:
     dance-single:
     :
     Easy:
     3:
     0.210,0.228,0.076,0.127,0.000:
0002
0000
0000
0000
,
0003
0000
1000
0100
,
0020
0000
0000
0000
,
0030
0000
0001
0100
,
0020
0000
0000
0000
,
0030
0000
1000
0010
,
2000
0000
0000
3000
,
0001
1000
1001
0000
,
0001
0000
0100
0000
,
0010
0100
0010
0000
,
1000
0000
0100
0000
,
0010
0001
0010
0001
,
1000
0000
0001
0000
,
0100
0010
0100
0000
,
0001
0000
1000
0000
,
0001
0100
0010
1000
,
1002
0000
0000
0000
,
0203
0000
0000
0000
,
0320
0000
0000
0000
,
1030
0001
2002
3003
,
1000
0100
0010
0000
,
0001
0100
0010
0000
,
1000
0100
0010
0000
,
0100
0010
0100
0010
,
0001
1000
0001
0000
,
0100
0010
1000
0000
,
0001
0100
0001
0000
,
1000
0100
0010
0001
,
1002
0000
0100
0000
,
1000
0000
0103
0000
,
0001
0100
0010
0100
,
0001
0100
0001
0000
,
2001
0000
0100
0000
,
0001
0000
3100
0000
,
1000
0100
0010
0100
,
0010
0001
1000
0000
,
2001
0000
0000
0000
,
3000
0000
0001
0100
,
0020
0000
0000
0000
,
0030
0000
0100
0010
,
0200
0000
0000
0000
,
0300
0000
0001
0100
,
0002
0000
0000
0000
,
1003
0000
0110
0000
,
1001
0000
0001
0000
,
0100
0010
0100
0001
,
1000
0000
0001
0000
,
0010
0001
1000
0100
,
1000
0000
0100
0000
,
1000
0100
1000
0010
,
0100
0000
0010
0000
,
0100
0100
0010
0010
,
1000
0000
0001
0000
,
1000
0100
1000
0001
,
0100
0000
0010
0000
,
0100
0001
0100
0001
,
1000
0000
0001
0000
,
1000
0100
0010
0001
,
0100
0000
0010
0000
,
0100
0100
0010
0010
,
1001
0000
0000
0000
;

//---------------dance-single - ----------------
#NOTES:
     dance-single:
     :
     Beginner:
     1:
     0.128,0.152,0.059,0.000,0.000: // measure 1
0001
0000
0000
0000
,  // measure 2
0000
0000
1000
1000
,  // measure 3
1000
0000
0000
0000
,  // measure 4
0000
0000
0100
0100
,  // measure 5
0100
0000
0000
0000
,  // measure 6
0000
0000
0010
0010
,  // measure 7
0010
0000
0000
0000
,  // measure 8
0001
0000
1000
0000
,  // measure 9
1001
0000
0000
0000
,  // measure 10
0001
0000
0000
0000
,  // measure 11
0100
0000
0100
0000
,  // measure 12
0010
0000
0010
0000
,  // measure 13
0100
0000
0000
0000
,  // measure 14
0010
0000
0000
0000
,  // measure 15
1000
0000
0100
0000
,  // measure 16
1000
0000
0001
0000
,  // measure 17
1001
0000
0000
0000
,  // measure 18
0001
0000
0000
0000
,  // measure 19
0100
0000
0000
0000
,  // measure 20
0100
0000
0000
0000
,  // measure 21
0110
0000
0000
0000
,  // measure 22
0010
0000
1000
0000
,  // measure 23
0001
0000
0000
0000
,  // measure 24
0010
0000
0001
0000
,  // measure 25
1000
0000
0000
0000
,  // measure 26
0100
0000
1000
0000
,  // measure 27
0001
0000
0000
0000
,  // measure 28
0100
0000
0010
0000
,  // measure 29
0100
0000
0100
0000
,  // measure 30
0010
0000
0010
0000
,  // measure 31
1000
0000
0001
0000
,  // measure 32
1001
0000
0000
0000
,  // measure 33
1000
0000
1000
0000
,  // measure 34
0001
0000
0001
0000
,  // measure 35
1000
0000
0100
0000
,  // measure 36
0010
0000
0001
0000
,  // measure 37
1001
0000
0000
0000
,  // measure 38
0000
0000
0001
0001
,  // measure 39
0001
0000
0000
0000
,  // measure 40
0000
0000
1000
1000
,  // measure 41
1000
0000
0000
0000
,  // measure 42
0000
0000
0010
0010
,  // measure 43
0010
0000
0000
0000
,  // measure 44
0100
0000
0010
0000
,  // measure 45
1001
0000
0000
0000
,  // measure 46
0001
0000
0100
0000
,  // measure 47
0001
0000
1000
0000
,  // measure 48
0100
0000
0010
0000
,  // measure 49
0001
0000
0000
0000
,  // measure 50
1000
0000
0100
0000
,  // measure 51
1000
0000
0001
0000
,  // measure 52
0100
0000
0010
0000
,  // measure 53
0110
0000
0100
0000
,  // measure 54
0010
0000
0010
0000
,  // measure 55
1000
0000
0001
0000
,  // measure 56
0010
0000
0010
0000
,  // measure 57
0001
0000
1000
0000
,  // measure 58
0100
0000
0100
0000
,  // measure 59
1000
0000
0001
0000
,  // measure 60
0100
0000
0100
0100
,  // measure 61
0100
0000
0000
0000
;
