#TITLE:PAPAYAPA BASS;
#SUBTITLE:;
#ARTIST:かめりあ feat. ななひら;
#TITLETRANSLIT:;
#SUBTITLETRANSLIT:;
#ARTISTTRANSLIT:Camellia feat. nanahira;
#CREDIT:;
#BANNER:PAPAYAPA BASS.PNG;
#BACKGROUND:PAPAYAPA BASS-bg.png;
#LYRICSPATH:;
#CDTITLE:;
#MUSIC:PAPAYAPA BASS.mp3;
#OFFSET:-0.020;
#SAMPLESTART:81.040;
#SAMPLELENGTH:13.060;
#SELECTABLE:YES;
#BPMS:0.000=147.000;
#STOPS:;
#BGCHANGES:0.000=PAPAYAPA BASS.avi=1.000=0=0=1,
296.000=PAPAYAPA BASS-bg.png=1.000=1=0=1,
99999=-nosongbg-=1.000=0=0=0 // don't automatically add -songbackground-
;

//---------------dance-single - ----------------
#NOTES:
     dance-single:
     :
     Hard:
     9:
     0.654,0.601,0.547,0.245,0.335: // measure 1
0000
0000
0000
0000
,  // measure 2
1001
0000
0000
0000
0001
0000
0000
0100
0000
0000
0001
0000
0010
0000
0100
0000
,  // measure 3
0010
0000
0000
0200
0000
0000
0000
0000
0000
0000
0310
0000
0001
0000
1000
0000
,  // measure 4
0001
0000
0000
0000
1000
0010
0000
0100
0000
0000
0001
0000
0100
0000
0010
0000
,  // measure 5
1000
0000
0000
0001
0000
0000
2001
0000
0000
0000
3001
0000
0100
0000
0010
0000
,  // measure 6
1001
0000
0000
0000
0101
0000
0000
0000
1010
0000
0000
1000
0000
0000
0010
0000
,  // measure 7
0110
0000
0000
0000
1001
0000
0000
0000
1100
0000
0000
0010
0000
0000
0001
0000
,  // measure 8
1000
0010
0100
1000
0100
0010
1000
0001
,  // measure 9
0020
0000
0000
0000
0130
0100
0010
0001
,  // measure 10
1001
0000
0000
0000
1000
0100
0000
1000
0000
0000
0001
0000
0100
0000
0001
0000
,  // measure 11
1000
0000
0000
0001
0000
0000
0010
0000
0100
0000
0010
0000
0001
0000
1000
0000
,  // measure 12
0001
0000
0100
0000
0010
1000
0000
0001
0000
0000
1000
0000
0100
0000
0010
0000
,  // measure 13
0001
0000
0000
1000
0000
0000
1002
0000
0000
0000
0103
0000
0100
0000
0010
0000
,  // measure 14
1001
0000
0000
0000
1000
0100
0000
1000
0001
0000
0000
1000
0000
0000
0100
0000
,  // measure 15
1100
0000
1001
0001
0100
0010
1000
0010
,  // measure 16
0100
0001
0000
0101
0000
0000
0100
0000
0010
0000
1000
0000
0100
0000
0010
0000
,  // measure 17
0110
2002
0000
3003
,  // measure 18
1001
0000
0000
0000
0100
0000
0000
0000
0001
0100
0000
0010
0000
0000
1000
0000
,  // measure 19
0200
0000
0000
0000
0310
0000
0100
0000
0010
0001
0000
0010
0001
0000
1000
0000
,  // measure 20
1001
0000
0000
0000
0001
0000
0100
0000
0010
1000
0000
0001
0000
0000
2000
0000
,  // measure 21
0001
0001
0001
3001
,  // measure 22
0110
0000
0000
0000
1001
0000
0000
0000
0001
0000
0000
0100
0010
0000
1000
0000
,  // measure 23
0100
0020
0130
0010
0001
1000
0001
0100
,  // measure 24
0001
0000
0100
0001
0100
0000
0001
0000
0100
0000
0010
0000
1000
0000
0000
0000
,  // measure 25
0001
0000
1000
0100
1000
0000
0001
0000
0010
0000
0100
0000
1000
0000
0001
0000
,  // measure 26
0101
0000
0000
0000
1010
0000
0000
0000
1100
0000
0000
1000
0100
0000
0010
0000
,  // measure 27
0100
0001
0100
1000
0001
0010
0100
0010
,  // measure 28
0011
0000
0101
0100
0010
2000
3100
0020
,  // measure 29
0100
0100
0100
0130
,  // measure 30
0110
0000
0000
0000
1001
0000
0000
0000
0101
0000
0000
1010
0000
0000
1100
0000
,  // measure 31
1100
1001
0220
0330
,  // measure 32
0010
0000
1000
0100
0010
0000
0001
0000
0100
0000
0010
0000
1000
0000
0000
0000
,  // measure 33
0001
0000
0100
0010
1000
0000
0100
0000
0010
0000
0001
1000
0000
0001
1000
0000
,  // measure 34
1002
0000
0010
0000
1000
1000
0000
1000
,  // measure 35
0000
0000
0103
0000
0000
0000
0001
0000
0010
0001
0000
1000
0000
0000
0100
0000
,  // measure 36
2000
0000
0010
0000
0001
0001
0000
0001
,  // measure 37
0000
0000
3100
0000
0000
0000
1000
0000
0100
1000
0000
0001
0000
0000
0100
0000
,  // measure 38
0002
0000
0010
0000
1000
1000
0000
0010
,  // measure 39
0000
1000
0000
0103
0000
0000
0020
0000
,  // measure 40
1030
0000
0100
0000
0010
0000
0001
0000
1000
0001
1000
0001
1000
0000
0001
0000
,  // measure 41
2002
0000
0000
3003
,  // measure 42
0101
0000
1001
1000
0100
0010
0001
0100
,  // measure 43
0101
0000
0001
1000
0100
0000
1010
0000
,  // measure 44
0101
0000
1001
1000
0010
0001
0010
0100
,  // measure 45
0101
0000
0001
1000
0100
0000
0011
0000
,  // measure 46
1100
0000
1001
0001
0010
0100
0001
0100
,  // measure 47
0110
0000
0000
0000
0010
0000
0001
0000
1000
0000
0000
0001
0000
0000
0100
0000
,  // measure 48
0001
0000
1000
0000
0001
1000
0000
0001
0000
1000
0000
0001
0000
0000
1000
0000
,  // measure 49
0000
0000
0010
0000
0100
0010
0000
0100
0000
0010
0000
0100
0000
0000
0010
0000
,  // measure 50
2002
0000
3003
0000
0000
1000
0100
0010
,  // measure 51
1001
0000
0000
0000
0001
0100
0000
0001
0100
0000
0010
0000
1000
0000
0100
0000
,  // measure 52
0010
0000
0000
0100
0000
0000
1000
0000
0001
0000
0100
0000
0010
0000
1000
0000
,  // measure 53
0001
0000
0000
0000
1000
0010
0000
0100
0001
0000
1000
0000
0100
0000
0010
0000
,  // measure 54
0001
0000
0000
1000
0000
0000
1001
0000
0000
0000
0001
0000
0100
0000
0010
0000
,  // measure 55
0110
0000
0000
0000
1000
0100
0000
1000
0001
0000
0010
0000
0100
0000
0001
0000
,  // measure 56
0100
0000
0000
0010
0000
0000
0001
0000
1000
0000
0000
0000
0110
0000
0000
0000
,  // measure 57
1001
0000
0000
0000
1000
0000
0100
0000
1000
0000
0001
0100
0000
0000
0001
0000
,  // measure 58
0100
0000
0000
0001
0010
0000
0001
0000
2000
0000
0000
0000
3000
0000
0000
0000
,  // measure 59
1001
0000
0000
0000
0001
0100
0000
0100
0010
0000
0100
0000
0010
0000
1000
0000
,  // measure 60
0001
0000
0000
0010
0001
0000
1000
0000
0100
0000
1000
0000
1000
0000
0001
0000
,  // measure 61
0100
0000
0000
0000
0001
1000
0000
1000
0100
0000
0001
0000
0100
0000
1000
0000
,  // measure 62
0001
0000
0000
0100
0010
0000
0100
0000
0001
0000
0010
0000
0010
0000
0001
0000
,  // measure 63
2001
0000
0000
0000
0001
0000
0000
0000
0010
0000
0000
0010
0000
0000
3010
0000
,  // measure 64
0102
0000
0000
0000
0100
0000
0000
0000
1000
0000
0000
1000
0000
0000
1003
0000
,  // measure 65
0001
0100
0000
0010
0000
0000
1000
0000
0100
0000
0010
0000
0001
0000
1000
0000
,  // measure 66
1001
2002
0000
3003
,  // measure 67
1000
0000
0100
0000
1000
0000
0001
0000
0100
0010
0000
0100
0010
0000
1000
0000
,  // measure 68
0100
0000
0010
0000
0001
0000
0100
0000
0001
0010
0001
0000
1000
0000
0100
0000
,  // measure 69
0010
0000
0100
0000
0010
0000
0001
0000
1000
0100
0000
1000
0100
0000
0020
0000
,  // measure 70
0001
0001
0001
0002
,  // measure 71
0033
0000
0000
0000
1001
0000
0000
0000
0110
0000
0000
0110
0000
0000
1001
0000
,  // measure 72
1001
0000
0000
0000
0101
0000
0000
0000
1010
0000
0000
2002
0000
0000
3003
0000
,  // measure 73
1000
0000
0100
0010
0001
0010
0001
0000
1000
0000
0010
0000
0100
0000
0001
0000
,  // measure 74
0001
0100
0000
0001
0000
1000
0000
0000
0110
0000
0000
1001
0000
0000
0000
0000
;

//---------------dance-single - ----------------
#NOTES:
     dance-single:
     :
     Medium:
     7:
     0.541,0.481,0.359,0.318,0.175:
0000
0000
0000
0000
,
1001
0000
0000
0000
0100
0000
0000
0100
0000
0000
0100
0000
0010
0000
0000
0000
,
1000
0000
0000
2000
0000
0000
0000
0000
3000
0000
0001
0000
1000
0000
0001
0000
,
1000
0000
0000
0000
0001
0000
0000
0010
0000
0000
0001
0000
1000
0000
0100
0000
,
0010
0000
0000
0010
0000
0000
0010
0000
0000
0000
0001
0000
1000
0000
0001
0000
,
1001
0000
0000
0000
1001
0000
0000
0000
0001
0000
0000
1000
0000
0000
0100
0000
,
1100
0000
0000
0000
1100
0000
0000
0000
1000
0000
0000
0001
0000
0000
0100
0000
,
0001
0100
0001
0100
0010
1000
0010
1000
,
0002
0000
0000
0000
1003
0100
0010
0001
,
1000
0000
0000
0000
0001
0000
0000
0100
0000
0000
0010
0000
0100
0000
0001
0000
,
0010
0000
0001
0000
1000
0100
0010
0001
,
1000
0000
0000
0000
0100
0000
0000
1000
0000
0000
0001
0000
0100
0000
0010
0000
,
0100
0000
0000
0010
0000
0000
1000
0000
0000
0000
0001
0000
0010
0000
0001
0000
,
1000
0000
0000
0000
1001
0000
0000
0000
0001
0000
0000
1000
0000
0000
0010
0000
,
0100
0000
0000
0000
0110
0000
0000
0000
0010
0000
0000
1000
0000
0000
0100
0000
,
0010
0000
0000
0100
0000
0000
0010
0000
0010
0000
0001
0000
1000
0000
0001
0000
,
1001
2002
0000
3003
,
1001
0000
0101
0000
1001
0000
1000
0100
,
0010
0000
0110
0000
0100
0010
0001
1000
,
0001
0000
1001
0000
1010
0000
0010
0100
,
0002
1000
1000
1003
,
0110
0000
1001
0000
0001
0000
0101
0100
,
0010
0000
1001
0000
1000
0100
0010
0100
,
1000
1000
1000
0001
0100
0001
0100
0000
,
0001
0001
0001
1000
0100
0010
0100
0000
,
1100
0000
0101
0000
0001
0100
1000
0000
,
0001
0000
0101
0000
0100
0010
1000
0001
,
0010
0000
0110
0000
0100
0010
0001
1000
,
0002
1000
1000
1003
,
1001
0000
0000
0000
0001
0000
0000
0000
0100
0000
0000
0001
0000
0000
0100
0000
,
0001
1000
0220
0330
,
1001
0000
0001
1000
0001
1000
0100
0000
,
0010
0000
0100
0000
0010
0000
0001
0000
1000
0000
0001
1000
0000
0001
1000
0000
,
0002
0000
0010
0000
,
2000
0000
0000
0000
3003
0000
0000
0000
0001
0000
0000
1000
0000
0000
0100
0000
,
0020
0000
0001
0000
,
0200
0000
0000
0000
0330
0000
0000
0000
0010
0000
0000
0001
0000
0000
1000
0000
,
0002
0000
1000
0000
,
0200
0000
0000
0000
0303
0000
0000
0000
0001
0000
0000
0100
0000
0000
0010
0000
,
1000
0100
1000
0100
0010
0001
0010
0001
,
2002
0000
0000
3003
,
1001
0000
0001
0100
0010
1000
0100
0010
,
0200
0000
0000
0320
0000
0000
0032
0000
,
1003
0000
0001
0100
0010
1000
0100
0010
,
0002
0000
0000
2003
0000
0000
3200
0000
,
1300
0000
0010
0100
0001
0010
0100
1000
,
0002
0000
0000
2003
0000
0000
0000
0000
,
3001
0000
0010
0000
0001
0000
0000
1000
0000
0100
0000
1000
0000
0000
0000
0000
,
0001
0000
0100
0000
0001
0000
0000
1000
0000
0010
0000
1000
0000
0000
0000
0000
,
2002
0000
3003
0000
0000
1000
0100
1000
,
0100
0000
0000
0000
1000
0000
0000
0001
0000
0000
0100
0000
0001
0000
0010
0000
,
0001
0000
0000
0202
0000
0000
0303
0000
0001
0000
0100
0000
0010
0000
1000
0000
,
0100
0000
0000
0000
1000
0000
0000
0001
0000
0000
0100
0000
0010
0000
1000
0000
,
0100
0000
0000
1000
0000
0000
1100
0000
0000
0000
1000
0000
0001
0000
0100
0000
,
0010
0000
0000
0000
1000
0000
0000
0100
0000
0000
0010
0000
0100
0000
0001
0000
,
0100
0000
0000
0220
0000
0000
0000
0000
0330
0000
0000
0000
0011
0000
0000
0000
,
1001
0000
0000
0000
1000
0000
0001
0000
0100
0000
0000
0100
0000
0000
0120
0000
,
0000
0000
1030
0100
0010
0100
0010
0001
,
1000
0000
0000
0000
0001
0000
0000
0100
0000
0000
0001
0000
1000
0000
0100
0000
,
0010
0000
0000
0011
0000
0000
0001
0000
1000
0000
0100
0000
0001
0000
0100
0000
,
1000
0000
0000
0000
0010
0000
0000
0100
0000
0000
0010
0000
1000
0000
0100
0000
,
1000
0000
0000
1001
0000
0000
0001
0000
0000
0000
0100
0000
0010
0000
1000
0000
,
1020
0000
0000
0000
1000
0000
0000
0000
0100
0000
0000
0100
0000
0000
0100
0000
,
0230
0000
0000
0000
0001
0000
0000
0000
0010
0000
0000
0010
0000
0000
0310
0000
,
0100
0000
0000
0001
0000
0000
1000
0000
0100
0000
0010
0000
0001
0000
0100
0000
,
0110
2002
0000
3003
,
1000
0000
0001
0100
0001
0000
1000
0010
,
1000
0000
0001
0100
0010
1000
0100
0010
,
0001
0000
1000
0100
1000
0000
0001
2000
,
0001
0001
0001
0002
,
3003
0000
0000
0000
1001
0000
0000
0000
1000
0000
0000
0100
0000
0000
1000
0000
,
0001
0000
0000
0000
0100
0000
0000
0000
0001
0000
0000
2002
0000
0000
3003
0000
,
0001
0100
0100
0001
1000
0100
0010
0000
,
0001
0000
0000
1000
0000
0001
0000
0000
0110
0000
0000
1001
0000
0000
0000
0000
;

//---------------dance-single - ----------------
#NOTES:
     dance-single:
     :
     Easy:
     4:
     0.370,0.511,0.278,0.416,0.004:
0000
0000
0000
0000
,
1002
0000
0100
0100
,
0200
0000
0303
0000
,
2001
0000
0100
0100
,
0200
0000
3300
0000
,
1001
0001
0100
0010
,
0110
0100
0001
1000
,
1001
0001
1001
0110
,
2002
0000
3003
0000
,
1001
0001
0100
0010
,
1000
0000
0000
0000
0001
0000
1000
0001
,
1000
0001
0010
0100
,
0010
0000
0001
0000
1000
0000
0001
1000
,
0001
0100
0010
1000
,
0100
0000
1000
0001
,
2002
3003
0001
1000
,
1001
2002
0000
3003
,
1001
0001
0100
0001
,
1000
0100
0010
0010
,
0010
0100
0010
0002
,
1000
1000
2000
3003
,
1001
0001
0100
0010
,
1000
0100
0010
0100
,
0010
0000
0010
0000
0010
0010
0010
0000
,
0100
0100
0200
0300
,
1001
0001
0100
0010
,
1000
0000
0100
0000
0010
0000
0100
0100
,
0100
0010
0001
2000
,
0001
0001
0002
3003
,
1001
0001
0100
0010
,
1000
0100
1000
0010
,
0100
0000
0100
0000
0100
0100
0100
0000
,
0001
1000
2002
3003
,
0002
0000
0100
0000
,
2000
0000
3003
0000
,
2000
0000
0100
0000
,
0002
0000
3003
0000
,
0002
0000
0010
0000
,
1000
0000
0100
0000
,
2000
0000
3003
0000
,
0220
0000
0000
0330
,
2002
3003
0001
1000
,
0100
0000
0000
0200
0000
0000
0300
0000
,
1000
0100
0010
0001
,
0100
0000
0000
0200
0000
0000
0300
0000
,
0010
1000
0001
1000
,
0001
0000
0000
0002
0000
0000
0003
0000
,
2200
0000
0000
3300
,
2002
0000
0000
3003
,
0220
0000
0000
0330
,
2002
3003
0001
0100
,
0010
0000
1000
0000
0100
0000
0010
0010
,
0010
0000
0100
0010
,
0001
0000
1000
0000
0001
0000
0100
0100
,
0100
0000
0010
1000
,
0001
1000
0100
0010
,
0002
0003
1000
0100
,
1000
0000
0001
0000
0100
0000
0010
0100
,
0010
0000
0100
0010
,
1000
0000
0001
0000
1000
0000
0001
1000
,
0001
0000
1000
0100
,
0010
0000
0001
0000
0100
0000
0001
0100
,
0001
0100
0002
0003
,
1000
0100
2000
3000
,
0001
0100
0010
1000
,
1001
2002
0000
3003
,
0001
0100
0001
1000
,
0100
0010
0100
0001
,
0100
1000
0001
0200
,
0010
0010
0020
0330
,
0110
0110
2002
3003
,
1001
0110
2002
3003
,
0001
0010
0100
1000
,
2002
0000
0000
0000
3003
0000
0000
0000
1001
0000
0000
1001
0000
0000
0000
0000
;

//---------------dance-single - ----------------
#NOTES:
     dance-single:
     :
     Beginner:
     2:
     0.203,0.270,0.196,0.033,0.000:
0000
0000
0000
0000
,
1001
0000
0000
0000
,
0001
0000
0100
0000
,
0110
0000
0000
0000
,
0010
0000
1000
0000
,
1001
0000
1001
0000
,
0110
0000
0110
0000
,
0001
0000
1000
0000
,
0020
0000
0030
0000
,
1001
0000
0001
0000
,
0100
0000
0010
1000
,
0010
0000
0100
0000
,
0001
0000
1000
0001
,
1000
0000
0001
0000
,
0010
0000
0100
0000
,
0010
0000
0001
0001
,
0001
1001
0000
0000
,
1001
0000
0001
0000
,
0100
0000
0001
0001
,
0001
0000
1000
0000
,
0100
0100
0100
0100
,
0100
0000
0010
0000
,
0100
0000
0010
0010
,
0010
0000
0001
0000
,
1000
0000
0001
0000
,
1001
0000
1000
0000
,
0010
0000
0100
0100
,
0100
0000
0010
0000
,
1000
1000
1000
1000
,
1000
0000
0001
0000
,
1000
0000
0100
0100
,
0100
0000
0010
0000
,
0001
0000
0000
0000
,
1001
0000
0000
0000
,
0001
0000
0000
0000
,
0100
0000
0000
0000
,
0010
0000
0000
0000
,
1000
0000
0000
0000
,
0100
0000
0010
0000
,
0002
0000
0000
0000
,
0003
0000
0000
0000
,
1001
0000
0001
0000
,
0100
0000
0000
0000
,
0010
0000
1000
0000
,
0001
0000
0000
0000
,
1000
0000
0100
0000
,
0010
0000
0001
0000
,
1001
0000
0000
0000
,
0110
0000
0000
0000
,
2002
3003
0000
0000
,
1001
0000
0001
0000
,
0100
0000
0010
0100
,
0010
0000
0100
0000
,
0001
0000
1000
0000
,
1001
0000
0001
0000
,
0010
0000
0100
0000
,
0110
0000
0010
0000
,
0001
0000
1000
1000
,
1000
0000
0001
0000
,
0100
0000
0010
0010
,
0010
0000
0100
0000
,
0001
0000
1000
1000
,
1000
0000
0001
0000
,
0010
0000
0100
0000
,
1001
0000
0110
0000
,
1001
1001
0000
0000
,
0001
0000
0100
0000
,
0001
0000
1000
0000
,
0100
0000
0010
0000
,
0001
0001
0001
0001
,
0001
0000
1000
0000
,
0001
0000
0100
0000
,
0010
0000
1000
0000
,
1001
0000
1001
0000
;
