#TITLE:Øve Os På Hinanden;
#SUBTITLE:;
#ARTIST:Fyr & Flamme;
#TITLETRANSLIT:Ove Os Pa Hinanden;
#SUBTITLETRANSLIT:;
#ARTISTTRANSLIT:;
#CREDIT:;
#BANNER:;
#BACKGROUND:;
#LYRICSPATH:;
#CDTITLE:;
#MUSIC:Ove Os Pa Hinanden.mp3;
#OFFSET:-4.850;
#SAMPLESTART:49.370;
#SAMPLELENGTH:15.480;
#SELECTABLE:YES;
#BPMS:0.000=124.000;
#STOPS:;
#BGCHANGES:;

//---------------dance-single - ----------------
#NOTES:
     dance-single:
     :
     Hard:
     7:
     0.467,0.389,0.193,0.231,0.072: // measure 1
0001
0000
0000
0100
0000
0000
0001
0000
0001
0000
1000
0000
0100
0000
0010
0000
,  // measure 2
0100
1000
0001
0100
0010
0000
0100
0000
,  // measure 3
1001
0000
0000
0000
1000
0000
0100
0000
1000
0000
0000
0000
0001
0000
0100
0001
,  // measure 4
0200
0320
2030
3001
,  // measure 5
1000
0000
0000
0100
0000
0000
1000
0000
0001
0000
0000
0000
0101
0000
0000
0000
,  // measure 6
0010
0000
0000
0000
0100
0000
0001
0000
0100
0000
0000
0001
0000
0000
1000
0000
,  // measure 7
0100
0000
0000
0010
0000
0000
0001
0000
1000
0000
0000
0000
0101
0000
0000
0000
,  // measure 8
0010
0000
0100
0001
1000
0100
0010
0100
,  // measure 9
1000
0000
0000
0010
0000
0000
0100
0000
0001
0000
0000
0000
0100
0000
0000
0000
,  // measure 10
0001
0000
0000
0000
0100
0000
0000
0000
0010
0000
0000
1000
0000
0000
0100
0000
,  // measure 11
0010
0000
0010
0100
0000
0010
0001
1000
,  // measure 12
0001
0000
0000
0100
0000
0000
0102
0000
0000
0000
0000
0000
1000
0000
1000
0000
,  // measure 13
1003
0000
0000
0000
0001
0000
0100
0000
0010
0000
0000
0100
0000
0000
0001
0000
,  // measure 14
1000
0000
0000
0100
0000
0000
0010
0000
0001
0000
0000
0001
0000
0000
0100
0000
,  // measure 15
0010
0000
0000
0000
0100
0000
0010
0000
1000
0000
0000
1001
0000
0000
0001
0000
,  // measure 16
0010
0000
0000
0000
0010
0000
0100
0000
1000
0000
0000
0100
0000
0000
1000
0000
,  // measure 17
0100
0000
0010
0000
0001
1000
0100
0100
,  // measure 18
0020
0000
0001
0000
0000
0100
0130
0000
,  // measure 19
0001
1000
0001
0100
0010
0100
0001
0010
,  // measure 20
0002
0000
0010
0000
0000
1000
1003
0000
,  // measure 21
0001
0100
1000
0100
1000
0001
0010
1000
,  // measure 22
0002
0000
0013
0100
0010
0000
2002
0000
,  // measure 23
0000
0000
0000
0000
0000
3003
0000
0000
,  // measure 24
1001
0000
0010
0100
0010
0000
1000
0001
,  // measure 25
0000
0001
0010
0100
0010
0001
1000
0001
,  // measure 26
0100
0000
0010
0000
0110
0000
0010
1000
,  // measure 27
0000
0001
0100
0000
0001
0010
0001
1000
,  // measure 28
0100
0000
1000
0010
1000
0000
0001
0100
,  // measure 29
0000
0100
1000
0100
0010
1000
0001
1000
,  // measure 30
0001
0000
0010
0000
0100
0000
0010
0001
,  // measure 31
0000
1000
0001
0100
0010
0100
0001
1000
,  // measure 32
1200
0000
0010
0000
1300
0100
0010
0002
,  // measure 33
0000
0103
0010
0200
0000
0310
1000
0001
,  // measure 34
1001
0000
0110
0000
0010
1000
0100
0200
,  // measure 35
0000
0301
0100
1000
0001
0000
1001
0000
,  // measure 36
2000
0000
3020
0000
0230
0000
0001
0301
,  // measure 37
0000
0100
0001
1000
0100
0010
0001
1000
,  // measure 38
1001
0000
0001
0100
0001
1000
0010
0100
,  // measure 39
0000
0010
0100
0001
0000
0010
0001
1000
,  // measure 40
0200
0000
0320
0000
0230
0000
1000
1300
,  // measure 41
0000
1000
0010
1000
0001
0100
0010
1000
,  // measure 42
1001
0000
0001
0010
0000
0100
0010
0001
,  // measure 43
0000
1000
0001
0100
0010
1000
0001
0100
,  // measure 44
0002
0000
2003
0000
3100
1000
0001
0201
,  // measure 45
0000
0310
1000
0200
0000
0310
0000
0001
,  // measure 46
1001
0000
0110
0000
0010
1000
0100
0020
,  // measure 47
0000
0031
1000
0001
0100
0000
0101
0000
,  // measure 48
1000
0000
0000
0100
0000
0000
1000
0000
1000
0000
0100
0000
0010
0000
0100
0000
,  // measure 49
1000
0001
0001
0100
0010
0000
1001
0000
,  // measure 50
0001
0000
0000
0010
0000
0000
0100
0000
0100
0000
0010
0000
0001
0000
1000
0000
,  // measure 51
0001
0100
0010
1001
0000
0000
0000
0000
;

//---------------dance-single - ----------------
#NOTES:
     dance-single:
     :
     Medium:
     4:
     0.340,0.316,0.135,0.231,0.000: // measure 1
1000
0001
0100
0100
,  // measure 2
0010
0000
1000
2000
0000
0000
3001
0000
,  // measure 3
1001
0000
0000
0010
0010
0000
0000
1000
,  // measure 4
1000
0100
0010
0001
,  // measure 5
1002
0000
0000
0100
0103
0000
0001
0000
,  // measure 6
1000
0000
0100
0000
0010
0000
0100
0010
,  // measure 7
0200
0000
0000
0010
0310
0000
0001
0000
,  // measure 8
1000
0000
0001
0000
0100
0000
0010
1000
,  // measure 9
0020
0000
0000
0100
0130
0000
0010
0000
,  // measure 10
1000
0001
1000
0100
,  // measure 11
0110
0000
0000
1000
0001
0000
0100
0000
,  // measure 12
1002
0000
0000
0100
0103
0000
0001
0100
,  // measure 13
0001
0100
0010
1000
,  // measure 14
1001
0000
0001
0000
0010
0000
0100
0010
,  // measure 15
0100
0010
0001
1000
,  // measure 16
0001
0100
0001
0010
,  // measure 17
0001
0000
1000
0100
1000
0000
0000
0000
,  // measure 18
1002
0000
0010
0000
0000
0100
0103
0000
,  // measure 19
0001
0100
0010
1000
,  // measure 20
0200
0000
1000
0000
0000
0010
0310
0000
,  // measure 21
0100
0000
0010
0001
0010
0000
0001
0000
,  // measure 22
1002
0000
0000
0100
0200
0000
0000
0000
,  // measure 23
0000
0000
0000
0303
,  // measure 24
1001
0100
0001
1000
,  // measure 25
0100
0010
0002
0003
,  // measure 26
1000
0010
0001
0010
,  // measure 27
1000
0000
0001
0000
0100
0010
0100
0010
,  // measure 28
0100
0001
1000
0100
,  // measure 29
0010
0001
2000
3000
,  // measure 30
0010
0100
0001
0010
,  // measure 31
0001
0000
1000
0000
0010
1000
0010
1000
,  // measure 32
0001
0000
0010
0000
0001
0000
1000
0001
,  // measure 33
1000
0001
0100
0010
,  // measure 34
0220
0330
0010
1000
,  // measure 35
0001
0000
1000
0001
1000
0000
0001
0000
,  // measure 36
2001
0010
0001
0010
,  // measure 37
3001
0000
1000
0000
0001
0100
0001
0000
,  // measure 38
0200
1000
0010
0301
,  // measure 39
0002
0010
1000
0103
,  // measure 40
2001
0100
0001
3100
,  // measure 41
0001
0000
0010
0000
0100
0000
0010
0001
,  // measure 42
0020
0001
0100
0031
,  // measure 43
2000
0010
0001
3010
,  // measure 44
0100
0000
0010
0000
1000
0000
0001
0010
,  // measure 45
0001
0000
1000
0100
1000
0000
0001
0000
,  // measure 46
2002
3003
1000
0010
,  // measure 47
0220
0330
0010
1000
,  // measure 48
1001
0001
1000
1000
,  // measure 49
0100
0000
0010
0002
0000
0000
1003
0000
,  // measure 50
0001
0100
0010
0010
,  // measure 51
1000
0001
1000
0001
0000
0000
0000
0000
;

//---------------dance-single - ----------------
#NOTES:
     dance-single:
     :
     Easy:
     3:
     0.238,0.243,0.048,0.135,0.000: // measure 1
1000
0000
0001
0000
,  // measure 2
1000
0001
0100
0000
,  // measure 3
0110
0000
0100
0000
,  // measure 4
0010
1000
0001
0010
,  // measure 5
0200
0000
0310
0000
,  // measure 6
0100
0010
0001
1000
,  // measure 7
0002
0000
1003
0000
,  // measure 8
1000
0010
0100
0001
,  // measure 9
2000
0000
0100
0000
,  // measure 10
0002
0000
3003
0000
,  // measure 11
0001
0000
0100
0000
,  // measure 12
0010
0100
0002
0000
,  // measure 13
1003
0000
1000
0100
,  // measure 14
0010
0100
1000
0001
,  // measure 15
0100
0000
0010
0100
,  // measure 16
0002
0000
0010
0000
,  // measure 17
1000
0000
2000
3003
,  // measure 18
1000
0100
1000
1000
,  // measure 19
0001
0100
1000
0100
,  // measure 20
0001
0010
0001
0001
,  // measure 21
1000
0100
0001
0100
,  // measure 22
1000
0000
2002
0000
,  // measure 23
0000
0000
0000
3003
,  // measure 24
1000
0100
1000
0010
,  // measure 25
0100
0001
0010
0000
,  // measure 26
0001
1000
0001
1000
,  // measure 27
0001
0000
0100
0100
,  // measure 28
0100
0010
0100
0001
,  // measure 29
1000
0100
0010
0000
,  // measure 30
0100
0010
0001
0000
,  // measure 31
1000
0001
1000
1000
,  // measure 32
2000
0000
0001
0000
,  // measure 33
3100
1000
0001
0100
,  // measure 34
0010
0020
0000
0000
,  // measure 35
0130
0010
0100
0000
,  // measure 36
0001
0001
1000
1000
,  // measure 37
1001
0000
0001
0010
,  // measure 38
0100
0010
0001
0000
,  // measure 39
1000
0010
1000
0000
,  // measure 40
0010
0010
0100
0100
,  // measure 41
0010
0000
1000
0001
,  // measure 42
1001
0000
1000
0100
,  // measure 43
0010
0000
0001
1000
,  // measure 44
0002
0000
1003
0100
,  // measure 45
1000
0001
0100
0001
,  // measure 46
2002
3003
0000
1000
,  // measure 47
0100
1000
0001
0000
,  // measure 48
1000
0100
1000
0001
,  // measure 49
0100
0010
0100
0000
,  // measure 50
0010
0100
0010
1000
,  // measure 51
0001
0000
1000
0001
0000
0000
0000
0000
;

//---------------dance-single - ----------------
#NOTES:
     dance-single:
     :
     Beginner:
     1:
     0.136,0.195,0.125,0.000,0.000: // measure 1
1000
0000
0001
0000
,  // measure 2
0100
0000
0000
0000
,  // measure 3
0110
0000
0000
0000
,  // measure 4
1001
0000
0000
0000
,  // measure 5
1000
0000
0100
0000
,  // measure 6
1000
0000
0000
0000
,  // measure 7
0001
0000
1000
0000
,  // measure 8
0010
0000
0000
0000
,  // measure 9
0100
0000
0010
0000
,  // measure 10
1000
0000
0001
0000
,  // measure 11
0100
0000
0010
0000
,  // measure 12
0110
0000
0000
0000
,  // measure 13
1000
0000
0100
0000
,  // measure 14
1000
0000
0000
0000
,  // measure 15
0001
0000
0100
0000
,  // measure 16
0010
0000
1000
0000
,  // measure 17
1001
0000
0000
0000
,  // measure 18
1001
0000
0100
0100
,  // measure 19
0100
0000
0010
0000
,  // measure 20
0001
0000
1000
1000
,  // measure 21
1000
0000
0001
0000
,  // measure 22
1001
0000
0000
0000
,  // measure 23
0110
0000
0000
0000
,  // measure 24
1001
0000
1000
0000
,  // measure 25
0100
0000
1000
0000
,  // measure 26
0001
0000
0100
0000
,  // measure 27
0010
0000
0000
0000
,  // measure 28
1000
0000
0010
0000
,  // measure 29
0100
0000
0001
0000
,  // measure 30
0010
0000
0100
0000
,  // measure 31
0010
0000
0000
0000
,  // measure 32
0001
0000
1000
0000
,  // measure 33
0100
0000
1000
0000
,  // measure 34
0001
0000
0000
0000
,  // measure 35
1000
0000
0001
0000
,  // measure 36
1001
0000
0000
0000
,  // measure 37
0100
0000
0010
0000
,  // measure 38
0100
0000
0000
0000
,  // measure 39
0010
0000
0000
0000
,  // measure 40
1000
0000
0001
0000
,  // measure 41
1000
0000
0000
0000
,  // measure 42
0001
0000
0000
0000
,  // measure 43
0010
0000
0000
0000
,  // measure 44
0100
0000
0100
0000
,  // measure 45
0010
0000
0010
0000
,  // measure 46
1001
0000
0000
0000
,  // measure 47
1001
0000
0110
0000
,  // measure 48
1001
0000
0001
0000
,  // measure 49
0100
0100
0100
0000
,  // measure 50
0010
0000
1000
0000
,  // measure 51
0001
0001
0001
0000
;
