#TITLE:One More Lovely;
#SUBTITLE:;
#ARTIST:Risk Junk;
#TITLETRANSLIT:;
#SUBTITLETRANSLIT:;
#ARTISTTRANSLIT:;
#CREDIT:;
#BANNER:;
#BACKGROUND:;
#LYRICSPATH:;
#CDTITLE:;
#MUSIC:One More Lovely.mp3;
#OFFSET:-0.020;
#SAMPLESTART:84.000;
#SAMPLELENGTH:14.400;
#SELECTABLE:YES;
#BPMS:0.000=200.000;
#STOPS:;
#BGCHANGES:;

//---------------dance-single - ----------------
#NOTES:
     dance-single:
     :
     Hard:
     9:
     0.787,0.787,0.202,0.623,0.066:
0000
0000
0000
0000
,
0000
0000
0000
0000
,
1000
0001
0000
1000
0010
0100
0001
0200
,
0000
0310
0000
0100
0010
1000
0001
0020
,
0000
0130
0000
0010
0001
1000
0001
1000
,
0010
0010
0100
0100
0010
1000
0001
0000
,
1000
0100
0000
0100
1000
0001
0100
0002
,
0000
0103
0000
0010
0100
0001
0010
0200
,
0000
0310
0000
0001
1000
0001
0100
0020
,
0000
1030
0100
0010
0001
1000
1001
0000
,
0001
0100
0001
0100
0010
1000
0100
0000
,
1000
0100
1000
0100
0010
0001
0100
0000
,
0010
0100
0001
0010
0100
0010
0001
1000
,
0010
0100
0001
0100
0010
1000
0100
0000
,
1000
0100
0010
0100
1000
0001
0100
0000
,
0001
0100
0010
0100
0001
1000
0100
0000
,
1000
0001
0100
0010
0100
0001
0010
0001
,
1000
0100
1000
0100
0010
0100
0010
0100
,
1000
0100
1000
0100
0010
0100
0010
0100
,
0110
0011
0101
1010
,
2002
3003
0220
0330
2002
3003
0220
0330
,
2001
0000
0000
0000
,
3200
0000
0000
0000
,
0320
0000
0000
0000
,
0032
0000
0000
0000
,
0203
0010
0000
0001
,
0320
1000
0000
0100
,
2030
0010
0000
0001
,
3002
0010
1000
0103
,
2002
0000
3003
0000
0001
0100
0001
0000
,
2000
3200
2300
3002
,
0203
0010
0000
0001
,
0302
0023
0230
0320
,
0032
0010
0000
1000
,
2003
3200
2300
3002
,
0203
0010
0000
0001
,
0301
0100
0000
0101
0000
2002
0000
0000
,
3003
0000
0000
0000
0000
0000
0000
0000
1000
0001
1000
0000
0100
0000
0000
0000
,
0010
0001
1000
0001
0100
0010
1000
0100
,
0010
0000
0100
0010
0100
0000
1001
0000
,
0010
0100
0001
0100
0010
1000
0100
1000
,
1100
0110
0011
0101
,
0001
0100
1000
0100
0010
1000
0001
1000
,
0100
0000
0010
0001
0100
0000
0010
0100
,
0001
0000
1000
0100
0010
0001
0100
0010
,
0100
0000
0000
0000
0010
0000
1000
0000
0001
1000
0000
1000
0001
0000
0001
0000
,
0100
0010
0100
0001
0010
0001
1000
0010
,
2000
3200
0320
0032
,
1003
0100
1000
0001
0100
0010
1000
0010
,
0200
0320
2030
3002
,
0013
0001
1000
0010
0100
0010
1000
0001
,
0200
0320
2030
3002
,
0013
0001
0100
0010
1000
0001
1000
0100
,
0010
0001
0000
0011
0000
1000
0100
0000
,
1000
0010
1000
0010
0100
0001
0100
0001
,
1000
0100
0010
0001
0010
0001
0010
0100
,
1000
0100
1000
0001
0100
0001
1000
0010
,
0000
0010
0100
0000
0100
0001
0000
0010
,
0001
1000
0001
0100
0010
1000
0100
0100
,
0010
0001
0100
0001
0100
1000
0100
0010
,
1000
0010
1000
0010
0100
0001
0100
0001
,
0010
0100
0010
0001
1000
0010
0100
0001
,
1000
0001
1000
0001
0100
0010
0100
0010
,
1000
0010
0100
0001
1000
0100
0010
0001
,
0010
0100
0001
0100
1000
0001
0100
0010
,
0000
0100
0010
0000
1000
0001
0000
0001
,
1000
0100
0010
0001
0100
0010
1000
1000
,
0010
1000
0100
0010
0100
1000
0001
0010
,
0100
0010
0001
1000
0100
0010
0100
1000
,
0001
0000
0100
0000
0010
0000
0100
0000
0001
1000
0001
0000
1000
0000
0000
0000
,
0001
0100
0010
0100
0001
0100
0010
0100
,
0001
1000
0100
1000
0001
1000
0100
1000
,
0001
0010
0100
0010
0001
1000
0010
0100
,
0010
0000
0000
1000
0000
0000
0001
0000
0000
0010
0000
0000
0100
0000
0000
0010
0000
0000
0001
0000
0010
0000
0001
0000
,
0020
0000
0031
0000
0100
0000
0010
0100
,
0001
0201
0320
2030
,
3100
1000
0100
0010
0001
0010
0001
0000
,
1000
0000
0001
0000
1000
0000
0000
0000
0001
0100
0000
0100
0010
0000
0000
0000
,
0110
0000
0010
1000
0001
0010
0001
1000
,
0200
2300
3002
0203
,
0310
0100
0001
0010
0001
1000
0100
0010
,
0200
2300
3002
0203
,
0302
0100
0000
0100
0000
0103
0001
0100
,
0020
2030
3002
0023
,
0032
1000
0000
1000
0000
1003
0001
1000
,
0001
0000
0000
0000
0101
0000
0000
0000
0010
0000
1000
0000
0001
1000
0000
0001
,
1000
0000
0000
0000
1100
0000
0000
0000
1000
0000
0001
0000
0100
0010
0000
0100
,
0010
1000
0001
1000
0001
0010
0100
0010
,
0100
0010
0001
1000
0001
1000
0010
0100
,
0001
0100
0001
0000
1000
0001
1000
0001
2000
0000
0000
0000
3000
0000
0000
0000
;

//---------------dance-single - ----------------
#NOTES:
     dance-single:
     :
     Beginner:
     2:
     0.188,0.235,0.053,0.000,0.000: // measure 1
0000
0000
0000
0000
,  // measure 2
0000
0000
0000
0000
,  // measure 3
1000
0000
0000
0000
,  // measure 4
0100
0000
0000
0000
,  // measure 5
1000
0000
0000
0000
,  // measure 6
0100
0000
1000
0000
,  // measure 7
0001
0000
0000
0000
,  // measure 8
0100
0000
0000
0000
,  // measure 9
0001
0000
0000
0000
,  // measure 10
0100
0000
0001
0000
,  // measure 11
0100
0000
0100
0000
,  // measure 12
0010
0000
0010
0000
,  // measure 13
1000
0000
1000
0000
,  // measure 14
0001
0000
0001
0000
,  // measure 15
0010
0000
0001
0000
,  // measure 16
1000
0000
0100
0000
,  // measure 17
0010
0000
0001
0000
,  // measure 18
1000
0000
0001
0000
,  // measure 19
0100
0000
0010
0000
,  // measure 20
1000
0000
0100
0000
,  // measure 21
0010
0010
0010
0010
,  // measure 22
0010
0000
0000
0000
,  // measure 23
0100
0000
0000
0000
,  // measure 24
0010
0000
0000
0000
,  // measure 25
0001
0000
0000
0000
,  // measure 26
1000
0000
0000
0000
,  // measure 27
0001
0000
0000
0000
,  // measure 28
1000
0000
0000
0000
,  // measure 29
0001
0000
0000
0000
,  // measure 30
1001
0000
0000
0000
,  // measure 31
1000
0000
0100
0000
,  // measure 32
1000
0000
0000
0000
,  // measure 33
0001
0000
0100
0000
,  // measure 34
0001
0000
0000
0000
,  // measure 35
0100
0000
0010
0000
,  // measure 36
0100
0000
0000
0000
,  // measure 37
0110
0000
0000
0000
,  // measure 38
1001
0000
0000
0000
,  // measure 39
1000
0000
0100
0000
,  // measure 40
1000
0000
0001
0000
,  // measure 41
0100
0000
0000
0000
,  // measure 42
0010
0000
0010
0000
,  // measure 43
0100
0000
0001
0000
,  // measure 44
1000
0000
0000
0000
,  // measure 45
0001
0000
0010
0000
,  // measure 46
0100
0000
0000
0000
,  // measure 47
0010
0000
0001
0000
,  // measure 48
1000
0000
0100
0000
,  // measure 49
1000
0000
0000
0000
,  // measure 50
0001
0000
0100
0000
,  // measure 51
0001
0000
0000
0000
,  // measure 52
1000
0000
0001
0000
,  // measure 53
0100
0000
0010
0000
,  // measure 54
1000
0000
0100
0000
,  // measure 55
0010
0000
0000
0000
,  // measure 56
0100
0000
0000
0000
,  // measure 57
0010
0000
0010
0000
,  // measure 58
0100
0000
0100
0000
,  // measure 59
1000
0000
0001
0000
,  // measure 60
0100
0000
0100
0000
,  // measure 61
0010
0000
1000
0000
,  // measure 62
0001
0000
0001
0000
,  // measure 63
1000
0000
0000
0000
,  // measure 64
0100
0000
0000
0000
,  // measure 65
0010
0000
0001
0000
,  // measure 66
1000
0000
0100
0000
,  // measure 67
1000
0000
0001
0000
,  // measure 68
0100
0000
0010
0000
,  // measure 69
0110
0000
0000
0000
,  // measure 70
1001
0000
0000
0000
,  // measure 71
0001
0000
0001
0000
,  // measure 72
0100
0000
0100
0000
,  // measure 73
0001
0000
1000
0000
,  // measure 74
0100
0000
1000
0000
,  // measure 75
0010
0000
0010
0000
,  // measure 76
0100
0000
0100
0000
,  // measure 77
0010
0000
1000
0000
,  // measure 78
0001
0000
0010
0000
,  // measure 79
1001
0000
0000
0000
,  // measure 80
1000
0000
0100
0000
,  // measure 81
0010
0000
0000
0000
,  // measure 82
0100
0000
1000
0000
,  // measure 83
0001
0000
0000
0000
,  // measure 84
0100
0000
0010
0000
,  // measure 85
1000
0000
0000
0000
,  // measure 86
0001
0000
0001
0000
,  // measure 87
1000
0000
1000
0000
,  // measure 88
0100
0000
0010
0000
,  // measure 89
0100
0000
0010
0000
,  // measure 90
0100
0100
0100
0000
;

//---------------dance-single - ----------------
#NOTES:
     dance-single:
     :
     Easy:
     5:
     0.478,0.590,0.316,0.500,0.000:
0000
0000
0000
0000
,
0000
0000
0000
0000
,
1001
0000
0001
0100
,
0001
0000
1000
0100
,
1000
0000
0001
0100
,
0001
0010
0100
0010
,
0001
0000
1000
0010
,
1000
0000
0001
0010
,
0001
0000
1000
0100
,
0010
0100
1000
0001
,
0100
0100
0010
0010
,
1000
0001
1000
0000
,
0001
0001
0010
0010
,
0001
1000
0100
0010
,
1001
0100
0010
0100
,
0001
0001
1000
0000
,
0001
1000
0100
0010
,
0110
0100
1000
0001
,
1001
1000
0010
0100
,
0110
0110
1001
1001
,
0110
1001
0110
0110
,
1002
0000
0000
0000
,
0203
0000
0000
0000
,
0320
0000
0000
0000
,
2030
0000
0000
0000
,
3002
0000
0000
0000
,
2003
0000
0000
0000
,
3200
0000
0000
0000
,
2300
0000
0000
3001
,
1002
0000
0000
0100
,
0203
0320
0230
0302
,
2003
0000
0000
3002
,
2003
3200
0320
0032
,
0203
0000
0000
0320
,
0230
0302
2003
3002
,
2003
0000
0000
3002
,
2000
0000
0000
3003
,
0220
0000
0000
0330
,
0001
0100
0010
1000
,
0100
0100
0010
0010
,
2002
3003
0001
0100
,
0001
0001
1000
1000
,
0001
1000
0100
0010
,
0200
0300
2000
3000
,
0001
0100
0010
1000
,
0100
0010
0001
1000
,
2002
3003
0001
0100
,
0010
1000
0100
0010
,
0220
0330
0100
0010
,
0001
1000
0001
1000
,
2002
3003
0001
0100
,
0010
1000
0100
0010
,
0220
0330
0100
0010
,
0001
1000
0001
0000
,
1000
1000
0100
0100
,
1000
0100
1000
0100
,
0010
0010
0001
0001
,
0010
0001
1000
0001
,
0100
0010
1000
0100
,
0010
0100
1000
0010
,
0100
0001
0100
1000
,
0100
0001
1000
0001
,
1001
1000
0100
0010
,
0001
0001
0100
0100
,
0010
1000
0001
0100
,
0010
0010
1000
1000
,
0001
1000
0100
1000
,
0001
0010
0100
0010
,
0002
0000
0010
0000
,
2000
0000
3003
0000
,
1000
0100
1000
1001
,
0001
0100
0001
1001
,
1000
0100
0010
0001
,
0100
0010
1000
0100
,
0110
0010
0110
0100
,
0010
0002
2003
3002
,
1003
0001
0100
0010
,
1000
0100
0110
1001
,
0220
0330
0010
0001
,
1000
1000
0001
0001
,
0220
0330
0010
0100
,
0001
0001
1000
1000
,
2002
3003
0001
0100
,
0010
1000
0001
0010
,
0220
0330
0100
0010
,
1001
0001
0100
0010
,
1001
0100
0010
1000
,
1001
0100
1001
0010
,
1000
1000
0100
0100
,
0010
0001
2002
3003
;

//---------------dance-single - ----------------
#NOTES:
     dance-single:
     :
     Medium:
     7:
     0.625,0.630,0.263,0.684,0.000:
0000
0000
0000
0000
,
0000
0000
0000
0000
,
1001
0000
0000
0001
0100
0000
0001
0000
,
0010
0000
0000
0100
0010
0000
0001
0000
,
1000
0000
0000
0010
0100
0000
0001
0000
,
1000
0000
0100
0000
0010
0001
0010
0001
,
1000
0000
0000
0001
0100
0000
0010
0000
,
0100
0000
0000
0010
0100
0000
0001
0000
,
1000
0000
0000
0100
0010
0000
0001
0000
,
2000
0000
0010
0000
3001
1000
0001
1000
,
0100
0010
0000
0100
0010
0000
0001
0000
,
1000
0010
0000
1000
0010
0000
0100
0000
,
0010
0100
0000
0001
0100
0000
0001
0000
,
1000
0100
1000
0000
0001
0100
0001
0100
,
0010
1000
0000
0010
0100
0000
0001
0000
,
0010
0001
0000
1000
0100
0000
1000
0000
,
0001
0100
0000
0100
0001
0000
1001
0000
,
2000
3200
0320
0032
,
2003
3020
0230
0302
,
1003
0100
1000
0001
,
0101
1001
0101
0110
,
0200
0000
0000
0000
,
0302
0000
0000
0000
,
0023
0000
0000
0000
,
0230
0000
0000
0000
,
2300
0000
0000
0000
,
3002
0000
0000
0000
,
0203
0000
0000
0000
,
0020
0000
0330
0010
,
1002
0000
0000
2003
,
3200
0320
0032
0203
,
0320
0000
0000
2030
,
3020
2030
3002
2003
,
3200
0000
0000
0320
,
0230
0320
0032
2003
,
3002
0000
0000
0203
,
0310
0100
0000
0110
0000
2002
0000
0000
,
3003
0000
0000
0000
0001
1000
0001
0000
,
1001
0000
0100
0000
0010
1000
0010
1000
,
0001
0010
1100
0010
,
0001
0000
1000
0001
1000
0001
1000
0001
,
2000
3200
0320
0032
,
0103
0000
0010
0000
0100
0000
0010
1000
,
0001
0000
0010
0000
0100
0000
0010
0001
,
1000
0001
0100
0010
,
1000
0000
0100
0010
0000
0100
0010
0000
,
1001
0000
0100
0010
1000
0000
0001
0010
,
0002
0203
0320
2030
,
3100
0000
1000
0100
0010
0000
0100
0010
,
0002
2003
3002
0023
,
0130
0000
0010
0001
1000
0000
0100
1000
,
0002
0203
0320
0230
,
0301
0000
1000
0100
1000
0000
0001
0010
,
0001
1000
0000
1001
0000
0001
0100
0000
,
0001
0100
0010
0000
0100
0010
0100
0000
,
0001
1000
0001
0000
1000
0100
0010
0000
,
0100
0000
0010
0001
0000
0001
1000
0001
,
0000
0100
0010
0000
0010
1000
0000
1000
,
0100
0010
0001
0000
0010
0001
0100
0000
,
0010
1000
0010
1000
0001
0100
0001
0000
,
1000
0000
1100
0000
0010
0001
0100
0000
,
0101
1010
0110
1001
,
1000
0100
1000
0000
0001
0100
0001
0000
,
1000
0100
0010
0001
1000
0001
1000
0000
,
0001
0000
0100
0010
0000
0010
1000
0001
,
0000
0001
1000
0000
1000
0100
0000
0100
,
0010
0001
0010
0000
0001
0100
0001
0000
,
1000
0010
1000
0001
0010
0001
1000
0000
,
0002
0010
1000
0100
,
2003
0010
0002
3003
,
1000
0000
1100
0000
0010
0001
0100
0000
,
0001
0000
0101
0000
0010
1000
0001
0000
,
0010
1001
0010
1001
,
0100
1100
0011
0101
,
0010
0000
1000
0001
1000
0000
0001
0010
,
0200
0320
0032
2003
,
3001
0000
0100
0000
0010
1000
0001
0000
,
1000
0100
0010
0001
1000
0000
1001
0000
,
0110
0000
0100
0000
0010
1000
0010
0000
,
2000
3200
0320
0032
,
1003
0000
1100
0000
0010
0001
0100
0000
,
0002
0203
0320
2030
,
3002
0010
0000
2003
,
3002
0203
0320
2030
,
3100
1001
0100
1010
,
0010
1000
0000
0001
0000
1000
0100
0010
,
0001
1000
0000
0001
0000
0100
0001
0100
,
0001
0100
0001
0000
1000
0010
1000
0001
,
0020
0001
0100
0001
,
0130
0001
1000
0001
0200
0000
0300
0000
;
