#TITLE:Nightmare before oversleep;
#SUBTITLE:;
#ARTIST:猫叉Master;
#TITLETRANSLIT:;
#SUBTITLETRANSLIT:;
#ARTISTTRANSLIT:Nekomata Master;
#CREDIT:;
#BANNER:;
#BACKGROUND:;
#LYRICSPATH:;
#CDTITLE:;
#MUSIC:Nightmare before oversleep.mp3;
#OFFSET:-3.800;
#SAMPLESTART:76.120;
#SAMPLELENGTH:13.890;
#SELECTABLE:YES;
#DISPLAYBPM:95.000:190.000;
#BPMS:0.000=95.000,32.000=190.000,190.000=443.333,204.000=190.000,300.000=95.000;
#STOPS:190.000=0.316
;
#BGCHANGES:;

//---------------dance-single - ----------------
#NOTES:
     dance-single:
     :
     Hard:
     8:
     0.570,0.585,0.333,0.183,0.004:
0000
0000
0000
0000
0000
0000
0001
0100
0002
0000
0000
0000
0010
0000
0000
0000
,
1000
0103
0010
1000
,
0110
0000
1000
0100
1000
0000
0001
0010
,
0100
0001
0100
1000
0001
0000
0110
0000
,
2001
3200
0302
0203
,
2300
0000
3020
0000
0230
0000
0310
0100
,
0001
0000
1000
0100
0010
0001
0100
0100
,
0020
0030
2002
3003
,
1001
0000
0001
0100
0000
0100
0001
0000
,
1000
0100
0000
0010
0100
0000
0010
0000
,
0001
0000
1000
0010
0000
0100
0001
0000
,
1000
0100
0000
0010
0001
0100
0001
0000
,
0110
0000
0001
1000
0000
0001
0100
0000
,
0010
1000
0000
0001
0010
0000
0001
0000
,
1000
0000
1000
0100
0000
0100
0001
0000
,
0001
0100
0000
0100
0010
0001
1000
0000
,
1001
0000
0001
0100
0000
0010
1000
0000
,
0001
0010
0000
0100
1000
1000
0100
0000
,
1000
0000
0001
0010
0001
0010
0100
0000
,
0010
0001
0000
1000
0100
1000
0010
0000
,
0100
0010
1000
0001
0000
0010
0001
0000
,
1000
0100
0000
1000
0010
0100
0001
0000
,
1100
0000
0000
1001
0000
0000
0101
0000
,
0001
0100
0010
1000
0100
0010
0001
0000
,
1000
0001
0100
0020
0000
0130
0010
1000
,
0001
0020
0000
0130
0010
0000
1001
0000
,
0001
0100
0010
2000
0000
3100
0010
0001
,
0100
0002
0000
0103
0010
1000
0100
0000
,
0010
0001
1000
0020
0000
0130
0010
1000
,
0001
0200
0000
1300
0100
0010
1000
0000
,
0101
0000
0010
1000
0000
1000
0100
0000
,
0010
0001
0000
1000
0010
0100
0001
0100
,
0010
0100
1001
1000
,
0100
0000
1100
0000
0010
0000
0001
1000
,
0010
0100
0001
0000
0101
0000
0110
0000
,
1010
1000
0100
0010
,
0001
0100
0010
1000
0200
0000
0001
0000
,
1300
0000
0110
0000
0010
1000
0010
1000
,
0001
0000
0010
0001
1000
0001
0100
0000
,
0010
1000
0100
0001
0100
0000
1001
0000
,
1010
0000
0101
0000
0010
1000
0010
1000
,
0100
0000
0010
0001
1000
0100
1000
0000
,
0010
0100
0000
0010
1000
0000
0010
0100
,
0000
0001
1000
0000
0001
0010
0100
1000
,
0010
0100
0001
1000
1000
0000
0100
0000
,
1000
0100
0000
0100
0010
0000
0010
0001
,
0000
0001
1001
0000
1000
1010
0000
0001
,
0101
0110
2002
0000
,
0000
0000
0000
0000
,
0000
0000
0000
0000
,
3003
0000
0000
0000
,
0010
0000
1001
0000
0001
0100
0010
0000
,
1000
0000
0001
0010
0100
0010
0001
0001
,
1000
0000
0001
0000
0110
0000
1000
0100
,
0001
0100
0001
0100
1000
0100
1000
0100
,
0010
0000
0001
0000
0100
0010
1000
0010
,
1000
0000
0100
0000
0010
0001
0100
0010
,
0100
0010
1000
0001
1000
0000
1001
0000
,
0101
0000
1100
0000
1000
0100
0010
0000
,
0001
0000
1000
0001
0100
0010
1000
0100
,
1000
0000
0011
0000
0101
0000
0010
1000
,
0001
0010
0001
0010
0100
1000
0100
0010
,
0001
0000
0101
0000
0010
1000
0010
0100
,
0001
0000
1001
0000
1000
0100
0010
0100
,
1000
0000
0001
0101
0000
1000
1001
0000
,
0001
0101
0000
1000
1010
0000
1001
0000
,
0001
0100
0001
0100
0001
0100
0001
0100
,
0010
1000
0001
1000
0100
1000
0001
1000
,
0100
0010
0100
0010
0100
0010
0100
0010
,
0001
1000
0001
0100
0001
0010
0001
0010
,
0100
1000
0100
0010
0001
0100
0010
1000
,
0010
0100
0001
0100
0001
1000
0010
1000
,
0001
0010
0100
0010
0001
1000
0100
1000
,
0001
0100
0010
0100
0001
1000
0100
0200
,
0000
0000
0000
0000
,
0010
0000
0000
0000
,
0000
0000
0020
0000
,
0000
0000
0000
0000
,
0330
0000
0000
0000
;

//---------------dance-single - ----------------
#NOTES:
     dance-single:
     :
     Challenge:
     9:
     0.637,0.617,0.275,0.125,0.071:
0000
0000
0000
0000
0000
0000
1000
0100
0020
0000
0000
0000
0001
0000
0000
0000
,
0100
0031
1001
0100
,
0010
0000
1000
0001
0010
0000
0001
0100
,
1000
0001
0010
1000
0002
0000
2003
0000
,
3100
1000
0001
0100
0010
1000
0100
0010
,
0100
0010
0001
1000
0020
0000
1030
0010
,
0200
0000
0301
0100
1000
0100
0001
1000
,
0200
0000
0020
0330
,
1001
0000
0001
0100
0001
0100
0010
0000
,
1000
0010
1000
0001
0010
0000
0100
0000
,
0010
0000
0001
1000
0001
0100
0010
0000
,
0100
0001
1000
0100
0010
0001
1000
0100
,
1000
0000
0001
0010
0100
0010
0001
0000
,
1000
0010
0100
1000
0100
0010
1000
0001
,
0010
0000
0001
0100
0000
0010
1000
0000
,
0001
0010
0000
0100
0010
0001
0010
0100
,
0110
0000
0001
1000
0000
0001
0100
0010
,
1000
0100
0010
0100
0100
1000
0001
0000
,
1000
0010
0100
0001
0000
0100
0010
1000
,
0100
0000
1000
0000
0001
0000
0010
0001
0010
0000
0001
0000
0100
0000
0000
0000
,
0010
1000
0001
1000
0000
0100
1000
0100
,
0010
0100
1000
0001
0100
0100
0001
0000
,
1010
0000
0010
0110
0000
0100
0101
0000
,
0001
0000
1000
0000
0100
0000
1000
0000
0001
0010
0001
0000
1000
0100
1000
0000
,
0001
0010
0100
2000
0000
3010
0100
0001
,
0010
0100
0001
0100
1000
1000
0010
0100
,
0001
0100
0010
2000
0000
3010
0100
1000
,
0100
0000
0010
0000
1000
0000
0001
1000
0001
0000
1000
0000
0100
0000
0010
0000
,
0001
0010
0100
0020
0000
0031
0100
1000
,
0100
0010
1000
0100
0001
0100
0010
0001
,
1001
0000
0001
0101
0000
1000
1100
0000
,
1000
0000
0001
0000
0000
0000
0001
0000
1000
0001
1000
0000
0001
1000
0001
0000
,
1000
0000
0001
0100
0001
0100
0010
0000
,
0100
0001
0100
0001
0010
0000
0001
1000
,
0100
0001
0100
0000
0110
0000
1001
0000
,
0101
0000
0010
1000
0100
0010
0100
1000
,
0010
0100
0001
0010
0002
0000
0010
0000
,
1003
0000
0001
0100
0001
0100
0010
1000
,
0001
0010
0001
0010
0100
1000
0010
1000
,
0100
0010
0001
0100
0010
0000
1001
0000
,
1100
0000
0011
0000
1000
0100
0001
0100
,
1000
0010
0100
0001
0010
0001
1000
0000
,
0001
0100
1000
0100
0001
0000
1000
0100
,
0001
0100
1000
0000
0001
0010
1000
0010
,
0001
0000
1000
0010
0001
0010
1000
0000
,
1000
0100
0000
0100
0001
0000
0001
0010
,
0000
0010
0110
0000
0100
0101
0000
0001
,
0011
1100
2002
0000
,
0000
0000
0000
0000
,
0000
0000
0000
0000
,
3003
0000
0000
0000
,
0011
0000
1100
0000
0010
1000
0001
0000
,
0100
0000
0010
0000
1000
0000
0001
0000
0010
0000
0001
0010
0001
0000
1000
0000
,
0010
0000
0101
0000
1001
0000
1000
0100
,
0010
0000
0001
0000
0100
0000
0010
0000
1000
0010
1000
0000
0001
0100
0001
0000
,
1000
0000
0000
0000
0011
0000
0000
0000
1000
0000
0100
0010
0001
0000
0010
0000
,
0001
0000
0000
0000
0101
0000
0000
0000
0001
0000
0100
0010
1000
0000
0010
0000
,
0100
1000
0100
0001
0010
0100
1001
0000
,
0110
0000
1001
0000
0001
0100
0010
1000
,
0100
0000
0010
0000
0001
0000
0100
0000
0001
0000
1000
0010
1000
0000
0001
0000
,
0100
0000
0010
0100
0001
0000
1000
0100
,
0001
0000
0100
0000
1000
0000
0001
0000
1000
0100
1000
0000
0001
0100
0001
0000
,
1000
0000
0000
0000
0101
0000
0000
0000
0010
0000
1000
0100
0010
0000
0001
0000
,
0100
0000
0000
0000
0101
0000
0000
0000
0001
0000
0100
0010
1000
0000
0001
0000
,
1000
0100
0001
1000
0010
0001
1000
0010
,
0100
0010
0001
0010
0110
0000
1001
0000
,
1000
0100
0010
0100
1000
0100
0010
0100
,
1000
0010
0100
0010
1000
0010
0100
0001
,
0010
1000
0010
0001
0100
1000
0100
0001
,
0010
0100
0001
0100
1000
0010
0100
1000
,
0100
0010
1000
0100
0001
1000
0010
0100
,
1000
0001
0100
1000
0100
0010
1000
0001
,
0010
0100
0010
0001
1000
0010
0001
1000
,
0100
0010
1000
0001
0010
0100
0010
0020
,
0000
0000
0000
0000
,
0100
0000
0000
0000
,
0000
0000
0200
0000
,
0000
0000
0000
0000
,
0330
0000
0000
0000
;

//---------------dance-single - ----------------
#NOTES:
     dance-single:
     :
     Medium:
     6:
     0.470,0.520,0.408,0.267,0.000: // measure 1
0000
0000
1002
1000
,  // measure 2
0100
0100
0010
0010
,  // measure 3
1003
0000
0001
0100
0010
0000
1000
0010
,  // measure 4
1000
0001
0100
0001
1000
0000
0110
0000
,  // measure 5
1002
0010
1000
0100
,  // measure 6
2003
0000
0010
0000
3001
0000
1000
0100
,  // measure 7
0010
0000
0100
1000
0001
1000
0001
0100
,  // measure 8
0020
0030
2002
3003
,  // measure 9
1001
0000
0000
2002
0000
0000
3003
0000
,  // measure 10
0001
0100
0000
0100
0001
0000
1000
0000
,  // measure 11
0110
0000
0000
0220
0000
0000
0330
0000
,  // measure 12
0010
0001
0000
1000
0100
0000
1000
0000
,  // measure 13
0101
0000
0100
0020
0000
0000
1030
0000
,  // measure 14
1000
0100
0000
1000
0100
0000
0011
0000
,  // measure 15
0001
0000
0100
0001
0000
0001
0100
0000
,  // measure 16
0100
0001
0000
0001
1000
0000
1001
0000
,  // measure 17
0101
0000
1000
0100
1000
0000
0001
0000
,  // measure 18
0010
0000
0100
0000
0010
0001
1000
0000
,  // measure 19
0001
0000
0100
0010
0100
0000
0001
0000
,  // measure 20
1000
0000
0010
0000
1000
0010
1000
0001
,  // measure 21
0100
0000
0001
0010
0001
0000
1000
0000
,  // measure 22
0100
0000
0010
0000
0001
1000
0001
0000
,  // measure 23
1010
0000
0000
0101
0000
0000
1001
0000
,  // measure 24
0000
0110
0000
0000
0010
0000
0100
0000
,  // measure 25
1001
0000
0001
0010
0000
0001
0010
0000
,  // measure 26
0001
0000
1000
0000
0010
0100
0001
0000
,  // measure 27
1000
0000
0001
1000
0000
0001
1000
0000
,  // measure 28
0010
0000
0100
0000
0010
1000
0001
1000
,  // measure 29
0100
0000
1000
0001
0000
0100
0001
0000
,  // measure 30
1000
0000
0010
0100
0001
0000
0101
0000
,  // measure 31
1001
0000
1000
0100
0000
0010
0001
0000
,  // measure 32
1000
0010
0000
0100
0001
0000
1000
0000
,  // measure 33
0001
0100
0101
1000
,  // measure 34
0100
1100
1000
0010
,  // measure 35
0110
0000
0101
0000
0001
0000
0010
0001
,  // measure 36
0010
0001
1000
1100
,  // measure 37
1000
0100
1000
0100
2000
0000
0001
0000
,  // measure 38
3001
0001
0100
0010
,  // measure 39
0100
0001
0010
0100
,  // measure 40
0010
0001
1001
0110
,  // measure 41
1001
0001
0100
0010
,  // measure 42
1000
0000
0100
0010
0100
0010
0200
0000
,  // measure 43
0000
0320
0000
0000
0032
0000
0000
2003
,  // measure 44
0000
0000
3002
0000
0000
0203
0000
0000
,  // measure 45
0320
0000
0000
2030
0000
0000
3001
0000
,  // measure 46
0000
0100
0000
0000
0010
0000
0000
1000
,  // measure 47
0000
0000
1001
0000
0000
0110
0000
0000
,  // measure 48
1001
1001
2002
0000
,  // measure 49
0000
0000
0000
0000
,  // measure 50
0000
0000
0000
0000
,  // measure 51
3003
0000
0000
0000
,  // measure 52
1001
0001
0100
0010
,  // measure 53
1000
0000
0001
0100
0001
0100
0001
0000
,  // measure 54
1000
0000
0100
0000
0010
0000
0001
0010
,  // measure 55
0001
0000
0100
0000
0010
1000
0001
0000
,  // measure 56
2002
0000
3003
0000
0001
0100
0010
0000
,  // measure 57
0220
0000
0330
0000
0010
1000
0001
0000
,  // measure 58
1100
0000
0000
0110
0000
0000
0011
0000
,  // measure 59
1001
0001
0100
0010
,  // measure 60
1010
0000
1000
0001
1000
0001
0100
0000
,  // measure 61
0010
0000
1000
0000
0001
0000
1000
0100
,  // measure 62
0010
0000
0001
0100
0001
0100
0001
0000
,  // measure 63
2002
0000
3003
0000
1000
0100
0010
0000
,  // measure 64
0022
0000
0033
0000
0001
0100
0010
0000
,  // measure 65
1010
0000
0000
1100
0000
0000
0011
0000
,  // measure 66
0000
1100
0000
0000
1001
0000
0110
0000
,  // measure 67
1001
0001
0100
0001
,  // measure 68
0100
0000
0010
0000
1000
0000
0001
0010
,  // measure 69
0100
0010
0001
1000
,  // measure 70
0100
0000
0010
0000
0001
1000
0001
1000
,  // measure 71
0001
1000
0010
0100
,  // measure 72
0001
0000
0100
0000
0010
0000
1000
0010
,  // measure 73
1000
0001
0100
0010
,  // measure 74
1000
0000
0001
0000
1000
0001
1000
0002
,  // measure 75
0000
0000
0000
0000
,  // measure 76
1000
0000
0000
0000
,  // measure 77
0000
0000
2000
0000
,  // measure 78
0000
0000
0000
0000
,  // measure 79
3003
0000
0000
0000
;

//---------------dance-single - ----------------
#NOTES:
     dance-single:
     :
     Easy:
     5:
     0.380,0.455,0.400,0.175,0.000: // measure 1
0000
0000
1000
0100
,  // measure 2
1000
0001
0100
0010
,  // measure 3
0200
0300
0010
1000
,  // measure 4
0001
1000
2002
3003
,  // measure 5
0120
0100
1000
1000
,  // measure 6
0100
1000
0130
0010
,  // measure 7
2000
3000
0001
0010
,  // measure 8
0220
0330
2002
3003
,  // measure 9
1001
0000
0000
1001
0000
0000
0000
0000
,  // measure 10
0001
0100
0010
1000
,  // measure 11
0001
0000
0000
0001
0000
0000
0000
0000
,  // measure 12
1000
0100
0010
0001
,  // measure 13
0110
0000
0000
0110
0000
0000
0000
0000
,  // measure 14
0010
1000
0001
1000
,  // measure 15
0001
0000
0000
0001
0000
0000
1000
0000
,  // measure 16
0000
1000
0000
0000
0001
0000
1000
0000
,  // measure 17
0001
1000
0100
0020
,  // measure 18
0130
0010
0001
1000
,  // measure 19
0001
0100
0010
0200
,  // measure 20
0310
1000
0001
1000
,  // measure 21
1001
0001
0010
0002
,  // measure 22
1003
0100
0010
0100
,  // measure 23
0110
0000
0000
1001
0000
0000
0110
0000
,  // measure 24
0000
1001
0000
0000
0001
0000
1000
0000
,  // measure 25
1001
0001
0100
1000
,  // measure 26
0001
0010
1000
0001
,  // measure 27
1000
0001
0010
1000
,  // measure 28
0001
0100
1000
0001
,  // measure 29
1000
0010
0100
1000
,  // measure 30
0100
0001
0010
0100
,  // measure 31
0110
0000
0000
1001
0000
0000
0110
0000
,  // measure 32
0000
1001
0000
0000
1001
0000
0110
0000
,  // measure 33
1001
0001
0100
0001
,  // measure 34
1000
0001
1000
0100
,  // measure 35
1000
0001
0010
0100
,  // measure 36
0010
0001
1000
0001
,  // measure 37
0100
0100
0020
0100
,  // measure 38
0130
1001
1000
0100
,  // measure 39
0010
0100
1000
0001
,  // measure 40
0100
0010
0100
0001
,  // measure 41
0010
0001
1000
0100
,  // measure 42
0010
0001
0100
0010
,  // measure 43
1000
0010
1000
0001
,  // measure 44
0010
0000
0100
0000
0000
0010
0000
0000
,  // measure 45
0001
0000
0000
1000
0000
0000
1001
0000
,  // measure 46
0000
1001
0000
0000
0110
0000
0000
0110
,  // measure 47
0000
0000
1001
0000
0000
0110
0000
0000
,  // measure 48
1001
0110
2002
0000
,  // measure 49
0000
0000
0000
0000
,  // measure 50
0000
0000
0000
0000
,  // measure 51
3003
0000
0000
0000
,  // measure 52
0001
0100
0001
0100
,  // measure 53
0002
0000
1003
0100
,  // measure 54
0010
0100
2000
0000
,  // measure 55
3001
0100
0010
1000
,  // measure 56
1001
0000
0001
0100
,  // measure 57
0110
0000
0010
1000
,  // measure 58
1001
0000
0000
0110
0000
0000
1001
0000
,  // measure 59
1000
0100
1000
0001
,  // measure 60
0200
0000
0310
0100
,  // measure 61
0001
0010
0200
0000
,  // measure 62
0310
0001
1000
0100
,  // measure 63
0110
0000
0010
0001
,  // measure 64
1001
0000
1000
0001
,  // measure 65
1001
0000
0000
1001
0000
0000
0110
0000
,  // measure 66
0000
0110
0000
0000
1001
0000
0110
0000
,  // measure 67
1001
1000
0100
1000
,  // measure 68
0100
1000
0001
0100
,  // measure 69
0010
0100
0001
0010
,  // measure 70
0100
0001
0100
1000
,  // measure 71
0010
0001
1000
0100
,  // measure 72
0001
0010
0001
1000
,  // measure 73
0100
0001
1000
0010
,  // measure 74
0001
1000
1001
1001
,  // measure 75
0000
0000
0000
0000
,  // measure 76
2001
0000
0000
0000
,  // measure 77
0000
0000
0002
0000
,  // measure 78
0000
0000
0000
0000
,  // measure 79
3003
0000
0000
0000
;

//---------------dance-single - ----------------
#NOTES:
     dance-single:
     :
     Beginner:
     2:
     0.182,0.287,0.133,0.000,0.000: // measure 1
0000
0000
0001
0000
,  // measure 2
1000
0000
0001
0000
,  // measure 3
0100
0000
0010
0000
,  // measure 4
0100
0000
0110
0000
,  // measure 5
1001
0000
0001
0001
,  // measure 6
0001
0001
0001
0001
,  // measure 7
0001
0000
0100
0000
,  // measure 8
0110
0000
1001
0000
,  // measure 9
1001
0000
0000
0000
,  // measure 10
0001
0000
0100
0000
,  // measure 11
0001
0000
0000
0000
,  // measure 12
1000
0000
0100
0000
,  // measure 13
0010
0000
0000
0000
,  // measure 14
0100
0000
0010
0000
,  // measure 15
0100
0000
0000
0000
,  // measure 16
0000
0000
0000
0000
,  // measure 17
1000
0000
0100
0000
,  // measure 18
0010
0000
0001
0000
,  // measure 19
0100
0000
0010
0000
,  // measure 20
1000
0000
0000
0000
,  // measure 21
0001
0000
0100
0000
,  // measure 22
0001
0000
1000
0000
,  // measure 23
0100
0000
0010
0000
,  // measure 24
0001
0000
0000
0000
,  // measure 25
1000
0000
0001
0000
,  // measure 26
0100
0000
1000
0000
,  // measure 27
0001
0000
0010
0000
,  // measure 28
1000
0000
0001
0000
,  // measure 29
1000
0000
0100
0000
,  // measure 30
0001
0000
1000
0000
,  // measure 31
0010
0000
0001
0000
,  // measure 32
1000
0000
0001
0000
,  // measure 33
1001
0000
0000
0001
,  // measure 34
0000
0000
0100
0000
,  // measure 35
0000
0010
0010
0010
,  // measure 36
0010
0000
0000
0100
,  // measure 37
0000
0000
0001
0001
,  // measure 38
0001
0001
0000
0000
,  // measure 39
1000
0000
0000
0100
,  // measure 40
0000
0000
0010
0010
,  // measure 41
0010
0010
0000
0000
,  // measure 42
0100
0000
0000
1000
,  // measure 43
0000
0000
0001
0000
,  // measure 44
0000
0100
0000
0000
,  // measure 45
0010
0000
0000
0110
,  // measure 46
0000
0000
1001
0000
,  // measure 47
0000
0110
0000
0000
,  // measure 48
1001
1001
1001
0000
,  // measure 49
0000
0000
0000
0000
,  // measure 50
0000
0000
0000
0000
,  // measure 51
0000
0000
0000
0000
,  // measure 52
1001
0000
0001
0000
,  // measure 53
0100
0000
0010
0000
,  // measure 54
1000
0000
0001
0000
,  // measure 55
1000
0000
0000
0001
,  // measure 56
0001
0000
0000
0010
,  // measure 57
0010
0000
0000
0100
,  // measure 58
0100
0000
0000
0000
,  // measure 59
1001
0000
0001
0000
,  // measure 60
0100
0000
0010
0000
,  // measure 61
1000
0000
0001
0000
,  // measure 62
0010
0000
0100
0000
,  // measure 63
0010
0000
0000
0001
,  // measure 64
0001
0000
0000
1000
,  // measure 65
1000
0000
0000
0001
,  // measure 66
0001
0000
1000
0000
,  // measure 67
0001
0000
1000
0000
,  // measure 68
0001
0000
0100
0000
,  // measure 69
0010
0000
1000
0000
,  // measure 70
0001
0000
0100
0100
,  // measure 71
0100
0000
0010
0000
,  // measure 72
1000
0000
0001
0000
,  // measure 73
0010
0000
0100
0000
,  // measure 74
0010
0010
0010
0010
,  // measure 75
0000
0000
0000
0000
,  // measure 76
1001
0000
0000
0000
,  // measure 77
0000
0000
1001
0000
;
