#TITLE:New Solution;
#SUBTITLE:;
#ARTIST:KARUT;
#TITLETRANSLIT:;
#SUBTITLETRANSLIT:;
#ARTISTTRANSLIT:;
#CREDIT:;
#BANNER:New Solution.png;
#BACKGROUND:New Solution-bg.PNG;
#LYRICSPATH:;
#CDTITLE:;
#MUSIC:New Solution.mp3;
#OFFSET:-0.020;
#SAMPLESTART:87.290;
#SAMPLELENGTH:13.090;
#SELECTABLE:YES;
#BPMS:0.000=110.000;
#STOPS:;
#BGCHANGES:;

//---------------dance-single - ----------------
#NOTES:
     dance-single:
     :
     Hard:
     7:
     0.455,0.501,0.486,0.346,0.042: // measure 1
0000
0000
0000
0000
,  // measure 2
0000
0000
0000
0000
,  // measure 3
1001
0000
0110
0000
1001
2002
3003
0000
,  // measure 4
1000
0000
0000
0000
0000
0000
0101
0000
0000
0000
0000
0001
1000
0000
0000
0001
0000
0000
0100
0000
0000
0000
0000
0000
,  // measure 5
0001
0000
0000
0010
0000
0000
0100
0000
0000
0000
0000
0020
0000
0000
0030
0100
0000
0000
0110
0000
0000
0000
0000
0000
,  // measure 6
1100
0000
0000
0000
0000
0000
1001
0000
0000
0000
0000
0001
0100
0000
0000
0010
0000
0000
0100
0000
0000
0000
0000
0000
,  // measure 7
0001
0001
0010
0100
0001
0100
1001
0000
,  // measure 8
2010
0000
0001
0000
0100
0000
3001
1000
,  // measure 9
0010
0001
0010
1000
0001
1000
1001
0000
,  // measure 10
0012
0000
0100
0000
1000
0000
0103
0010
,  // measure 11
0100
1000
0100
0001
0010
0001
1000
0000
,  // measure 12
1200
0000
0001
0000
1000
0000
0310
0100
,  // measure 13
0010
0001
0100
1000
0100
0010
0100
0000
,  // measure 14
1020
0000
0001
0000
1000
0000
0130
0010
,  // measure 15
1010
0000
0101
0000
0010
0100
0001
1000
,  // measure 16
2100
0000
0000
0000
3001
0000
0100
0020
,  // measure 17
0000
0130
0010
1000
0001
0010
0100
0000
,  // measure 18
0001
0010
0001
2000
3010
0000
1000
0010
,  // measure 19
0100
0001
0010
0002
1003
0000
0001
0100
,  // measure 20
0102
0000
0000
0000
1003
0000
0001
0020
,  // measure 21
0000
0130
0100
0010
0001
1000
0001
0000
,  // measure 22
1100
2200
0000
0000
0000
0000
3300
0000
,  // measure 23
1001
0101
1100
0110
,  // measure 24
2002
0000
0000
3003
,  // measure 25
0001
0100
0010
0000
0001
0100
0010
0000
,  // measure 26
0001
0000
0000
0100
0000
0000
0010
0000
0000
1000
0000
0001
1000
0000
0000
0100
0000
0000
1000
0000
0000
0000
0000
0000
,  // measure 27
1000
0100
0010
0000
1000
0100
0010
0000
,  // measure 28
1000
0000
0000
0100
0000
0000
0010
0000
0000
0001
0000
1000
0001
0000
0000
0100
0000
0000
1001
0000
0000
0000
0000
0000
,  // measure 29
0001
1000
0100
0000
0001
1000
0100
0000
,  // measure 30
0001
0000
0000
1000
0000
0000
0100
0000
0000
0010
0000
0100
0010
0000
0000
0001
0000
0000
1000
0000
0000
0000
0000
0000
,  // measure 31
0001
0100
1000
0000
0001
0100
1000
0000
,  // measure 32
2002
0000
0000
0000
0000
3003
1001
0000
,  // measure 33
0012
0000
1000
0100
2000
0000
3003
0000
,  // measure 34
0200
0000
0010
0001
0020
0000
0330
0000
,  // measure 35
2000
0010
0001
0001
0002
0000
3003
0000
,  // measure 36
0002
0010
1000
0100
2000
0000
3003
0000
,  // measure 37
0201
1000
0020
0030
,  // measure 38
0001
0000
0010
0010
0020
0000
0330
0000
,  // measure 39
1001
0220
0000
0000
0000
0000
0330
0000
,  // measure 40
1010
0101
0011
1100
,  // measure 41
1001
0000
0000
0000
0000
0000
0101
0000
0000
0000
0000
0001
0100
0000
0000
0010
0000
0000
1000
0000
0000
0100
0000
0000
,  // measure 42
0010
0010
0100
2100
0000
0001
3001
0000
,  // measure 43
0101
0000
0000
0000
0000
0000
0010
0000
0000
1000
0000
0100
1000
0000
0000
0001
0000
0000
0100
0000
0000
0010
0000
0000
,  // measure 44
0100
0010
1000
1002
0000
0100
0103
0000
,  // measure 45
1001
0000
0000
0000
0000
0000
1100
0000
0000
0000
0000
1000
0001
0000
0000
0100
0000
0000
0010
0000
0000
0100
0000
0000
,  // measure 46
0001
0001
1000
2000
0000
3100
1000
0001
,  // measure 47
1001
1001
0110
0110
,  // measure 48
1001
0001
0101
0100
0110
0010
1010
1000
,  // measure 49
2002
0000
0000
3003
;

//---------------dance-single - ----------------
#NOTES:
     dance-single:
     :
     Beginner:
     1:
     0.122,0.157,0.084,0.000,0.000: // measure 1
0000
0000
0000
0000
,  // measure 2
0000
0000
0000
0000
,  // measure 3
0100
0100
0100
0000
,  // measure 4
1001
0000
0001
0000
,  // measure 5
0100
0000
0000
0000
,  // measure 6
0001
0000
1000
0000
,  // measure 7
1001
0000
0000
0000
,  // measure 8
0001
0000
0001
0000
,  // measure 9
1000
0000
1000
0000
,  // measure 10
0100
0000
0100
0000
,  // measure 11
0010
0000
0000
0000
,  // measure 12
0100
0000
0100
0000
,  // measure 13
0010
0000
0010
0000
,  // measure 14
0001
0000
0001
0000
,  // measure 15
1000
0000
0000
0000
,  // measure 16
1001
0000
0000
0000
,  // measure 17
1001
0000
0000
0000
,  // measure 18
0001
0000
0100
0000
,  // measure 19
0010
0000
0100
0000
,  // measure 20
0110
0000
0000
0000
,  // measure 21
1001
0000
0000
0000
,  // measure 22
0110
0000
0000
0000
,  // measure 23
0100
0100
0100
0100
,  // measure 24
0100
0000
0000
0000
,  // measure 25
0001
0000
0001
0000
,  // measure 26
1000
0000
0100
0000
,  // measure 27
1000
0000
1000
0000
,  // measure 28
0001
0000
1000
1000
,  // measure 29
1000
0000
0001
0000
,  // measure 30
0100
0000
0010
0000
,  // measure 31
0100
0000
0001
0000
,  // measure 32
1001
0000
0000
0000
,  // measure 33
0001
0000
0000
0000
,  // measure 34
0100
0000
0000
0000
,  // measure 35
0010
0000
0000
0000
,  // measure 36
1000
0000
0000
0000
,  // measure 37
0100
0000
0000
0000
,  // measure 38
0010
0000
0000
0000
,  // measure 39
1001
0000
0000
0000
,  // measure 40
0100
0100
0100
0100
,  // measure 41
0100
0000
0010
0000
,  // measure 42
0100
0000
0001
0000
,  // measure 43
1000
0000
0001
0000
,  // measure 44
1000
0000
0000
0000
,  // measure 45
0001
0000
0010
0000
,  // measure 46
0001
0000
1000
0000
,  // measure 47
0100
0000
0010
0000
,  // measure 48
0001
0001
0001
0001
,  // measure 49
0001
0000
0000
0000
;

//---------------dance-single - ----------------
#NOTES:
     dance-single:
     :
     Easy:
     2:
     0.183,0.228,0.112,0.206,0.000: // measure 1
0000
0000
0000
0000
,  // measure 2
0000
0000
0000
0000
,  // measure 3
0100
0100
0200
0300
,  // measure 4
1001
0000
0100
0000
,  // measure 5
1000
0000
0010
0100
,  // measure 6
0010
0000
0100
0000
,  // measure 7
0001
0001
0002
0003
,  // measure 8
1000
0000
0001
0100
,  // measure 9
0001
0000
0100
0000
,  // measure 10
0010
0000
0100
0010
,  // measure 11
0100
0000
0001
0000
,  // measure 12
1000
0000
0001
0010
,  // measure 13
0001
0000
1000
0000
,  // measure 14
0100
0000
0010
0100
,  // measure 15
0010
0000
0100
0000
,  // measure 16
2000
0000
3000
0000
,  // measure 17
0002
0000
0003
0000
,  // measure 18
0010
0010
0010
0000
,  // measure 19
0100
0100
0100
0000
,  // measure 20
0020
0000
0030
0000
,  // measure 21
0200
0000
0300
0000
,  // measure 22
1001
0000
0000
0000
,  // measure 23
1000
1000
0001
0001
,  // measure 24
2002
0000
0000
3003
,  // measure 25
1001
0000
0010
0000
,  // measure 26
0100
0100
0100
0000
,  // measure 27
1001
0000
0100
0000
,  // measure 28
0010
0010
0020
0030
,  // measure 29
1001
0000
0100
0000
,  // measure 30
0010
0100
0010
0000
,  // measure 31
1001
0000
0010
0000
,  // measure 32
2002
0000
3003
1001
,  // measure 33
2000
0000
3000
0000
,  // measure 34
0020
0000
0030
0000
,  // measure 35
0200
0000
0300
0000
,  // measure 36
0002
0000
0003
0000
,  // measure 37
1000
0000
1000
0000
,  // measure 38
0100
0000
0100
0000
,  // measure 39
0220
0000
0000
0330
,  // measure 40
1000
1000
0001
0001
,  // measure 41
2002
3003
0001
0000
,  // measure 42
0100
0000
0010
0010
,  // measure 43
0010
0000
0100
0000
,  // measure 44
0001
0001
1000
1000
,  // measure 45
0100
0000
1000
0000
,  // measure 46
0100
0000
0010
0010
,  // measure 47
0010
0000
0100
0000
,  // measure 48
0010
0010
0200
0300
,  // measure 49
2002
0000
0000
3003
;

//---------------dance-single - ----------------
#NOTES:
     dance-single:
     :
     Medium:
     4:
     0.304,0.319,0.224,0.206,0.000: // measure 1
0000
0000
0000
0000
,  // measure 2
0000
0000
0000
0000
,  // measure 3
1001
0110
2002
3003
,  // measure 4
1000
0100
1000
0010
,  // measure 5
0100
0000
0001
0000
1000
0001
1000
0000
,  // measure 6
0001
0100
0010
0100
,  // measure 7
1001
0010
2002
3003
,  // measure 8
1000
0000
0100
0000
0010
0000
0100
0010
,  // measure 9
0000
0100
0010
0000
0001
0000
1001
0000
,  // measure 10
0001
0000
1000
0000
0010
0000
0100
0010
,  // measure 11
0000
0100
0010
0000
2000
0000
3000
0000
,  // measure 12
1001
0000
0010
0000
0001
0000
1000
0100
,  // measure 13
0000
0100
1000
0000
0001
0000
0110
0000
,  // measure 14
0010
0000
1000
0000
0100
0000
0010
0001
,  // measure 15
0000
0010
0001
0000
1000
0100
1000
0000
,  // measure 16
2100
0000
3001
0100
,  // measure 17
0002
0000
0103
0010
,  // measure 18
1000
0100
0010
0100
,  // measure 19
0010
0100
1000
0001
,  // measure 20
1002
0000
0103
0010
,  // measure 21
2000
0000
3001
1000
,  // measure 22
0100
0200
0000
0000
0000
0000
0300
0000
,  // measure 23
0011
1100
1010
0101
,  // measure 24
2002
0000
0000
3003
,  // measure 25
1000
0100
1000
0000
0001
0100
0001
0000
,  // measure 26
1000
0000
0001
0000
0100
0010
0100
0000
,  // measure 27
0001
0010
0100
0000
0010
0001
0100
0000
,  // measure 28
0010
0000
1000
0000
0001
0100
0001
0000
,  // measure 29
1000
0010
1000
0000
0001
0100
0001
0000
,  // measure 30
1000
0000
0100
0000
0010
0001
0010
0000
,  // measure 31
0001
0100
0010
0000
0100
0010
1000
0000
,  // measure 32
0220
0000
0330
0110
,  // measure 33
1002
0000
0100
0000
,  // measure 34
2003
0000
0100
0000
,  // measure 35
3002
0000
0010
0000
,  // measure 36
2003
0000
0010
0000
,  // measure 37
3001
0100
0010
1000
,  // measure 38
0100
0010
0200
0300
,  // measure 39
0100
0200
0000
0000
0000
0000
0300
0000
,  // measure 40
0110
0110
1001
1001
,  // measure 41
1000
0100
0010
0001
,  // measure 42
0100
0000
0010
0000
0100
0010
0100
0000
,  // measure 43
0010
1000
0001
1000
,  // measure 44
0100
0000
0110
0000
0000
1000
0001
0000
,  // measure 45
1000
0010
0100
1000
,  // measure 46
0100
0000
0001
0000
0010
0001
0010
0000
,  // measure 47
2001
0001
0001
3001
,  // measure 48
1000
0010
1000
0000
0001
0100
0001
0100
,  // measure 49
0002
0000
0000
0003
;
