#TITLE:My Lucky Day;
#SUBTITLE:;
#ARTIST:DoReDoS;
#TITLETRANSLIT:;
#SUBTITLETRANSLIT:;
#ARTISTTRANSLIT:;
#CREDIT:;
#BANNER:My Lucky Day.png;
#BACKGROUND:My Lucky Day-bg.PNG;
#LYRICSPATH:;
#CDTITLE:;
#MUSIC:My Lucky Day.mp3;
#OFFSET:-1.000;
#SAMPLESTART:50.180;
#SAMPLELENGTH:15.730;
#SELECTABLE:YES;
#BPMS:0.000=122.000;
#STOPS:;
#BGCHANGES:;

//---------------dance-single - ----------------
#NOTES:
     dance-single:
     :
     Hard:
     8:
     0.604,0.541,0.221,0.282,0.397: // measure 1
1002
0000
0000
1000
0000
0000
1000
0003
1000
0000
0010
0000
0100
0000
0010
1000
,  // measure 2
0002
0000
0000
1000
0000
0000
1003
0000
0001
0000
1000
0000
0001
0010
0001
0010
,  // measure 3
0200
0000
0000
0010
0000
0000
0310
0000
0100
1000
0100
0000
1000
0001
1000
0001
,  // measure 4
2000
0000
0000
0010
0000
0000
3001
0000
1000
0000
0001
0000
1001
0000
0000
0000
,  // measure 5
0010
0001
0000
0001
0100
0000
0010
0000
1000
0000
0100
0000
0001
0000
0100
0000
,  // measure 6
0010
0100
0000
0010
0100
0000
1000
0000
0001
0000
0100
0000
0001
0000
1000
0000
,  // measure 7
0010
0100
0000
0010
0100
0000
0001
0000
1000
0100
1000
0000
0001
0100
0001
0000
,  // measure 8
1000
0000
0100
1000
0001
0000
0100
0000
0010
0000
1000
0001
0200
0000
0000
0000
,  // measure 9
0301
0101
0000
0010
1000
0100
0010
0100
,  // measure 10
0010
0011
0000
0001
0100
1000
0100
0010
,  // measure 11
1000
1001
0000
0001
0010
0100
0001
0100
,  // measure 12
0010
0000
0001
2000
0000
0000
3010
0000
1000
0000
0100
0000
0010
0000
0001
0000
,  // measure 13
1000
0100
1000
0000
2000
0000
0000
0000
3010
0000
0100
0000
0001
0000
0010
0000
,  // measure 14
0100
0110
0000
0010
0002
0000
0103
0010
,  // measure 15
1000
1001
0000
0001
0100
0010
0001
0010
,  // measure 16
1000
0000
0000
1000
0200
0000
0000
0000
0001
0000
0000
0000
1300
0000
0000
0000
,  // measure 17
0101
0000
0000
0100
0000
0000
0020
0000
0000
0000
1030
0000
0100
0000
0010
0000
,  // measure 18
0100
0000
0000
0010
0000
0000
0002
0000
0000
0000
0103
0000
0010
0000
1000
0000
,  // measure 19
0001
0000
0000
0101
0000
0000
0100
0000
1000
0000
0000
1100
0000
0000
0100
0000
,  // measure 20
0001
0000
1000
0000
0100
0000
0100
0000
0000
1000
0000
0001
0200
0000
0301
0000
,  // measure 21
1000
0000
0000
0100
0000
0000
2000
0000
0000
0000
3001
0000
0100
0000
0010
0000
,  // measure 22
0001
0000
0000
0010
0000
0000
0200
0000
0000
0000
0301
0000
0010
0000
0100
0000
,  // measure 23
0010
0000
0000
0001
0000
0000
0101
0000
0100
0000
0000
0010
0000
0000
1010
0000
,  // measure 24
2002
0000
0000
3003
,  // measure 25
1000
0100
1000
0000
0001
0100
0000
0100
0001
1000
0001
1000
0200
0300
0000
0000
,  // measure 26
1001
0000
0000
0001
0100
0000
0010
0000
1000
0000
0100
0000
1000
0000
0001
0000
,  // measure 27
0010
0000
0000
0100
0010
0000
0001
0000
1000
0000
0001
0000
0100
0000
0010
0000
,  // measure 28
1000
0000
0000
0100
0000
0000
0010
0000
0001
0000
1000
0000
0001
0000
0010
0000
,  // measure 29
0001
1000
0000
0010
0100
0000
0001
0000
0010
0100
0000
0100
0000
0100
0010
0000
,  // measure 30
1001
0000
0000
0001
0100
0000
0010
0000
1000
0000
0100
0000
0001
0000
0100
0000
,  // measure 31
1000
0000
0000
0010
0100
0000
0001
0000
0010
0000
1000
0000
0010
0000
0001
0000
,  // measure 32
1000
0000
0000
0110
0000
0000
0001
0000
0100
0000
1000
0000
0100
0000
0001
0000
,  // measure 33
0010
0001
0000
0010
0001
0000
1000
0000
0010
0100
0000
0010
0000
1000
0001
0000
,  // measure 34
1002
0000
0000
0100
0000
0000
2000
0000
3003
0000
0010
0100
0001
0000
1000
0000
,  // measure 35
2010
0000
0000
0001
0000
0000
0200
0000
3300
0000
0010
0001
0100
0000
0010
0000
,  // measure 36
1010
0000
0000
0001
0000
0000
0102
0000
0000
0000
1003
0000
0010
0000
0100
0000
,  // measure 37
0001
0100
0000
0001
0100
0000
0001
0000
1000
0100
0000
0010
0000
0100
1000
0000
,  // measure 38
0001
0000
0010
0001
1000
0000
0002
0000
0000
0000
0103
0000
0010
0000
1000
0000
,  // measure 39
0100
0000
0010
0001
0010
0000
0002
0000
0000
0000
1003
0000
0001
0000
0100
0000
,  // measure 40
0001
0000
0000
1000
0100
0000
1000
0000
0001
0000
0010
0000
0100
0000
0010
0000
,  // measure 41
0002
2000
0000
0000
0000
0000
3003
0000
,  // measure 42
1000
0010
0001
0010
1000
0100
0001
0100
,  // measure 43
1000
0010
0001
0010
1000
0100
0001
0100
,  // measure 44
1000
0010
0001
1000
0100
0001
0010
0100
,  // measure 45
0001
0100
0010
0001
2002
0000
3003
0000
,  // measure 46
0010
0000
0010
0000
0010
0000
0100
0000
0000
0001
0000
1000
0001
0000
0010
0000
,  // measure 47
0100
0000
0100
0000
0100
0000
0010
0000
0000
0001
0000
1000
0001
0000
1000
0000
,  // measure 48
0001
0100
0010
0100
0001
0000
1000
0000
0001
1000
0000
0001
1000
0000
0010
0000
,  // measure 49
1000
0100
0000
0010
0001
0000
0100
0000
0001
0100
0000
0010
1000
0000
1001
0000
;

//---------------dance-single - ----------------
#NOTES:
     dance-single:
     :
     Medium:
     6:
     0.467,0.443,0.282,0.433,0.121: // measure 1
2001
0000
3010
0000
1000
0010
1000
0001
,  // measure 2
0200
0000
0310
0000
0100
0010
1000
0001
,  // measure 3
0010
0000
0001
0000
1000
0100
1000
0000
,  // measure 4
0002
0000
1003
2000
0000
0001
3001
0000
,  // measure 5
1001
0000
0000
2002
0000
0000
3003
0000
1000
0000
0001
0000
0100
0000
0010
0000
,  // measure 6
0100
0000
0000
0200
0000
0000
0300
0000
0010
0000
1000
0000
0001
0000
0010
0000
,  // measure 7
0100
0000
0000
0100
0000
0000
0100
0000
0010
0000
0000
0000
0001
0000
1000
0000
,  // measure 8
0002
0000
0103
0200
0000
0310
0110
0000
,  // measure 9
1001
0000
1100
0000
0001
0100
0010
1000
,  // measure 10
0100
0000
0010
0000
0100
0010
0001
0100
,  // measure 11
0010
0000
1000
1000
0001
0000
0100
0001
,  // measure 12
1000
0000
0000
1002
0000
0000
0000
0000
0010
0000
0000
0000
1003
0000
0000
0000
,  // measure 13
0001
0001
0001
0000
1000
0100
1000
0001
,  // measure 14
1000
0000
0001
0100
0020
0000
1030
0100
,  // measure 15
0010
0000
0100
0000
0010
0001
1000
0001
,  // measure 16
2000
0010
0002
3003
,  // measure 17
0001
0000
0000
1000
0000
0000
1002
0000
0000
0000
0103
0000
0001
0000
0000
0000
,  // measure 18
1000
0000
0000
0001
0000
0000
2001
0000
0000
0000
3100
0000
1000
0000
0000
0000
,  // measure 19
0010
0000
0000
0001
0000
0000
0100
0000
0010
0000
0000
1000
0000
0000
0001
0000
,  // measure 20
0010
0000
0001
0000
1000
0001
1001
0000
,  // measure 21
0001
0000
0000
0100
0000
0000
2020
0000
0000
3030
0000
0000
1000
0000
0001
0000
,  // measure 22
0010
0000
0000
0001
0000
0000
2200
0000
0000
0000
3300
0000
1000
0000
0001
0000
,  // measure 23
0100
0000
0000
0100
0000
0000
0010
0000
1000
0000
0000
1000
0000
0000
0001
0000
,  // measure 24
0020
0032
0203
0302
,  // measure 25
2000
0000
0000
3003
,  // measure 26
1001
0000
0000
0100
0000
0000
2001
0000
0000
0000
0000
0000
3001
0000
0000
0000
,  // measure 27
0110
0000
0000
1000
0000
0000
0120
0000
0000
0000
0000
0000
1030
0000
0000
0000
,  // measure 28
0001
0000
0100
0000
0010
1000
0010
1000
,  // measure 29
0001
0000
0010
0000
0100
0010
0001
0000
,  // measure 30
0101
0000
0000
0010
0000
0000
1002
0000
0000
0000
0100
0000
0103
0000
0000
0000
,  // measure 31
1010
0000
0000
0001
0000
0000
0021
0000
0000
0000
0100
0000
0130
0000
0000
0000
,  // measure 32
1000
0000
0001
0000
1000
0010
0100
0001
,  // measure 33
0010
0000
0100
0000
0010
0001
1000
0000
,  // measure 34
0110
0000
0000
0010
0000
0000
2000
0000
0000
0000
0100
0000
3100
0000
0000
0000
,  // measure 35
0011
0000
0000
0001
0000
0000
0200
0000
0000
0000
0010
0000
0310
0000
0100
0000
,  // measure 36
0001
0000
1000
0000
0100
0010
0001
1000
,  // measure 37
0001
0000
0100
0000
1000
0100
0001
0000
,  // measure 38
1000
0000
0000
0100
0000
0000
2100
0000
0000
0000
0010
0000
3010
0000
1000
0000
,  // measure 39
0001
0000
0000
0010
0000
0000
0021
0000
0000
0000
0100
0000
0130
0000
0010
0000
,  // measure 40
0001
0000
0000
1000
0000
0000
0020
0000
0000
0000
0130
0000
0010
0000
1000
0000
,  // measure 41
0001
1000
0220
0330
,  // measure 42
0002
0010
0000
1000
0000
0100
0000
2003
,  // measure 43
0000
0010
0000
0001
0000
0010
0000
3200
,  // measure 44
0000
0001
0000
0010
0000
1000
0000
0320
,  // measure 45
0000
1000
0000
0001
0000
0100
0000
0031
,  // measure 46
1000
0000
0001
0200
0010
0000
0301
0000
,  // measure 47
0001
0000
1000
0200
0010
0300
1001
0000
,  // measure 48
1000
0000
0001
0000
1000
0000
0001
0000
0000
0100
0000
0000
0001
0000
2000
0000
,  // measure 49
0000
3100
0000
0000
0010
0000
0002
0000
0000
0103
0000
0000
1001
0000
1001
0000
;

//---------------dance-single - ----------------
#NOTES:
     dance-single:
     :
     Easy:
     3:
     0.285,0.270,0.221,0.121,0.000: // measure 1
1001
0000
0001
1000
,  // measure 2
0110
0000
0010
1000
,  // measure 3
1001
0000
0001
0010
,  // measure 4
0001
1000
0100
1000
,  // measure 5
1001
0000
0001
0100
,  // measure 6
0110
0000
1000
0001
,  // measure 7
0110
0000
0010
0001
,  // measure 8
1000
0100
0010
0001
,  // measure 9
1001
0000
0001
0100
,  // measure 10
0020
0000
0130
0010
,  // measure 11
2000
0000
3001
1000
,  // measure 12
0001
0010
0100
0010
,  // measure 13
0001
0001
1000
0001
,  // measure 14
0200
0000
0310
1000
,  // measure 15
0002
0000
1003
0100
,  // measure 16
2000
0001
0002
3003
,  // measure 17
1001
0000
0110
0000
,  // measure 18
1001
0000
0110
0000
,  // measure 19
1000
0100
0010
0001
,  // measure 20
2000
0100
0002
3003
,  // measure 21
1001
0000
0110
0000
,  // measure 22
1001
0000
0110
0000
,  // measure 23
0010
1000
0001
0010
,  // measure 24
0100
0100
0010
0010
,  // measure 25
2002
0000
0000
3003
,  // measure 26
1001
0000
0001
0100
,  // measure 27
0010
0000
0010
0100
,  // measure 28
0001
1000
0100
0010
,  // measure 29
0001
1000
0001
0100
,  // measure 30
0010
0000
0100
0001
,  // measure 31
0010
0000
0100
1000
,  // measure 32
0010
1000
0001
0010
,  // measure 33
0100
0001
0100
1000
,  // measure 34
1001
0000
0001
0100
,  // measure 35
0001
0000
1000
0100
,  // measure 36
1000
0010
0001
0010
,  // measure 37
0100
0001
0010
0100
,  // measure 38
0010
0010
0010
0000
,  // measure 39
0100
0100
0100
0000
,  // measure 40
0010
0001
1000
0010
,  // measure 41
0100
0010
0220
0330
,  // measure 42
1000
0100
1000
0100
,  // measure 43
0001
0100
0001
0100
,  // measure 44
1000
0010
0001
0010
,  // measure 45
1000
0100
0001
0100
,  // measure 46
1001
0001
0001
0001
,  // measure 47
1000
1000
1000
0110
,  // measure 48
1001
0001
0100
0010
,  // measure 49
1000
0000
0100
0000
0010
0000
0001
0001
;

//---------------dance-single - ----------------
#NOTES:
     dance-single:
     :
     Beginner:
     1:
     0.149,0.172,0.181,0.000,0.000:
1001
0000
0000
0000
,
0001
0000
0000
0100
,
0100
0000
0000
0000
,
0010
0000
1000
1000
,
1000
0000
0000
0000
,
0001
0000
0000
0010
,
0010
0000
0000
0000
,
0100
0000
0010
0000
,
1001
0000
0000
0000
,
0110
0000
0000
0000
,
1001
0000
1000
1000
,
1000
0000
0000
0000
,
1001
0000
0000
0000
,
0110
0000
0000
0000
,
1001
0000
0001
0001
,
0001
0000
0000
0000
,
1000
0000
0100
0000
,
0010
0000
0001
0000
,
0100
0000
0010
0000
,
1001
0000
0000
0000
,
0001
0000
1000
0000
,
0001
0000
0010
0000
,
0100
0000
0010
0000
,
1001
0000
0000
0000
,
0110
0000
0000
0000
,
1001
0000
0000
0000
,
1001
0000
0001
0000
,
0100
0000
0001
0000
,
1000
0000
0000
0000
,
0110
0000
0000
0000
,
0110
0000
0100
0000
,
0001
0000
1000
0000
,
0001
0000
0000
0000
,
1001
0000
0000
0000
,
0110
0000
0000
0000
,
0001
0000
0010
0000
,
0100
0000
0010
0000
,
0110
0000
0000
0000
,
1001
0000
1000
0000
,
0001
0000
1000
0000
,
0010
0000
0100
0000
,
0001
0000
1000
0000
,
0100
0000
0010
0000
,
0100
0000
0001
0000
,
0100
0000
1000
0000
,
0100
0100
0100
0100
,
0100
0100
0100
0100
,
0100
0000
0010
0000
,
0001
0000
1000
1000
;
