#TITLE:Move That Body;
#SUBTITLE:;
#ARTIST:Expander;
#TITLETRANSLIT:;
#SUBTITLETRANSLIT:;
#ARTISTTRANSLIT:;
#CREDIT:;
#BANNER:;
#BACKGROUND:;
#LYRICSPATH:;
#CDTITLE:;
#MUSIC:Move That Body.mp3;
#OFFSET:-0.020;
#SAMPLESTART:83.280;
#SAMPLELENGTH:14.690;
#SELECTABLE:YES;
#BPMS:0.000=98.000,48.000=196.000;
#STOPS:;
#BGCHANGES:;

//---------------dance-single - ----------------
#NOTES:
     dance-single:
     :
     Hard:
     9:
     0.768,0.998,0.610,0.377,0.278:
0000
0000
0000
0000
,
0000
0000
0000
0000
,
1000
0000
0001
0100
0001
1000
0100
0000
0010
0000
0100
0000
1001
0000
0110
0000
,
0101
0000
0110
0000
1000
0001
0100
0000
0110
0000
1001
0000
0022
0000
0033
0000
,
0100
0000
0010
1000
0100
0010
0100
0000
0010
0100
1000
0001
0000
1000
0002
0000
,
0100
0000
0000
0000
1003
0000
0000
0000
0001
0100
1000
0200
0000
0310
0000
0100
,
0010
0000
1000
0001
0010
0100
0010
0000
0001
0100
0010
1000
0000
0001
0200
0000
,
0310
0000
0000
1000
0001
1000
0001
0000
1000
0100
0010
0002
0000
0103
0000
0001
,
1000
0100
1000
0010
0100
0001
0010
0000
0001
0100
0001
0200
0000
0010
0310
0000
,
1001
0000
0100
0000
2002
0000
3003
0000
1000
0100
0010
0200
0000
1300
0000
0100
,
0010
0100
0010
0001
1000
0010
0100
0000
0010
0100
0001
0101
0000
0000
2002
0000
,
3003
0000
0000
0001
1000
0100
0001
0000
0001
0100
1000
2000
0000
3010
0000
1000
,
0001
0000
0000
2002
0000
0000
3003
0000
,
0101
0000
0000
2002
0000
0000
3003
0000
,
1010
0000
0101
0000
0001
0100
1000
0100
,
0001
0000
0000
1000
0000
0000
0100
0000
0000
0010
0000
0000
0001
0000
0100
0000
0001
0000
0100
0000
0001
0000
0100
0000
,
0010
0000
0000
2002
0000
0000
3003
0000
,
0011
0000
0000
2200
0000
0000
3300
0000
,
1000
0100
0001
0100
2000
0000
3001
1000
,
1100
0011
0101
1001
,
0001
0000
0100
0020
0000
0000
1030
0000
,
1000
0100
0010
0200
0000
0000
0310
0000
,
0100
0001
0100
1000
0010
0100
0001
0000
,
1000
0000
0000
0010
0000
0000
1000
0000
0000
0010
0000
0000
1000
0000
0001
0000
1000
0000
0001
0000
1000
0000
0001
0000
,
1000
0000
0001
0200
0000
0000
1300
0000
,
0100
0001
0010
0200
0000
0000
0310
0000
,
0100
0010
0001
1000
0010
0100
0001
0001
,
0101
1001
2200
3300
,
1000
0100
0010
0000
0100
1000
0001
0200
,
0000
0010
0310
0100
1000
0100
0001
0000
,
1000
0100
0100
1000
0010
0100
0001
0020
,
0000
0130
0001
0100
1000
0010
0100
0000
,
0010
0000
1001
0000
1000
0100
0010
0200
,
0000
0301
0100
1000
0010
0100
0001
2000
,
0000
0010
3010
1000
0100
0001
1000
0010
,
0001
0001
1000
0010
0100
0100
0001
0000
,
1010
0000
0101
0000
0010
1000
0001
2001
,
0000
0100
3100
1000
0100
0010
0001
0000
,
0100
0010
0010
0100
0001
0010
0100
0020
,
0000
0031
0100
1000
0001
0010
1000
0000
,
0011
0000
1100
0000
0010
1000
0100
0100
,
0010
0100
0001
0100
1000
0010
0100
0002
,
0000
1003
0100
1000
0010
0100
1000
0100
,
0010
0100
0001
1000
0100
0010
0011
0000
,
1001
0000
0100
0000
0010
0000
1000
0000
0100
0010
0000
0010
,
0001
0001
1000
0010
0110
0000
1001
0000
,
1010
0000
0000
0000
0001
0100
0001
0000
0100
0000
0000
0000
1001
0000
0000
0000
,
1100
0010
1001
0110
,
1001
0000
0001
0000
0100
0000
0001
0000
0001
0100
0000
0100
,
0010
1000
0001
0010
1100
0000
1001
0000
,
0101
0000
0000
0000
0010
1000
0010
0000
1010
0000
0000
0000
0101
0000
0000
0000
,
0001
0100
1000
0100
0010
0000
1001
0000
,
0010
0001
1001
0200
,
0300
0010
0000
0001
0101
0000
0020
0000
,
1030
0001
0110
1001
,
0010
0001
2100
3001
,
0100
0000
1001
0000
0010
0100
0001
0100
,
0001
0010
0100
0010
0001
1000
0100
0000
,
1000
0010
0010
0001
0010
0010
1000
0000
,
0001
0010
0100
0001
1000
0010
0001
0100
,
0010
0000
1001
0000
0010
0100
0001
1000
,
0100
0000
1100
0000
1000
0010
0100
0000
,
0010
0100
0001
1000
0010
1000
0100
0010
,
0001
0100
0010
0000
0110
0000
1001
0000
,
0010
0000
1001
0000
1000
0100
1000
0001
,
0100
1000
0100
0010
1000
0001
0010
0000
,
0001
0100
0100
1000
0100
0100
0001
0000
,
1000
0100
1000
0001
0100
1000
0100
0010
,
1000
0000
0010
0100
0001
0010
0100
0000
,
0010
0001
1000
0100
0010
0001
1000
0000
,
0001
0100
0001
1000
0100
0001
1000
0010
,
0100
0010
0001
0000
1100
0000
0202
0000
,
0303
0010
0010
0010
0000
0100
0110
0000
,
1001
0000
1000
0100
0010
0100
1000
0001
,
0100
0000
0010
0000
0100
0010
1000
0000
,
0101
0000
1010
0000
0001
0010
0100
0000
,
0011
1100
2002
3003
;

//---------------dance-single - ----------------
#NOTES:
     dance-single:
     :
     Medium:
     7:
     0.575,0.585,0.502,0.296,0.018:
0000
0000
0000
0000
,
0000
0000
0000
0000
,
1000
0100
1000
0000
0001
0100
0001
0000
,
1000
0100
0010
0001
0100
0010
0220
0330
,
0010
0000
1000
0000
0001
0000
0000
0000
1000
0000
0000
0100
0000
0000
0120
0000
,
0000
0000
0130
0000
0010
0001
1000
0001
,
0100
0000
0000
0000
0110
0000
0000
0000
0010
0000
0000
1000
0000
0000
1002
0000
,
0000
0000
0103
0000
0001
1000
0001
1000
,
0100
0000
0000
0000
1001
0000
0000
0000
0010
0000
0000
0100
0000
0000
1002
0000
,
0000
0000
0103
0000
0001
0010
0100
0010
,
0001
0000
0000
0000
1100
0000
0000
0000
1000
0000
0000
0110
0000
0000
2001
0000
,
0000
0000
3100
0000
1000
0100
0010
0001
,
0100
0000
0000
0200
0000
0000
0300
0000
,
0010
0000
0000
0020
0000
0000
0030
0000
,
1000
0000
0001
0000
0100
0010
0100
0000
,
0001
1000
0220
0330
,
0001
0000
0000
2002
0000
0000
3003
0000
,
1000
0000
0000
2002
0000
0000
3003
0000
,
1000
0001
1000
0001
0200
0000
0300
0000
,
0110
0110
1001
1001
,
1000
0000
0100
2000
0000
0000
3001
0000
,
0100
0000
0001
0200
0000
0000
0301
0000
,
0100
0001
0100
0000
0010
0000
1000
0000
,
0001
0010
0001
0000
2200
0000
3300
0000
,
0001
0000
0100
0020
0100
0000
1030
0000
,
0100
0000
0010
0200
0010
0000
0310
0000
,
0100
0010
0001
1000
0001
0000
0100
0000
,
0110
1001
2002
3003
,
1000
0000
0100
0000
1000
0100
1000
0100
,
0000
0010
0100
1000
0001
0000
0100
0000
,
0010
0000
0100
0000
0001
0100
0000
0001
,
0000
0100
0001
0000
1000
0100
1000
0000
,
0001
0000
0010
0000
0100
0010
0100
0010
,
0000
0001
1000
0001
0100
0000
0010
0000
,
1000
0000
0001
0000
0100
0010
0000
0100
,
0000
0010
0100
0010
1000
0000
0101
0000
,
1001
0000
1100
0000
0001
0000
0100
0010
,
0000
0100
0010
0000
1000
0001
0020
0000
,
0000
0100
0130
0000
0010
0001
0000
0001
,
1000
0000
0001
0100
0001
0100
0010
0000
,
0100
0000
0010
0000
1000
0001
0000
1001
,
0000
1000
0100
0000
1000
0001
1000
0000
,
0001
0000
0100
0000
0010
1000
0000
1000
,
0100
0000
0110
0000
0001
1000
0001
0000
,
1000
0100
0011
0100
,
1000
0010
0110
1001
,
0001
0000
1000
1000
1000
0000
1100
0000
,
0002
0103
0110
1001
,
0001
0100
1010
0100
,
0001
0010
1100
1001
,
0101
0000
0010
0010
0010
0000
0100
0000
,
0002
1003
1001
0110
,
1000
0001
1001
0200
,
0300
0010
0000
0100
0010
0000
2000
0000
,
3100
1000
1001
0001
,
0100
0100
0120
0130
,
0001
0000
0101
0000
0010
1000
0010
0000
,
1000
0100
0010
0000
0100
1000
0001
0100
,
0010
0000
0110
0000
0100
0001
1000
0000
,
0001
0100
0010
0100
0010
0100
0001
1000
,
0001
0000
1000
0000
0100
0010
0100
0000
,
0010
0001
0010
0000
0011
0000
1100
0000
,
1000
0000
0001
0000
0100
0010
1000
0000
,
0001
1000
0001
1000
0100
0010
0001
0000
,
1000
0000
1100
0000
0001
0010
0001
0000
,
1000
0010
1000
0010
0100
0001
0100
0000
,
0001
1000
1100
0010
,
0100
0010
0100
0010
0001
1000
0001
1000
,
0010
0000
1000
0000
0010
1000
0001
0000
,
0001
0100
0010
0000
0100
0010
1000
0000
,
0001
0000
1000
0100
1000
0100
1000
0000
,
0001
1000
0001
0000
0110
0000
2002
0000
,
3003
0000
0000
0000
,
1001
0000
0110
0000
0010
0100
0010
0100
,
0001
0000
0101
0000
0001
1000
0001
0000
,
1100
0000
0011
0000
1000
0010
0100
0000
,
1001
0110
2002
3003
;

//---------------dance-single - ----------------
#NOTES:
     dance-single:
     :
     Easy:
     6:
     0.451,0.482,0.359,0.368,0.004:
0000
0000
0000
0000
,
0000
0000
0000
0000
,
1000
0001
0010
0001
,
1000
0000
0010
0000
0100
0100
0100
0000
,
2002
3003
1000
0100
,
0001
0100
1000
0001
,
2002
3003
1000
0010
,
0200
0310
0100
0001
,
1001
1000
0100
0010
,
0200
1300
0001
1000
,
2002
0000
0000
0000
3003
0000
0000
0000
0001
0000
0000
1000
0000
0000
2002
0000
,
3003
0010
1000
0001
,
2000
0000
0000
3100
0000
0000
0000
0000
,
0002
0000
0000
0103
0000
0000
0000
0000
,
1000
0100
0010
0100
,
0010
0001
1000
0001
,
0200
0000
0000
0310
0000
0000
0000
0000
,
0020
0000
0000
0130
0000
0000
0000
0000
,
0100
0010
1000
0001
,
1001
1001
0220
0330
,
2000
0000
0000
3100
0000
0000
1000
0000
,
0002
0000
0000
0103
0000
0000
0001
0000
,
0001
0100
0001
1000
,
0100
0010
0001
0010
,
0200
0000
0000
0310
0000
0000
0001
0000
,
0002
0000
0000
1003
0000
0000
0010
0000
,
1000
0010
0100
0010
,
0110
1001
0220
0330
,
0010
0000
1000
0000
0001
0000
0000
1001
,
0000
1000
0100
0010
,
0100
0000
0010
0000
0001
0000
0000
1001
,
0000
1000
0100
0010
,
0001
0000
0100
0000
0010
0000
0000
0110
,
0000
0100
0010
1000
,
0001
0000
0010
0000
0001
0000
0000
1001
,
0000
0000
0001
0000
1000
0001
1000
0000
,
0100
0000
0010
0000
0001
0000
0000
1001
,
0000
0100
0010
1000
,
0001
0000
0100
0000
0010
0000
0000
1010
,
0000
0000
0100
0000
0001
1000
0001
0000
,
0100
0000
0010
0000
0001
0000
0000
1100
,
0000
1000
0010
0100
,
0001
0000
1000
0000
0001
1000
0001
0000
,
0010
0001
1001
1001
,
2001
0000
3200
0000
,
0320
0100
0032
0010
,
1003
0010
1000
1000
,
0001
0100
2002
3003
,
0002
0000
0203
0000
,
0320
0100
2030
0010
,
3001
0010
0001
0001
,
1000
0100
0220
0330
,
1000
0100
1000
0002
,
0000
0103
0000
0100
0001
0000
1000
0000
,
0010
1000
0001
1000
,
0100
0100
2002
3003
,
0001
0100
0010
0100
,
0001
0000
0001
0000
1000
0100
1000
0000
,
0100
0010
0001
1000
,
0001
0100
1001
0110
,
1001
1000
0100
0010
,
0001
0000
1000
0000
0100
0010
0100
0000
,
1000
0010
0100
0001
,
1001
1001
0110
0110
,
1001
0010
0001
1000
,
0100
0000
1000
0000
0001
0100
0010
0000
,
1000
0100
0001
0010
,
1000
0010
0001
1000
,
0100
0010
0100
0010
,
0001
0000
1000
0000
0010
0000
0100
0001
,
1000
0010
1000
0100
,
1001
0110
0110
2002
,
3003
0000
0000
0000
,
1000
0000
1001
0000
,
0001
1000
0001
0100
,
0010
0000
0010
0000
0100
0001
0100
0000
,
0110
1001
0220
0330
;

//---------------dance-single - ----------------
#NOTES:
     dance-single:
     :
     Beginner:
     2:
     0.197,0.240,0.135,0.000,0.000: // measure 1
0000
0000
0000
0000
,  // measure 2
0000
0000
0000
0000
,  // measure 3
1000
0000
0001
0000
,  // measure 4
0100
0000
0010
0010
,  // measure 5
0010
0000
1000
0000
,  // measure 6
0001
0000
0000
0000
,  // measure 7
1000
0000
0001
0000
,  // measure 8
0010
0000
0100
0100
,  // measure 9
0100
0000
0010
0000
,  // measure 10
0001
0000
0000
0000
,  // measure 11
1000
0000
0001
0000
,  // measure 12
0100
0000
0010
0010
,  // measure 13
0110
0000
0000
0000
,  // measure 14
1001
0000
0000
0000
,  // measure 15
1000
0000
0100
0000
,  // measure 16
0010
0000
0001
0000
,  // measure 17
1001
0000
0000
0000
,  // measure 18
0110
0000
0000
0000
,  // measure 19
0100
0000
0010
0000
,  // measure 20
0100
0000
0010
0010
,  // measure 21
0010
0000
0000
0000
,  // measure 22
1000
0000
0000
0000
,  // measure 23
0001
0000
0010
0000
,  // measure 24
0001
0000
1000
0000
,  // measure 25
1001
0000
0000
0000
,  // measure 26
0110
0000
0000
0000
,  // measure 27
0010
0000
1000
0000
,  // measure 28
0001
0001
0001
0000
,  // measure 29
1000
0000
0100
0000
,  // measure 30
1000
0000
0001
0000
,  // measure 31
0100
0000
0010
0000
,  // measure 32
0110
0000
0000
0000
,  // measure 33
0100
0000
0001
0000
,  // measure 34
1000
0000
0100
0000
,  // measure 35
0010
0000
0001
0000
,  // measure 36
1001
0000
0000
0000
,  // measure 37
1000
0000
0001
0000
,  // measure 38
0100
0000
1000
0000
,  // measure 39
0100
0000
0001
0000
,  // measure 40
1000
0000
0001
0000
,  // measure 41
0010
0000
1000
0000
,  // measure 42
0010
0000
0001
0000
,  // measure 43
1000
0000
0001
0000
,  // measure 44
0100
0000
0010
0000
,  // measure 45
1001
0000
0100
0000
,  // measure 46
1001
0000
0010
0000
,  // measure 47
0001
0000
0100
0000
,  // measure 48
0010
0000
1000
0000
,  // measure 49
0110
0000
0001
0000
,  // measure 50
0110
0000
1000
0000
,  // measure 51
0001
0000
0100
0000
,  // measure 52
0010
0000
1000
0000
,  // measure 53
1001
0000
0000
0000
,  // measure 54
0000
0000
0000
0000
,  // measure 55
0110
0000
0000
0000
,  // measure 56
1001
0000
0000
0000
,  // measure 57
1000
0000
0100
0000
,  // measure 58
1000
0000
0100
0000
,  // measure 59
0010
0000
0001
0000
,  // measure 60
1000
0000
1000
0000
,  // measure 61
1000
0000
0010
0000
,  // measure 62
0100
0000
0001
0000
,  // measure 63
0100
0000
0010
0000
,  // measure 64
0100
0000
0100
0100
,  // measure 65
0100
0000
0010
0000
,  // measure 66
1000
0000
0001
0000
,  // measure 67
0010
0000
0001
0000
,  // measure 68
1000
0000
0100
0000
,  // measure 69
0010
0000
0100
0000
,  // measure 70
1000
0000
0001
0000
,  // measure 71
0100
0000
0010
0000
,  // measure 72
0100
0000
0001
0001
,  // measure 73
0000
0000
0000
0000
,  // measure 74
1000
0000
0100
0000
,  // measure 75
1000
0000
0001
0000
,  // measure 76
0100
0000
0010
0000
,  // measure 77
0100
0100
0100
0000
;
