#TITLE:Mind Mapping;
#SUBTITLE:;
#ARTIST:Ryu☆;
#TITLETRANSLIT:;
#SUBTITLETRANSLIT:;
#ARTISTTRANSLIT:;
#CREDIT:;
#BANNER:;
#BACKGROUND:;
#LYRICSPATH:;
#CDTITLE:;
#MUSIC:Mind Mapping.mp3;
#OFFSET:-0.020;
#SAMPLESTART:78.770;
#SAMPLELENGTH:15.000;
#SELECTABLE:YES;
#BPMS:0.000=128.000;
#STOPS:;
#BGCHANGES:;

//---------------dance-single - ----------------
#NOTES:
     dance-single:
     :
     Hard:
     7:
     0.505,0.515,0.187,0.453,0.062:
0000
0000
0000
0000
,
0000
0000
0000
0000
,
0000
0000
0000
0000
,
0000
0000
0000
0000
,
0002
0000
0013
0001
2000
0000
3010
1000
,
0002
0000
0013
0100
0020
0000
0130
0000
,
0020
0000
0031
1000
0020
0000
0130
0010
,
1000
0010
0100
0001
1000
0100
0010
0002
,
1000
1000
1003
1001
,
0010
0100
0001
0010
0100
0000
0010
0001
,
1000
0100
0010
0100
1000
0000
0101
0000
,
1000
0010
0100
0001
0010
0000
0001
0010
,
0100
0000
0010
0001
2000
0000
3010
0000
,
1000
0100
1000
0001
0020
0000
0130
0010
,
0001
0100
0010
1000
0002
0000
0103
0000
,
0010
0100
0001
0010
0200
0000
0310
0001
,
2000
0000
0001
0100
3001
0000
1001
0000
,
0010
0100
0001
2000
0000
3001
0100
1000
,
0001
0010
1000
0010
0100
0002
0000
1003
,
0001
1000
0100
0020
0000
0130
1000
0001
,
0200
0000
0310
1000
0001
0000
0011
0000
,
1000
0100
0010
0200
0000
0310
0001
0100
,
1000
0001
0010
0100
0001
2000
0000
3001
,
0010
0100
0010
0002
0000
0010
0000
1000
,
0000
0100
0000
2000
0000
3003
1001
0000
,
0001
0000
0100
0000
0001
0000
0000
1001
0000
0000
1000
0000
0100
0000
0000
0000
,
1000
0000
0010
0000
1000
0000
0001
1000
0000
0000
0001
0000
0010
0000
0100
0000
,
0010
0000
0001
0000
1000
0000
0000
0110
0000
0000
0001
0000
1000
0000
0001
0000
,
0010
0000
0001
0000
0100
0000
0001
1000
0000
0000
0010
0000
0100
0000
0000
0000
,
1001
0000
0001
0000
0010
0000
0001
2000
0000
0000
3010
0000
0000
1000
0000
0000
,
0001
0000
0100
0000
0010
0000
0100
0002
0000
0000
0013
0000
0000
0001
0000
0000
,
2200
0000
0000
0000
3300
0000
0000
0000
0011
0000
0000
1001
0000
0000
0101
0000
,
0202
0000
0303
0101
,
2001
0000
0100
0000
,
3001
0100
0001
1000
0100
0000
1001
0000
,
0002
0000
0010
0000
,
1003
0000
0010
0100
0020
0000
0030
0000
,
1000
0100
1000
0100
2000
0000
3001
0100
,
0010
0100
0001
0010
0200
0000
0320
0000
,
0031
1000
0100
0010
0002
0000
1003
0001
,
0200
0000
0000
0000
,
0301
0000
0000
0100
0000
0000
0010
0000
0000
0100
0000
0000
2002
0000
3003
0000
,
1000
0010
0100
0001
0020
0000
0130
0010
,
0001
1000
0100
0001
0100
0000
1001
0000
,
1000
0010
0100
1000
0200
0000
0310
0100
,
0002
0000
0013
0001
2000
0000
3001
0000
,
0100
0001
0010
0100
0020
0001
0031
0100
,
0001
1000
0010
0100
0002
1000
1003
0000
,
1000
0010
0100
0001
2000
0100
3100
1000
,
0010
0000
0100
0010
0100
0000
1001
0000
,
1000
0100
0010
0002
0000
0013
0001
0200
,
0000
0310
0100
0002
0000
2003
0000
3100
,
1000
0010
0100
0002
0000
0013
0001
1000
,
0100
0000
0000
0110
0000
0000
0010
0000
0001
0000
1000
0000
0000
0001
1000
0001
,
1000
0001
0100
0020
0000
0130
0010
2000
,
0000
3010
0100
0001
0010
0100
0010
0001
,
1000
0100
0010
0200
0000
1300
0010
0100
,
0001
1000
0100
1000
0001
0100
0001
1000
,
1001
0000
0000
0000
;

//---------------dance-single - ----------------
#NOTES:
     dance-single:
     :
     Medium:
     5:
     0.354,0.412,0.062,0.373,0.013: // measure 1
0000
0000
0000
0000
,  // measure 2
0000
0000
0000
0000
,  // measure 3
0000
0000
0000
0000
,  // measure 4
0000
0000
0000
0000
,  // measure 5
1000
0001
0100
0001
,  // measure 6
1000
0100
0010
0010
,  // measure 7
0100
0010
0001
2000
,  // measure 8
0002
0000
0000
3003
,  // measure 9
1000
0001
1000
1001
,  // measure 10
0001
0000
0100
0001
0100
0000
0010
0000
,  // measure 11
1000
0000
0100
0010
0100
0000
0010
0000
,  // measure 12
0100
0000
0010
0001
1000
0000
0001
0000
,  // measure 13
2000
0000
0000
0100
0200
0000
3300
0000
,  // measure 14
1000
0000
0100
1000
0001
0000
0100
0000
,  // measure 15
0001
0000
0100
0001
0010
0000
0100
0000
,  // measure 16
0010
0000
0001
1000
0001
0000
0100
0010
,  // measure 17
0200
0010
0020
0330
,  // measure 18
1000
0001
1000
0002
0000
0203
0000
0302
,  // measure 19
0000
2003
0000
3200
0000
2300
0000
3001
,  // measure 20
0000
0100
0010
0100
0000
0010
0000
2000
,  // measure 21
0000
0001
0010
3001
,  // measure 22
1000
0100
1000
0002
0000
0023
0000
0032
,  // measure 23
0000
2003
0000
3200
0000
0310
0000
0100
,  // measure 24
0010
0000
0001
2000
0000
0010
0000
0001
,  // measure 25
0000
0100
0000
0002
0000
0000
3003
0000
,  // measure 26
1001
0100
0001
0010
,  // measure 27
0100
0010
0001
0001
,  // measure 28
1000
0001
0100
0010
,  // measure 29
1000
0100
1000
0001
,  // measure 30
0110
1000
0100
0010
,  // measure 31
0001
0100
0010
1000
,  // measure 32
1001
0000
0000
0000
0100
0000
0000
0000
0010
0000
0000
0010
0000
0000
0010
0000
,  // measure 33
0020
0000
0000
0130
,  // measure 34
1002
0000
0100
0000
,  // measure 35
1003
0100
1000
0100
1000
0000
0001
0000
,  // measure 36
0200
0000
0010
0000
,  // measure 37
0301
0000
0000
0002
2000
0000
3003
0000
,  // measure 38
1001
0100
0001
1000
,  // measure 39
0100
0000
1000
0001
0100
0000
0010
0000
,  // measure 40
0100
0000
0010
1000
0010
0000
0100
0001
,  // measure 41
0200
0000
0000
0000
,  // measure 42
0310
0000
0000
0100
0000
0000
0010
0000
0000
0100
0000
0000
0010
0000
0000
0000
,  // measure 43
1000
0000
0001
0010
0100
0000
0010
0000
,  // measure 44
0001
0000
1000
0010
0100
0000
0010
0000
,  // measure 45
1000
0000
0001
0100
0001
0000
1000
0100
,  // measure 46
2000
0000
0000
0001
0002
0000
3003
0000
,  // measure 47
1000
0000
0001
0100
0001
0000
1000
0000
,  // measure 48
0010
0000
0100
0010
1000
0000
0001
0000
,  // measure 49
0010
0000
0001
0010
0001
0000
1000
0001
,  // measure 50
0200
0010
0020
0330
,  // measure 51
1000
0100
1000
0200
0000
0320
0000
0230
,  // measure 52
0000
0320
0000
0032
0000
0203
0000
0301
,  // measure 53
0000
0001
0100
0001
0000
1000
0000
0100
,  // measure 54
2000
0000
0000
0000
0001
0002
3003
0000
,  // measure 55
1000
0000
0100
0010
0000
0100
0010
0200
,  // measure 56
0000
0320
0000
0032
0000
1003
0000
0001
,  // measure 57
0100
0000
0010
1000
0000
0001
0000
1000
,  // measure 58
0100
1000
0000
0001
0200
0000
0300
0000
,  // measure 59
1001
0000
0000
0000
;

//---------------dance-single - ----------------
#NOTES:
     dance-single:
     :
     Easy:
     2:
     0.178,0.232,0.098,0.169,0.000: // measure 1
0000
0000
0000
0000
,  // measure 2
0000
0000
0000
0000
,  // measure 3
0000
0000
0000
0000
,  // measure 4
0000
0000
0000
0000
,  // measure 5
1000
0000
0010
0000
,  // measure 6
0100
0000
0010
0000
,  // measure 7
0100
0000
0001
0000
,  // measure 8
2002
0000
0000
3003
,  // measure 9
0100
0100
0200
0300
,  // measure 10
1001
0000
0100
0000
,  // measure 11
0001
0000
0100
0001
,  // measure 12
1000
0000
0001
0000
,  // measure 13
1000
0000
0100
0000
,  // measure 14
0010
0000
0100
0000
,  // measure 15
0010
0001
1000
0000
,  // measure 16
0001
0000
0100
0010
,  // measure 17
0200
0000
0300
0000
,  // measure 18
0010
0000
0100
0000
,  // measure 19
0001
0000
1000
0000
,  // measure 20
0100
0000
0010
0000
,  // measure 21
0220
0000
0330
0000
,  // measure 22
0010
0000
0001
0000
,  // measure 23
1000
0000
0001
0000
,  // measure 24
0100
0000
0010
0000
,  // measure 25
2002
0000
3003
0000
,  // measure 26
1001
0000
0001
0100
,  // measure 27
0001
0000
1000
0100
,  // measure 28
1000
0000
0001
0010
,  // measure 29
0001
0000
1000
0010
,  // measure 30
0100
0000
0010
0100
,  // measure 31
0001
0000
0010
0100
,  // measure 32
0010
0000
0100
0010
,  // measure 33
2002
0000
0000
3003
,  // measure 34
0220
0000
0000
0330
,  // measure 35
0010
0010
0100
0100
,  // measure 36
0010
0000
0000
0000
,  // measure 37
1000
0000
0001
0000
,  // measure 38
1000
0000
0100
0000
,  // measure 39
0010
0000
0001
0001
,  // measure 40
0001
0000
0100
0000
,  // measure 41
0020
0000
0000
0000
,  // measure 42
0030
0000
0000
0000
,  // measure 43
1001
0000
1000
0000
,  // measure 44
0100
0000
1000
0100
,  // measure 45
1000
0000
0001
0000
,  // measure 46
0100
0000
0100
0000
,  // measure 47
0010
0000
0100
0000
,  // measure 48
0001
0010
0001
0000
,  // measure 49
0100
0000
0001
0000
,  // measure 50
2002
0000
3003
0000
,  // measure 51
0220
0000
0000
0000
,  // measure 52
0330
0000
0000
0000
,  // measure 53
2002
0000
0000
0000
,  // measure 54
3003
0000
0000
0000
,  // measure 55
1000
0000
0100
0000
,  // measure 56
1000
0000
0001
0000
,  // measure 57
0100
0000
0010
0000
,  // measure 58
0100
0010
1000
0001
,  // measure 59
0010
0000
0000
0000
;

//---------------dance-single - ----------------
#NOTES:
     dance-single:
     :
     Beginner:
     1:
     0.138,0.180,0.053,0.000,0.000: // measure 1
0000
0000
0000
0000
,  // measure 2
0000
0000
0000
0000
,  // measure 3
0000
0000
0000
0000
,  // measure 4
0000
0000
0000
0000
,  // measure 5
1000
0000
1000
0000
,  // measure 6
0001
0000
0001
0000
,  // measure 7
0100
0000
0010
0000
,  // measure 8
0110
0000
0000
0000
,  // measure 9
0100
0100
0100
0000
,  // measure 10
1001
0000
1000
0000
,  // measure 11
0100
0000
1000
0000
,  // measure 12
0001
0000
0100
0000
,  // measure 13
0010
0000
0010
0000
,  // measure 14
0100
0000
0001
0000
,  // measure 15
1000
0000
0100
0000
,  // measure 16
0010
0000
0100
0000
,  // measure 17
1000
0000
0000
0000
,  // measure 18
1000
0000
0100
0000
,  // measure 19
1000
0000
0001
0000
,  // measure 20
0100
0000
0010
0000
,  // measure 21
0100
0000
0000
0000
,  // measure 22
0001
0000
0100
0000
,  // measure 23
0001
0000
0010
0000
,  // measure 24
0001
0000
1000
0000
,  // measure 25
0100
0000
0000
0000
,  // measure 26
0010
0000
0010
0000
,  // measure 27
0010
0000
0010
0010
,  // measure 28
0010
0000
0001
0000
,  // measure 29
0001
0000
0001
0001
,  // measure 30
0001
0000
1000
0000
,  // measure 31
1000
0000
1000
1000
,  // measure 32
1000
0000
0010
0010
,  // measure 33
0010
0000
0100
0000
,  // measure 34
0110
0000
0000
0000
,  // measure 35
1000
0000
0100
0000
,  // measure 36
0001
0000
0000
0000
,  // measure 37
1000
0000
0100
0000
,  // measure 38
0010
0000
0100
0000
,  // measure 39
0010
0000
0001
0000
,  // measure 40
1000
0000
0001
0000
,  // measure 41
0100
0000
0000
0000
,  // measure 42
1001
0000
0000
0000
,  // measure 43
1000
0000
1000
0000
,  // measure 44
0100
0000
1000
0000
,  // measure 45
0001
0000
0100
0000
,  // measure 46
0010
0000
0000
0000
,  // measure 47
0100
0000
0100
0000
,  // measure 48
0010
0000
0100
0000
,  // measure 49
0001
0000
0010
0000
,  // measure 50
0001
0000
0000
0000
,  // measure 51
1000
0000
0100
0000
,  // measure 52
0010
0000
0001
0000
,  // measure 53
1000
0000
0010
0000
,  // measure 54
0110
0000
0000
0000
,  // measure 55
1000
0000
0001
0000
,  // measure 56
1000
0000
0001
0000
,  // measure 57
0010
0000
0100
0000
,  // measure 58
0010
0000
0001
0000
,  // measure 59
1001
0000
0000
0000
;
