#TITLE:Midnight Gold;
#SUBTITLE:;
#ARTIST:Nika Kocharov & Young Georgian Lolitaz;
#TITLETRANSLIT:;
#SUBTITLETRANSLIT:;
#ARTISTTRANSLIT:;
#CREDIT:;
#BANNER:;
#BACKGROUND:;
#LYRICSPATH:;
#CDTITLE:;
#MUSIC:Midnight Gold.mp3;
#OFFSET:-0.020;
#SAMPLESTART:68.050;
#SAMPLELENGTH:15.110;
#SELECTABLE:YES;
#DISPLAYBPM:127.000;
#BPMS:0.000=126.995;
#STOPS:;
#BGCHANGES:0.000=Midnight Gold.avi=1.000=1=0=0,
99999=-nosongbg-=1.000=0=0=0 // don't automatically add -songbackground-
;

//---------------dance-single - ----------------
#NOTES:
     dance-single:
     :
     Hard:
     7:
     0.508,0.471,0.325,0.236,0.114: // measure 1
0000
0000
0000
0000
,  // measure 2
0000
0000
0000
0000
,  // measure 3
0000
0000
0000
0000
,  // measure 4
2002
0000
0000
3003
,  // measure 5
1000
0000
0010
0000
0100
0000
0000
0000
0010
0000
0000
0110
0000
0000
0100
0000
,  // measure 6
0001
0000
0010
0000
0100
0000
0000
1100
0000
0000
1000
0000
0001
0000
0100
0000
,  // measure 7
0010
0000
0000
1001
0000
0000
0100
0000
0010
0000
0001
0000
1000
0000
0000
0101
,  // measure 8
0000
0000
0010
0000
1000
0000
0001
0000
1000
0000
0001
1000
0001
1000
0000
0000
,  // measure 9
0100
0000
0001
1000
0100
0020
0000
0100
,  // measure 10
0000
0031
0010
0001
0000
0000
1001
0000
,  // measure 11
1000
0001
0200
0000
0010
0010
0000
0301
,  // measure 12
0100
0010
1000
0001
0000
0000
1001
0000
,  // measure 13
0010
0001
0200
0000
0310
0000
1000
0010
,  // measure 14
0000
0100
0001
0000
1000
0000
0010
1000
,  // measure 15
0200
0000
0001
0000
0010
0010
0000
0310
,  // measure 16
0000
0010
0100
0010
0001
1000
0010
0100
,  // measure 17
0010
0100
0100
0220
0000
0330
0110
0000
,  // measure 18
0010
1000
0001
0020
0000
0000
0130
0000
,  // measure 19
0010
0001
1000
0020
0000
0100
0000
1030
,  // measure 20
0000
1000
0010
0200
0000
0300
1001
0000
,  // measure 21
1000
0100
0200
0000
0001
0000
1000
0000
,  // measure 22
0310
0100
0000
0120
0000
0000
0031
1000
,  // measure 23
0001
0100
0000
0102
0000
0000
1003
0000
,  // measure 24
0001
0100
1000
0001
0010
1000
1001
0000
,  // measure 25
0001
0000
0010
0000
0100
0000
0010
0000
0001
0000
0000
1100
0000
0000
0100
0000
,  // measure 26
1000
0000
0001
0000
0100
0000
0000
0101
0000
0000
0010
0000
0100
0000
0001
0000
,  // measure 27
0010
0000
0000
1100
0000
0000
1000
0000
0010
0000
0100
0000
0001
0000
0000
1100
,  // measure 28
0000
0000
1000
0000
0100
0000
0001
0000
0100
0000
0000
0110
0000
0000
0010
0000
,  // measure 29
0001
0200
0000
0301
0100
2000
0000
3100
,  // measure 30
1000
0020
0000
0031
0010
0000
0011
0000
,  // measure 31
1000
0000
0010
0000
0001
0000
0010
0000
1000
0000
0000
1001
0000
0000
0001
0000
,  // measure 32
0010
0000
1000
0000
0010
0000
0000
0011
0000
0000
0001
0000
0100
0000
0010
0000
,  // measure 33
2000
0010
0001
0100
,  // measure 34
0010
0001
0100
0010
,  // measure 35
3002
0010
1000
0100
,  // measure 36
0010
1000
0200
0303
,  // measure 37
1001
0000
0000
0101
0000
0000
0001
0000
0010
0000
0100
0000
1000
0000
0000
0000
,  // measure 38
1100
0000
0000
1001
0000
0000
0001
0000
0100
0000
1000
0000
0100
0000
0010
0000
,  // measure 39
1000
0000
0000
1001
0000
0000
0001
0000
0010
0000
0100
0000
0001
0000
0100
0000
,  // measure 40
0010
0000
0000
1001
0000
0000
0100
0000
0010
0000
1000
0000
0010
0000
0000
0000
,  // measure 41
0101
0000
0000
1001
0000
0000
1000
0000
0100
0000
0100
0000
1000
0000
0000
0000
,  // measure 42
1001
0000
0000
0101
0000
0000
0001
0000
0100
0000
0100
0000
0010
0000
1000
0000
,  // measure 43
0100
0000
0000
0110
0000
0000
0010
0000
0001
0000
1000
0000
0001
0000
0100
0000
,  // measure 44
0010
0000
0000
1001
0000
0000
0100
0000
0010
0000
1000
0000
0002
1003
0000
0000
,  // measure 45
0001
0100
1000
0100
0001
0010
0100
0010
,  // measure 46
0001
1000
0100
0010
0100
0100
1000
1000
,  // measure 47
0001
0100
1000
0100
0010
1000
0100
0010
,  // measure 48
0100
0001
0100
1000
0010
0010
0100
0100
,  // measure 49
0001
0010
0100
0001
0100
1000
0010
0100
,  // measure 50
1000
0001
0010
1000
0001
0001
1000
1000
,  // measure 51
0001
0100
0010
0001
1000
0100
0010
1000
,  // measure 52
0001
0010
0100
0001
0100
0100
0010
0010
,  // measure 53
2002
0000
0000
3000
,  // measure 54
1000
1000
1003
1001
,  // measure 55
0010
0000
0100
0000
0010
0000
0100
0000
0010
0000
0000
0110
0000
0000
0100
0000
,  // measure 56
0001
0000
0010
0000
0001
0000
0000
0011
0000
0000
0010
0000
0100
0000
1000
0000
,  // measure 57
0001
0000
1000
0001
1000
0002
0000
0000
1003
0000
0000
0000
0001
0000
0100
0000
,  // measure 58
0010
2000
0000
0010
0000
3001
1000
0010
,  // measure 59
0100
0000
0101
0000
0001
0010
0200
0000
,  // measure 60
0001
0001
0000
0310
0000
0100
0010
0001
,  // measure 61
1000
0000
1001
0000
0001
0100
0020
0000
,  // measure 62
0001
0000
0100
0100
0000
1000
1030
0000
,  // measure 63
0001
0000
1000
0001
0020
0000
0100
0000
,  // measure 64
0001
0031
0000
1001
0000
0001
0100
0010
,  // measure 65
1000
0000
0100
1000
0100
2000
3000
0000
0000
0000
0000
0000
0000
0000
0000
0000
;

//---------------dance-single - ----------------
#NOTES:
     dance-single:
     :
     Medium:
     5:
     0.370,0.340,0.098,0.089,0.000: // measure 1
0000
0000
0000
0000
,  // measure 2
0000
0000
0000
0000
,  // measure 3
0000
0000
0000
0000
,  // measure 4
2002
0000
0000
3003
,  // measure 5
1000
0000
0100
1000
0001
0000
0100
0000
,  // measure 6
0010
0100
0001
0000
0010
0000
0100
0010
,  // measure 7
0001
0000
1000
0000
0010
0100
0010
0000
,  // measure 8
1000
0000
0001
1000
0200
0000
0300
0000
,  // measure 9
1001
0000
0001
0000
0100
0000
0010
1000
,  // measure 10
0000
1000
0010
0000
0100
0000
1001
0000
,  // measure 11
0010
0001
0100
0000
0001
0000
1001
0000
,  // measure 12
1000
0000
0100
0010
0100
0000
0010
0000
,  // measure 13
0001
0000
0100
0000
0010
0000
1000
0001
,  // measure 14
0000
1000
0001
0000
0010
0000
0100
0000
,  // measure 15
0010
0000
0001
0000
0100
0000
0010
1000
,  // measure 16
0010
0000
0100
0000
0001
1000
0100
0000
,  // measure 17
1000
0100
1000
0200
0000
0000
1300
0000
,  // measure 18
0001
0000
0100
0010
0100
0000
1001
0000
,  // measure 19
0001
0010
0001
0000
1000
0000
0100
0000
,  // measure 20
0010
0000
0001
0100
0001
0000
1010
0000
,  // measure 21
0010
0001
0100
0000
0010
0000
1000
0000
,  // measure 22
0100
0010
0000
0100
0010
0000
1001
0000
,  // measure 23
1000
0100
1000
0000
0001
0000
0100
0000
,  // measure 24
0010
1000
0010
0000
0100
0001
1000
0001
,  // measure 25
1000
0000
0100
0010
0100
0000
0001
0000
,  // measure 26
1000
0010
1000
0000
0001
0000
0100
0010
,  // measure 27
1000
0000
0100
0000
0010
0001
1000
0000
,  // measure 28
0001
0000
0100
0001
1000
0000
0001
0000
,  // measure 29
1000
0100
0000
1000
0100
0010
0000
0100
,  // measure 30
0010
0002
0000
0000
0010
0000
1003
0000
,  // measure 31
0001
0100
0010
0000
0100
0000
0010
1000
,  // measure 32
0001
0000
1000
0000
0100
0010
0100
0000
,  // measure 33
2001
0001
0001
0001
,  // measure 34
0010
0010
0010
0010
,  // measure 35
0100
0100
0100
0100
,  // measure 36
0100
0010
0002
3003
,  // measure 37
1001
0000
0100
0000
0010
1000
0010
0000
,  // measure 38
0100
0000
0001
0000
1000
0100
1000
0000
,  // measure 39
0001
0000
0010
0000
0100
0010
0001
0000
,  // measure 40
0100
0010
1000
0000
0010
0100
0001
0000
,  // measure 41
1000
0000
0001
0000
0100
0010
0100
0000
,  // measure 42
0001
0000
1000
0000
0100
0010
0100
0000
,  // measure 43
0010
0001
1000
0000
0001
0100
0001
0000
,  // measure 44
1000
0000
0010
0000
0100
0010
0100
0010
,  // measure 45
0100
0010
1000
0100
,  // measure 46
0010
0000
0001
0000
1000
0000
0001
0100
,  // measure 47
0001
1000
0010
0100
,  // measure 48
0001
0000
1000
0000
0100
1000
0010
0100
,  // measure 49
0001
0010
0100
0010
,  // measure 50
0001
0000
0100
0000
0010
0000
1000
0100
,  // measure 51
1000
0001
0100
0010
,  // measure 52
1000
0000
0100
0000
0010
0001
1000
0001
,  // measure 53
0200
0000
0000
0000
,  // measure 54
0010
0010
0020
0330
,  // measure 55
0010
1000
0010
0000
1000
0000
0001
1000
,  // measure 56
0001
0000
0010
0000
0100
0010
0001
0000
,  // measure 57
2002
3003
1000
0100
,  // measure 58
1000
0010
0000
1000
0001
0000
0100
0000
,  // measure 59
0010
0000
1001
0000
0010
0001
0010
0000
,  // measure 60
0001
0000
0100
0000
0010
0000
1000
0100
,  // measure 61
1000
0101
1000
0010
,  // measure 62
0100
0000
0001
0010
0000
0010
0001
0000
,  // measure 63
1000
0000
0100
1000
0100
0000
1000
0000
,  // measure 64
0010
0100
0000
0010
0100
0000
0001
0000
,  // measure 65
1000
0001
1000
0001
0000
0000
0000
0000
;

//---------------dance-single - ----------------
#NOTES:
     dance-single:
     :
     Easy:
     3:
     0.229,0.261,0.065,0.089,0.000: // measure 1
0000
0000
0000
0000
,  // measure 2
0000
0000
0000
0000
,  // measure 3
0000
0000
0000
0000
,  // measure 4
0200
0000
0000
0300
,  // measure 5
0010
0100
0001
0000
,  // measure 6
1000
0100
1000
0000
,  // measure 7
0001
0010
0100
0000
,  // measure 8
0010
0001
1000
1001
,  // measure 9
0001
0000
0100
0010
,  // measure 10
0100
0010
1000
0000
,  // measure 11
0001
1000
0100
0010
,  // measure 12
0100
0000
0010
0000
,  // measure 13
0001
1000
0001
0000
,  // measure 14
0100
0010
0100
0000
,  // measure 15
0010
1000
0100
0010
,  // measure 16
0001
0100
0001
1000
,  // measure 17
0200
0000
0300
1001
,  // measure 18
1000
0100
0010
0000
,  // measure 19
0001
0100
0010
0100
,  // measure 20
0001
0000
1000
0000
,  // measure 21
0100
1000
0100
0000
,  // measure 22
1000
0001
0100
0000
,  // measure 23
0010
0100
0001
1000
,  // measure 24
0100
0010
0001
1000
,  // measure 25
1001
0000
0001
0000
,  // measure 26
0100
0010
0100
0001
,  // measure 27
1000
0000
0100
0000
,  // measure 28
1000
0100
0010
0001
,  // measure 29
0200
0300
0020
0030
,  // measure 30
2000
0000
3001
1000
,  // measure 31
0001
0001
1000
0100
,  // measure 32
1000
1000
0001
0100
,  // measure 33
0020
0000
0000
0000
,  // measure 34
0000
0000
0000
0000
,  // measure 35
0000
0000
0000
0000
,  // measure 36
0000
0000
0000
0030
,  // measure 37
1001
0001
0100
0000
,  // measure 38
0001
1000
0100
0000
,  // measure 39
1000
0100
0010
0000
,  // measure 40
0001
0100
0010
0100
,  // measure 41
0001
0100
0001
0000
,  // measure 42
1000
0100
1000
0000
,  // measure 43
0001
1000
0001
0000
,  // measure 44
1000
0100
0020
0030
,  // measure 45
0100
0010
0100
1000
,  // measure 46
0100
0010
0001
0000
,  // measure 47
0100
0010
0100
0001
,  // measure 48
0100
0010
1000
0000
,  // measure 49
0001
0100
0001
1000
,  // measure 50
0100
1000
0100
0000
,  // measure 51
1000
0100
0010
0001
,  // measure 52
0100
0010
1000
0001
,  // measure 53
2002
0000
0000
0000
,  // measure 54
3003
0000
0000
1001
,  // measure 55
1001
0000
0001
0000
,  // measure 56
0100
0000
0010
1000
,  // measure 57
2002
3003
1000
0000
,  // measure 58
0100
1000
0100
0000
,  // measure 59
1000
0000
0001
0100
,  // measure 60
0010
0100
0001
0000
,  // measure 61
1000
0000
0001
0010
,  // measure 62
0001
0000
1000
0010
,  // measure 63
1000
0000
0001
0100
,  // measure 64
0001
1000
0100
0010
,  // measure 65
0001
0001
0000
0000
;

//---------------dance-single - ----------------
#NOTES:
     dance-single:
     :
     Beginner:
     1:
     0.126,0.183,0.057,0.000,0.000: // measure 1
0000
0000
0000
0000
,  // measure 2
0000
0000
0000
0000
,  // measure 3
0000
0000
0000
0000
,  // measure 4
0000
0000
0000
0000
,  // measure 5
1000
0000
0001
0000
,  // measure 6
1000
0000
0000
0000
,  // measure 7
0010
0000
0100
0000
,  // measure 8
0010
0000
0000
0000
,  // measure 9
1001
0000
0000
0000
,  // measure 10
1000
0000
0000
0000
,  // measure 11
0001
0000
0100
0000
,  // measure 12
0010
0000
0000
0000
,  // measure 13
1000
0000
0000
0000
,  // measure 14
0001
0000
0000
0000
,  // measure 15
1000
0000
0001
0000
,  // measure 16
0100
0000
0001
0000
,  // measure 17
1001
0000
0000
0000
,  // measure 18
1000
0000
0000
0000
,  // measure 19
0100
0000
1000
0000
,  // measure 20
0010
0000
0000
0000
,  // measure 21
0100
0000
0000
0000
,  // measure 22
0010
0000
0000
0000
,  // measure 23
0100
0000
0010
0000
,  // measure 24
0100
0000
0001
0000
,  // measure 25
1001
0000
0000
0000
,  // measure 26
0001
0000
0000
0000
,  // measure 27
1000
0000
0100
0000
,  // measure 28
0010
0000
0001
0000
,  // measure 29
0100
0000
0100
0000
,  // measure 30
0010
0000
0000
0000
,  // measure 31
1000
0000
0001
0000
,  // measure 32
1000
0000
0001
0000
,  // measure 33
1001
0000
0000
0000
,  // measure 34
0000
0000
0000
0000
,  // measure 35
0000
0000
0000
0000
,  // measure 36
0000
0000
0000
0000
,  // measure 37
1001
0000
0001
0000
,  // measure 38
0100
0000
0001
0000
,  // measure 39
1000
0000
0100
0000
,  // measure 40
1000
0000
1000
0000
,  // measure 41
1000
0000
0010
0000
,  // measure 42
0100
0000
0001
0000
,  // measure 43
0010
0000
0010
0000
,  // measure 44
0100
0000
0010
0010
,  // measure 45
0010
0000
0001
0000
,  // measure 46
1000
0000
0100
0000
,  // measure 47
1000
0000
0010
0000
,  // measure 48
0100
0000
0001
0001
,  // measure 49
0001
0000
0100
0000
,  // measure 50
0001
0000
1000
0000
,  // measure 51
0100
0000
0010
0000
,  // measure 52
0100
0100
0100
0100
,  // measure 53
0100
0000
0000
0000
,  // measure 54
0010
0010
0010
0010
,  // measure 55
0010
0000
0000
0000
,  // measure 56
0100
0000
0010
0000
,  // measure 57
1001
0000
1001
0000
,  // measure 58
0000
0000
0001
0000
,  // measure 59
0000
0000
0100
0000
,  // measure 60
0010
0000
0100
0000
,  // measure 61
0000
0000
0001
0000
,  // measure 62
1000
0000
0100
0000
,  // measure 63
1000
0000
0001
0000
,  // measure 64
0010
0000
0100
0000
,  // measure 65
0100
0100
0000
0000
;
