#TITLE:Maniac;
#SUBTITLE:;
#ARTIST:Carpenter Brut;
#TITLETRANSLIT:;
#SUBTITLETRANSLIT:;
#ARTISTTRANSLIT:;
#CREDIT:;
#BANNER:;
#BACKGROUND:;
#LYRICSPATH:;
#CDTITLE:;
#MUSIC:Maniac.mp3;
#OFFSET:-6.160;
#SAMPLESTART:51.860;
#SAMPLELENGTH:11.560;
#SELECTABLE:YES;
#BPMS:0.000=166.000;
#STOPS:;
#BGCHANGES:;

//---------------dance-single - ----------------
#NOTES:
     dance-single:
     :
     Hard:
     8:
     0.605,0.567,0.224,0.166,0.000:
1000
0100
1000
0000
0001
0100
0001
0000
,
1000
0010
0100
0000
0001
0010
0100
0010
,
0001
1000
0001
0000
0100
0010
0100
0000
,
0010
1000
0001
0100
0001
1000
0100
0010
,
0001
0010
0001
0000
1000
0010
1000
0000
,
0001
0100
0010
1000
0100
0010
0100
0000
,
0010
0001
1000
0000
0001
0100
0010
0000
,
1000
0100
0001
0100
1000
0010
0100
0010
,
0200
0000
1000
0000
0301
0000
1000
0010
,
1000
0001
0010
0100
0010
0000
0001
1000
,
0100
0000
0110
0000
0010
0000
0001
1000
,
0000
1000
0001
0000
0100
0010
0100
0000
,
0020
0000
0001
0000
1030
0000
0001
1000
,
0100
0010
0100
1000
0001
0000
1000
0010
,
0100
0000
0001
1000
0001
0000
1000
0000
,
1100
0000
0010
0001
1000
0001
0100
0001
,
0200
0000
1000
0000
0301
0000
0010
0001
,
1000
0010
0100
0010
0000
0100
0010
1000
,
0001
0000
1100
0000
0010
0001
1000
0001
,
0100
0000
0110
0000
0010
1000
0001
1000
,
0200
0000
0001
0000
1300
0000
0001
0010
,
0001
1000
0010
0100
0000
0100
0010
1000
,
0001
0000
0010
0001
0100
0000
0010
0100
,
0001
0000
1000
0000
0100
1000
0001
1000
,
2001
0000
0100
0000
3001
1000
0000
0100
,
0000
0001
0000
0100
0000
1000
0010
0100
,
0002
0000
0100
0000
1003
0000
0001
0100
,
0000
1000
0000
0001
0000
0010
1000
0001
,
1000
0000
0101
0000
0001
0010
0100
1000
,
0000
0100
1000
0100
0000
0010
0001
1000
,
0000
0100
0000
0110
0000
1001
0000
0010
,
0100
1000
0100
0010
0001
0100
0010
0200
,
0000
0310
1000
0100
0010
0000
0001
1000
,
0000
1000
0001
0100
0010
0000
1001
0000
,
1000
0010
1000
0000
0001
0100
0001
0000
,
1000
0100
0010
0001
0100
0010
1000
0020
,
0000
0001
0000
1000
0000
0001
0000
1030
,
0000
0100
0010
0001
0000
0011
0000
1100
,
0000
1000
0100
0010
0100
1000
0001
0001
,
0100
0000
0101
0000
0001
1000
0001
1000
,
0100
0000
0110
0000
0010
0001
1000
0001
,
0000
0001
0100
0000
0010
1000
0001
0000
,
1000
0100
0010
0000
0100
1000
0001
0000
,
1000
0010
1000
0001
0010
0100
1000
0200
,
0000
0001
0000
0010
0000
1300
0000
1000
,
0010
0100
0000
0101
0000
1001
0000
1000
,
0100
1000
0001
0100
0010
0100
0001
0000
,
0010
0001
1000
0100
0010
0100
1000
0001
,
0100
0010
0100
0000
0001
1000
0001
0000
,
1000
0100
0010
0001
0100
0010
1001
0000
,
0202
0000
0303
0000
1000
0100
0010
0011
,
0000
0011
0000
0001
0100
0010
1000
0100
,
2200
0000
3300
0000
1000
0001
0100
0010
,
0000
0100
0010
1000
0000
0001
0011
0000
,
2002
0000
3003
0000
0001
0100
0010
1010
,
0000
1010
0000
1000
0100
0010
0001
0100
,
0010
0000
0110
0000
0100
0001
1000
0100
,
0000
0010
0001
1000
0000
0001
1001
0000
,
0001
0100
0001
0100
1000
0100
0001
0000
,
1000
0100
1000
0100
0001
0100
1000
0000
,
0001
0010
0100
0010
0001
1000
0010
1000
,
0001
0100
0010
1000
0100
1000
0010
0200
,
0000
1000
0000
0010
0000
0301
0000
0001
,
0010
0200
0000
0001
0000
0010
0000
1300
,
0100
0000
0011
0000
1000
0001
0100
0001
,
0100
0000
0010
0000
1000
0001
0100
0002
,
0000
0103
0001
0100
0001
1000
0100
0000
,
1000
0100
0010
0100
0010
0001
1000
0000
,
0001
0100
0001
0000
1000
0010
1000
0000
,
0001
0100
0010
1000
0100
0010
0001
2000
,
0000
0010
0000
0001
0000
3100
0000
1000
,
0010
0200
0000
1000
0000
0301
0000
0100
,
0001
0100
0001
0100
0010
1000
0010
1000
,
0100
0010
0001
0100
0010
1000
0100
0010
,
0001
0010
0001
0010
0100
1000
0100
1000
,
0001
0100
0010
1000
0010
0100
0001
0001
;

//---------------dance-single - ----------------
#NOTES:
     dance-single:
     :
     Beginner:
     2:
     0.192,0.252,0.066,0.000,0.000: // measure 1
1000
0000
0000
0000
,  // measure 2
0001
0000
0100
0000
,  // measure 3
0001
0000
0000
0000
,  // measure 4
1000
0000
0001
0000
,  // measure 5
0010
0000
0000
0000
,  // measure 6
0100
0000
0010
0000
,  // measure 7
0001
0000
1000
0000
,  // measure 8
0001
0000
0000
0000
,  // measure 9
0100
0100
0100
0000
,  // measure 10
0010
0000
0000
0000
,  // measure 11
0100
0100
0100
0000
,  // measure 12
0010
0000
0000
0000
,  // measure 13
1000
1000
1000
0000
,  // measure 14
0001
0000
0000
0000
,  // measure 15
1000
1000
1000
0000
,  // measure 16
0001
0000
0000
0000
,  // measure 17
0010
0010
0010
0000
,  // measure 18
0001
0000
1000
0000
,  // measure 19
0010
0010
0010
0000
,  // measure 20
1000
0000
0001
0000
,  // measure 21
0100
0100
0100
0000
,  // measure 22
0001
0000
1000
0000
,  // measure 23
0100
0000
0010
0000
,  // measure 24
0110
0000
0000
0000
,  // measure 25
0100
0000
0010
0000
,  // measure 26
0001
0000
1000
1000
,  // measure 27
1000
0000
0001
0000
,  // measure 28
0100
0000
0010
0010
,  // measure 29
0010
0000
0100
0000
,  // measure 30
0010
0000
1000
0000
,  // measure 31
0001
0000
1000
0000
,  // measure 32
1001
0000
0000
0000
,  // measure 33
0001
0000
1000
0000
,  // measure 34
0001
0000
0010
0000
,  // measure 35
0100
0000
0010
0000
,  // measure 36
0100
0000
0010
0000
,  // measure 37
0001
0001
0001
0000
,  // measure 38
1000
1000
1000
0000
,  // measure 39
0001
0000
0100
0100
,  // measure 40
0100
0000
0000
0000
,  // measure 41
0010
0000
0100
0000
,  // measure 42
0001
0000
1000
0000
,  // measure 43
0100
0000
0010
0000
,  // measure 44
0001
0000
1000
0000
,  // measure 45
0010
0010
0010
0000
,  // measure 46
0100
0100
0100
0000
,  // measure 47
0010
0000
0100
0000
,  // measure 48
0001
0000
1000
0000
,  // measure 49
1001
0000
0001
0000
,  // measure 50
0110
0000
0100
0000
,  // measure 51
1001
0000
0000
0000
,  // measure 52
0000
0000
0000
0000
,  // measure 53
0110
0000
0000
0000
,  // measure 54
0000
0000
0000
0000
,  // measure 55
1001
0000
0000
0000
,  // measure 56
0000
0000
0000
0000
,  // measure 57
0110
0000
0000
0000
,  // measure 58
0000
0000
0000
0000
,  // measure 59
1000
1000
1000
0000
,  // measure 60
0001
0001
0001
0000
,  // measure 61
0100
0000
0010
0000
,  // measure 62
1000
0000
0100
0000
,  // measure 63
0010
0010
0010
0000
,  // measure 64
0100
0100
0100
0000
,  // measure 65
0010
0000
0001
0001
,  // measure 66
0001
0000
1000
0000
,  // measure 67
0001
0001
0001
0000
,  // measure 68
0100
0100
0100
0000
,  // measure 69
0010
0000
1000
0000
,  // measure 70
0001
0000
1000
0000
,  // measure 71
0100
0100
0100
0000
,  // measure 72
1000
1000
1000
0000
,  // measure 73
0001
0000
1000
0000
,  // measure 74
0001
0000
0100
0000
,  // measure 75
0010
0000
1000
0000
,  // measure 76
0100
0100
0100
0100
;

//---------------dance-single - ----------------
#NOTES:
     dance-single:
     :
     Medium:
     6:
     0.491,0.473,0.233,0.158,0.000:
1000
0100
0010
0100
,
1000
0000
0010
0000
0100
0000
0001
0100
,
0001
0100
0010
0100
,
0001
0000
1000
0000
0100
1000
0100
1000
,
0001
0100
0010
1000
,
0100
0000
0010
0000
0100
0000
1000
0001
,
0010
0001
0100
0010
,
0100
0010
0100
0000
0001
0100
0010
0200
,
0001
0001
0301
0100
,
0001
0000
1000
0100
1000
0000
0001
0000
,
1000
0000
0100
0000
0010
0000
0100
1000
,
0000
1000
0100
0000
1000
0000
0010
2000
,
0001
0001
3001
1000
,
0100
0000
1000
0100
0000
0100
1000
0000
,
0001
0000
0100
0010
0100
0000
0001
0000
,
1000
0100
0010
0000
0001
0100
0010
0200
,
0001
0001
0301
0100
,
0010
0000
1000
0001
0000
0001
1000
0000
,
0001
0000
0010
0000
0100
1000
0100
0010
,
0000
0100
1000
0000
0001
0000
1000
0020
,
1000
0000
1000
0000
1030
0000
0100
0010
,
0001
1000
0000
1000
0001
0000
0010
0001
,
1000
0000
0100
0010
0100
0000
0010
0000
,
0001
0000
0100
0000
0010
0100
0010
0000
,
1001
0000
0010
0000
1000
0100
0000
0010
,
0000
0001
0000
0100
0000
0010
0000
1000
,
0010
0000
0100
0000
0001
0000
0100
0010
,
0000
1000
0000
0100
0000
0010
0001
0010
,
0001
0000
1000
0000
0001
0100
0000
0010
,
0000
0100
0000
0001
0000
1000
0000
0100
,
0000
0010
0000
0110
0000
1001
0000
0210
,
0000
0000
0300
0000
0100
0010
0001
2000
,
0000
0000
0010
3010
0000
0002
0000
0000
,
0000
0000
0100
0103
0000
0001
0000
1000
,
0100
0010
0100
1000
,
0001
0000
0100
0000
0010
0000
1000
0010
,
0000
0100
0000
0001
0000
0101
0000
0100
,
0000
0010
0000
1000
0000
0100
0000
0120
,
0000
0000
0031
0000
1000
0001
1000
0001
,
0100
0000
0010
0000
1000
0000
0001
0100
,
0002
0000
1000
1003
0000
0200
0000
0000
,
0000
0000
1000
1300
0000
0100
0000
0100
,
1000
0000
0001
0000
0100
0010
0100
0000
,
0001
0000
1000
0000
0001
0100
0001
1000
,
0000
0100
0000
0010
0000
0100
0000
1100
,
0000
1001
0000
0101
0000
0110
0000
1000
,
0010
0100
1000
0001
,
1000
0000
0100
0000
0010
0001
1000
0001
,
0100
0010
1000
0001
,
1000
0000
0100
0000
1000
0001
1000
0000
,
0202
0000
0303
0000
1000
0001
1000
0001
,
0000
1000
0000
0001
0100
0000
0110
0000
,
2002
0000
3003
0000
1000
0100
0010
0002
,
0000
0000
0000
0103
0000
0000
0101
0000
,
2002
0000
3003
0000
1000
0010
1000
0100
,
0000
1000
0000
0001
0100
0000
0101
0000
,
2002
0000
3003
0000
0001
0100
0010
1000
,
0000
0001
1000
0001
0000
0000
0110
0000
,
1000
0000
0001
0000
0100
0001
0100
0000
,
0010
0000
1000
0000
0100
1000
0100
0000
,
1000
0000
0001
0000
0010
0100
0010
0000
,
0001
1000
0001
0100
0001
0000
0100
0010
,
0000
1010
0000
1000
0000
1100
0000
0100
,
0000
0110
0000
0010
0000
0011
0000
0001
,
1000
0000
0001
0000
0100
0010
0100
0010
,
0100
0000
0001
0000
1000
0100
1000
0100
,
1000
0000
0001
0010
0001
0000
0100
0000
,
0010
0000
0100
0001
1000
0000
0001
0000
,
1000
0100
1000
0000
0001
0100
0001
0000
,
1000
0010
0100
0001
0010
0000
0001
1000
,
0000
0001
0000
0110
0000
1000
0000
0110
,
0000
0001
0000
1001
0000
0110
0000
1001
,
0000
1000
0100
0000
1000
0001
0100
0000
,
0010
0100
0001
0000
1000
0100
1000
0100
,
1000
0000
0011
0000
0010
0001
0100
0000
,
0010
0100
0001
0000
1000
0001
1000
0100
;

//---------------dance-single - ----------------
#NOTES:
     dance-single:
     :
     Easy:
     4:
     0.319,0.379,0.216,0.083,0.000: // measure 1
0001
1000
0001
0000
,  // measure 2
0100
0010
0100
0000
,  // measure 3
0010
1000
0010
0000
,  // measure 4
0100
0001
0010
0100
,  // measure 5
0010
0001
1000
0000
,  // measure 6
0001
0100
0001
0000
,  // measure 7
1000
0100
1000
0001
,  // measure 8
0100
0010
0100
0010
,  // measure 9
1000
0000
1001
0000
,  // measure 10
0001
0100
0001
0000
,  // measure 11
1000
0100
1000
0001
,  // measure 12
0100
0000
0010
0000
,  // measure 13
0100
0010
1000
0000
,  // measure 14
0001
0010
0100
0000
,  // measure 15
0010
0001
1000
0000
,  // measure 16
0001
0000
0100
0000
,  // measure 17
0010
0100
0010
0100
,  // measure 18
0001
0000
1001
0000
,  // measure 19
1000
0100
0010
0000
,  // measure 20
0110
0000
1001
0000
,  // measure 21
1000
0100
1000
0001
,  // measure 22
0100
0000
0100
0001
,  // measure 23
0100
0000
0010
0000
,  // measure 24
2002
0000
3003
0000
,  // measure 25
1001
0000
1000
0100
,  // measure 26
1000
0100
0010
0001
,  // measure 27
0010
0000
0001
0100
,  // measure 28
0001
0100
0010
1000
,  // measure 29
0010
0000
1000
0001
,  // measure 30
1000
0001
0100
0010
,  // measure 31
0100
0000
0010
0100
,  // measure 32
2002
0000
0000
3003
,  // measure 33
1001
0000
0001
0100
,  // measure 34
0010
0000
0100
0010
,  // measure 35
1000
0010
1000
0000
,  // measure 36
0001
0010
0001
1000
,  // measure 37
0100
0100
0010
0010
,  // measure 38
0100
0010
0001
1000
,  // measure 39
0001
0000
0100
0001
,  // measure 40
0100
0000
0110
0000
,  // measure 41
0010
1000
0001
0000
,  // measure 42
0010
0001
1000
0000
,  // measure 43
0001
0100
0010
1000
,  // measure 44
0100
0000
1000
0100
,  // measure 45
1000
1000
0001
0001
,  // measure 46
0100
0010
0100
0010
,  // measure 47
1001
0000
0001
0000
,  // measure 48
1000
0010
1000
0001
,  // measure 49
0100
0000
0100
0000
,  // measure 50
0010
0100
0001
1000
,  // measure 51
2002
0000
3003
0000
0000
0000
0000
1001
,  // measure 52
0000
1001
0000
0000
0001
0000
0100
0000
,  // measure 53
0110
0000
0000
0000
0010
0000
0000
1001
,  // measure 54
0000
0000
0000
0110
0000
0000
1001
0000
,  // measure 55
2002
0000
0000
0000
3003
0000
0000
0110
,  // measure 56
0000
0110
0000
0000
0010
0000
1000
0000
,  // measure 57
1001
0000
0000
0000
0001
0000
0000
1001
,  // measure 58
0000
0000
0000
0110
0000
0000
1001
0000
,  // measure 59
0001
0100
1000
0100
,  // measure 60
0001
0100
1000
0100
,  // measure 61
0001
0000
1000
0000
,  // measure 62
0001
0010
0001
0000
,  // measure 63
1000
0100
0001
0100
,  // measure 64
1000
0100
0010
0100
,  // measure 65
1000
0000
0001
0010
,  // measure 66
0001
0000
1001
0000
,  // measure 67
1000
0010
0100
0001
,  // measure 68
0100
0010
1000
0001
,  // measure 69
0010
0000
0100
0000
,  // measure 70
0010
0001
1000
0000
,  // measure 71
0001
0100
0001
0100
,  // measure 72
0001
1000
0001
1000
,  // measure 73
0001
0000
0100
0000
,  // measure 74
0010
1000
0001
0010
,  // measure 75
0100
0000
0010
0000
,  // measure 76
0100
0010
0100
0220
,  // measure 77
0330
0000
0000
0000
;
