#TITLE:Little Flipper;
#SUBTITLE:;
#ARTIST:S-C-U;
#TITLETRANSLIT:;
#SUBTITLETRANSLIT:;
#ARTISTTRANSLIT:;
#CREDIT:;
#BANNER:;
#BACKGROUND:;
#LYRICSPATH:;
#CDTITLE:;
#MUSIC:Little Flipper.mp3;
#OFFSET:-6.200;
#SAMPLESTART:61.290;
#SAMPLELENGTH:11.630;
#SELECTABLE:YES;
#BPMS:0.000=165.000;
#STOPS:;
#BGCHANGES:;

//---------------dance-single - ----------------
#NOTES:
     dance-single:
     :
     Hard:
     7:
     0.524,0.463,0.098,0.137,0.172:
1000
0001
0100
0010
,
1000
0100
0001
0100
,
1001
0000
0000
1000
0000
0000
0001
0000
0000
0100
0000
0000
0010
0000
0000
0000
,
0220
0330
0000
0000
,
1001
0000
0001
0000
1000
0100
0010
0000
,
0001
0000
0100
0000
0010
1000
0010
1000
,
0001
0000
1000
0000
0100
0000
0010
0001
,
1000
0000
0001
0000
0100
0010
0100
0001
,
1000
0000
0001
0000
0100
0010
1000
0100
,
1000
0000
0001
0000
0100
0001
1000
0001
,
1000
0000
0000
0100
0000
0000
0010
0000
0002
0000
0000
0000
0103
0000
0000
0000
,
0220
0000
0000
0330
0010
1000
0010
1000
,
0001
0000
0010
0000
0100
0010
0001
1000
,
0001
0000
0100
0000
0010
0100
0001
0010
,
0100
0001
0100
1000
,
0010
0000
0100
0000
0001
0100
0010
1000
,
0010
0000
0100
0000
0001
0010
0001
1000
,
0100
0000
1000
0000
0001
0010
0001
1000
,
0010
0000
0000
1000
0000
0000
0001
0000
0200
0000
0000
0000
0301
0000
0000
0000
,
0010
0000
0000
0100
0000
0000
1000
0000
0200
0000
0000
0000
0300
0000
1000
0000
,
0001
0000
0000
1000
0000
0000
0001
0000
0100
0000
0001
0000
0100
0000
0000
0000
,
0001
0000
1000
0000
0100
0000
0000
0000
0010
0000
0000
0100
0000
0000
0010
0000
,
0001
0000
0000
1000
0000
0000
0001
0000
0000
1000
0000
0000
0100
0000
0010
0000
,
0100
0000
0000
1000
0000
0000
0010
0000
0010
0000
0000
0000
1001
0000
0000
0000
,
1000
0000
0000
0100
0000
0000
1000
0000
0000
0100
0000
0000
0010
0000
0001
0000
,
0100
0000
0000
0001
0000
0000
0100
0000
0000
0001
0000
0000
0100
0000
0010
0000
,
1000
0000
0000
0010
0000
0000
0100
0000
0001
0000
0000
0000
1001
0000
0000
0000
,
1000
0100
0010
0100
1000
0001
1000
0000
,
0001
0000
0000
0100
0000
0000
0001
0000
1000
0000
0100
0000
1000
0000
0000
0000
,
0001
0000
0100
0000
0010
0000
1000
0000
0010
0000
0000
0100
0000
0000
0001
0000
,
1000
0000
0000
0001
0000
0000
0010
0000
0000
0001
0000
0000
1000
0000
0001
0000
,
0100
0000
0110
0000
0010
1000
0001
1000
,
0100
0000
1000
0001
0000
1000
0001
0000
,
0100
0000
0010
1000
0000
0001
0100
0001
,
0010
0000
0001
1000
0000
1000
0100
0010
,
0001
0000
0001
0100
0000
0010
1000
0001
,
1000
0100
1000
0100
0001
0100
0001
0100
,
0020
0000
0000
0000
0000
0000
0030
0001
,
0010
0001
0100
0000
0010
1000
0001
0000
,
1000
0000
0100
0000
0010
0000
0000
0002
0000
0000
1000
0000
1003
0000
0001
0000
,
0100
0010
1000
0000
0001
0100
0001
0000
,
1000
0000
0100
0000
0010
0000
0000
0200
0000
0000
1000
0000
1300
0000
0000
0000
,
1000
0000
0010
0000
1000
0000
0000
0000
0001
0000
0000
0100
0000
0000
0001
0000
,
0010
0000
0001
0000
0010
0000
0000
0000
0100
0000
0000
1000
0000
0000
0100
0000
,
0010
0010
0001
0000
1000
0000
0001
0000
,
0100
0010
0100
0010
1000
0001
1000
0000
,
0001
0100
0010
0000
1000
0100
0010
0000
,
0001
0000
0100
0000
0001
0000
0000
2000
0000
0000
0100
0000
3100
0000
0000
0000
,
1000
0010
1000
0000
0001
0010
0100
0000
,
0010
0000
0001
0000
0100
0000
0000
0020
0000
0000
1000
0000
1030
0000
0000
0000
,
1000
0100
0010
0001
0010
0001
0010
0000
,
0001
0100
0010
1000
0010
1000
0010
0000
,
1000
0000
0000
0100
0000
0000
1000
0000
0001
0000
0000
0100
0000
0000
0002
0000
,
2000
0000
0000
3003
,
1000
0100
1000
0000
0001
0000
0100
0000
,
0001
0000
0000
1000
0000
0000
0100
0000
1000
0000
0000
0000
0001
0000
0100
0000
,
0001
1000
0100
0000
0010
0000
0100
0000
,
0010
0000
0000
0001
0000
0000
1000
0000
0001
0000
0100
0000
0001
0000
0100
0000
,
0001
0000
0101
0000
0010
1000
0001
0000
,
1000
0000
1100
0000
0010
0001
1000
0000
,
0001
0000
0000
1000
0000
0000
0001
0000
0000
1000
0000
0000
0001
0000
0000
0000
,
0010
0000
0000
0100
0000
0000
0010
0000
0000
0100
0000
0000
0010
0000
0000
0000
,
1001
0000
0000
0100
0000
0000
0010
0000
0000
0001
0000
0000
1000
0000
0001
0000
;

//---------------dance-single - ----------------
#NOTES:
     dance-single:
     :
     Challenge:
     9:
     0.728,0.679,0.245,0.196,0.530: // measure 1
1000
0000
0000
0100
0000
0000
1000
0000
0001
0000
0000
0100
0000
0000
0001
0000
,  // measure 2
0000
0000
1000
0000
0000
0010
0000
0000
0100
0000
0000
0010
0000
0000
1000
0000
,  // measure 3
1010
0000
0000
0010
0000
0000
0100
0000
0000
0001
0000
0000
1000
0000
0001
0000
,  // measure 4
2002
0000
0000
0000
3003
0000
1000
0100
1000
0000
0100
0000
0010
0000
0001
0000
,  // measure 5
0100
0000
0000
0100
0000
0000
0001
0000
0010
0000
0001
0000
1000
0000
0010
0000
,  // measure 6
0100
0000
0000
0100
0000
0000
0010
0000
1000
0000
0100
0000
0010
0000
0001
0000
,  // measure 7
1000
0000
0000
0001
0000
0000
1000
0000
0100
0000
0000
0000
0011
0000
0000
0000
,  // measure 8
0001
0000
0000
0000
0100
0000
0001
0100
0001
0000
0100
0000
0010
0000
1000
0000
,  // measure 9
0100
0000
0000
0100
0000
0000
1000
0000
0001
0000
0100
0000
0001
0000
0010
0000
,  // measure 10
0100
0000
0000
0100
0000
0000
0010
0000
0001
0000
0100
0000
0010
0000
1000
0000
,  // measure 11
0001
0000
0000
0100
0000
0000
0010
0000
1000
0000
0000
0000
0001
0000
0010
0000
,  // measure 12
0001
0000
1000
0000
0000
0001
0100
0010
0100
0000
0010
0000
1000
0000
0001
0000
,  // measure 13
1000
0000
0001
0020
0000
0000
0130
0000
0010
0000
0001
0000
0100
0000
0010
0000
,  // measure 14
1000
0000
0001
0200
0000
0000
0310
0000
1000
0000
0100
0000
1000
0000
0001
0000
,  // measure 15
0010
0000
0000
0000
0001
0000
1000
0000
0100
0000
1000
0001
0000
0000
0100
0000
,  // measure 16
0010
0000
1000
0000
0001
0000
0010
0001
0010
0000
0001
0000
1000
0000
0100
0000
,  // measure 17
0010
0000
0001
2000
0000
0000
3010
0000
0100
0000
1000
0000
0100
0000
0001
0000
,  // measure 18
0010
0000
0100
0020
0000
0000
0031
0000
0010
0000
1000
0000
0001
0000
0100
0000
,  // measure 19
1000
0000
0000
0001
0000
0000
0100
0000
0102
0000
0000
0000
1003
0000
0000
0000
,  // measure 20
0001
0000
0000
0001
0100
0000
0010
0000
2000
0000
0000
0000
3100
0000
1000
0100
,  // measure 21
0010
0000
0000
0001
0000
0000
0010
0000
0001
0000
0100
0000
1000
0000
0100
0000
,  // measure 22
0010
0000
1000
0000
0001
0000
0010
0000
0001
0000
0000
1000
0000
0000
0001
0100
,  // measure 23
0010
0000
0000
0100
0000
0000
0010
0000
0000
1000
0000
0000
0100
0000
0010
0000
,  // measure 24
0001
0000
0000
1000
0000
0000
0001
0000
0001
0000
0100
0000
0010
0000
1000
0100
,  // measure 25
1000
0000
0000
0001
0000
0000
0100
0000
0000
0010
0000
1000
0001
0000
0010
0000
,  // measure 26
0001
0000
0000
1000
0000
0000
0100
0000
0000
0010
0000
0001
1000
0000
0001
0000
,  // measure 27
0100
0000
0001
2000
0000
0000
0100
0000
3100
0000
0000
0000
1000
0000
0100
0010
,  // measure 28
0001
0000
0100
0000
0010
0000
1000
0000
0100
0000
0010
0000
0001
0000
1000
0010
,  // measure 29
1000
0000
0000
0001
0000
0000
0100
0000
0010
0000
0100
0000
0001
0000
0010
0000
,  // measure 30
0001
0000
1000
0000
0100
0000
0001
0000
0100
0000
0000
0010
0000
0000
0001
1000
,  // measure 31
0001
0000
0000
1000
0000
0000
0010
0000
0000
0100
0000
0100
1000
0000
0100
0000
,  // measure 32
0010
0000
0000
0000
0100
0000
0001
1000
0001
0000
0010
0000
0001
0000
1000
0000
,  // measure 33
0100
1000
0001
0100
0001
1000
0010
0100
,  // measure 34
0001
0000
0010
0000
0001
0000
1000
0000
0010
0000
1000
0000
0001
0000
0100
0001
,  // measure 35
0100
0000
0010
1000
0000
1000
0100
0010
,  // measure 36
0001
0000
0001
1000
0000
1000
0100
0010
,  // measure 37
0100
0001
0100
0010
0100
1000
0100
0010
,  // measure 38
2002
0000
0000
0000
0000
0000
0000
0000
0000
0000
0000
0000
3003
0000
1000
0010
,  // measure 39
1000
0000
0001
0000
0100
0001
0000
0100
0001
0000
1000
0010
0000
1000
0001
0000
,  // measure 40
1000
0000
0100
0000
0010
0001
0000
2000
0000
0000
0001
0000
3001
0000
0100
0001
,  // measure 41
0100
0000
0010
0000
1000
0001
0000
1000
0010
0000
0100
0001
0000
0010
0001
0000
,  // measure 42
1000
0000
0100
0000
1000
0100
0000
2000
0000
0000
0001
0000
3001
0000
0100
0010
,  // measure 43
0100
0000
0001
0000
1000
0100
0000
0010
0001
0000
1000
0010
0000
0100
0001
0000
,  // measure 44
0010
0000
0100
0000
0010
0001
0000
0010
0100
0000
0010
0001
0000
0001
1000
0000
,  // measure 45
0001
0200
0000
0310
0100
0001
1000
0100
,  // measure 46
0001
0000
1000
0000
0010
0000
0001
0000
0100
0000
0010
0000
1000
0000
0001
0100
,  // measure 47
0001
0000
1000
0000
0001
0010
0000
0010
0100
0000
0100
1000
0000
1000
0010
0000
,  // measure 48
0100
0000
0010
0000
1000
0001
0000
0201
0000
0000
0010
0000
0310
0000
0100
0001
,  // measure 49
1000
0000
0001
0000
0010
0001
0000
1000
0100
0000
1000
0010
0000
0100
0001
0000
,  // measure 50
1000
0000
0001
0000
1000
0100
0000
0120
0000
0000
0001
0000
0031
0000
1000
0010
,  // measure 51
0100
0000
0010
0000
1000
0001
0000
0100
0010
0000
1000
0001
0000
0100
0010
0000
,  // measure 52
1000
0000
0001
0000
0010
0001
0000
1000
0010
0000
0100
0001
0000
1000
0100
0000
,  // measure 53
1100
0000
0000
0010
0000
0000
0001
0000
0101
0000
0000
0100
0000
0000
0010
0000
,  // measure 54
2002
0000
0000
0000
0000
0000
0000
0000
0000
0000
0000
0000
3003
0000
1000
0100
,  // measure 55
1000
0100
0001
0100
1000
0100
0010
0001
,  // measure 56
0100
0000
0010
2000
0000
0000
3100
0000
0000
0000
0010
0000
0001
0000
1000
0001
,  // measure 57
1000
0100
0010
0100
1000
0010
0100
0010
,  // measure 58
0100
0000
0001
2000
0000
0000
3100
0000
0000
0000
1000
0000
0100
0000
1000
0000
,  // measure 59
0001
0000
0100
0010
0000
0000
1000
0000
0100
0000
1000
0000
0001
0000
0010
0000
,  // measure 60
0000
0001
0010
0100
0010
0100
1000
0001
,  // measure 61
1000
0000
0000
1010
0000
0000
0110
0000
0000
0101
0000
0000
1001
0000
0000
0000
,  // measure 62
0011
0000
0000
0110
0000
0000
1100
0000
0000
1001
0000
0000
0110
0000
0000
0000
,  // measure 63
0011
0000
0000
0101
0000
0000
1010
0000
0000
1100
0000
0000
0110
0000
1001
0000
;

//---------------dance-single - ----------------
#NOTES:
     dance-single:
     :
     Medium:
     5:
     0.470,0.494,0.236,0.285,0.000:
1000
0001
1000
0100
,
1000
0001
0010
0100
,
0220
0000
0000
0330
,
2002
3003
0000
0000
,
1001
0000
0001
0000
0100
0000
0010
0100
,
0010
0000
1000
0000
0001
0000
0010
0001
,
0010
0001
0100
0010
,
1000
0000
0001
0000
0100
0000
0010
0100
,
0010
0000
1000
0000
0001
0000
1000
0100
,
1000
0000
0001
0000
0010
0000
0001
0010
,
0001
1000
2002
3003
,
0020
1000
0001
1030
,
1001
0000
0001
0000
0010
0000
0001
0010
,
0100
0000
0010
0000
0001
0000
1000
0010
,
0100
0010
0100
1000
,
0100
0000
0001
0000
1000
0000
0100
1000
,
0100
0000
0010
0000
0100
0000
0010
0001
,
1000
0000
0001
0000
0100
0000
0001
0100
,
0001
1000
0220
0330
,
1000
0001
0220
0330
,
1001
0000
0010
0000
0001
0010
0001
0000
,
1000
0000
0100
0000
1000
0000
0001
0100
,
0001
0000
0100
0000
0010
0000
1000
0010
,
1000
0001
0220
0330
,
0010
0000
1000
0000
0001
0010
0100
0000
,
0010
0000
0001
0000
1000
0010
1000
0010
,
1000
0001
0202
0303
,
0001
0100
0001
0000
1000
0100
1000
0000
,
0001
0000
0010
0000
0100
0010
0001
0000
,
1000
0000
0010
0000
0100
0001
0100
0000
,
0010
0000
1000
0000
0001
0000
0010
0001
,
0010
0000
0001
0000
0100
0010
0100
0010
,
0200
0001
0010
0302
,
2003
0100
0010
3002
,
0013
0000
0001
0010
0000
0010
0001
0000
,
1000
0000
0010
1000
0000
1000
0001
0000
,
0100
0000
0010
0000
1000
0001
1000
0001
,
0020
0000
0000
0030
,
0001
0100
0001
0000
1000
0100
1000
0000
,
0001
0010
0001
0000
2001
0000
3100
0000
,
1000
0010
0100
0000
0001
0010
0100
0000
,
0010
0001
0100
0000
0102
0000
0013
0000
,
0001
0010
0100
0000
0010
0000
1001
0000
,
0001
0100
0010
0000
0100
0000
1001
0000
,
0010
0200
0000
0000
0010
0000
0001
0000
,
0010
1000
0010
0301
,
0001
0100
0001
0000
1000
0010
1000
0000
,
0001
0000
0010
0001
2000
0000
3100
0000
,
1000
0010
0100
0000
0001
0100
0001
0000
,
1000
0000
0001
1000
0200
0000
1300
0000
,
1000
0100
0010
0000
0011
0000
1001
0000
,
1000
0010
0100
0000
0101
0000
0110
0000
,
1001
0000
0001
1000
0100
0000
1000
0002
,
2000
0000
0000
3003
,
0001
0100
0001
1000
,
0100
0000
1000
0100
1000
0000
0001
0000
,
0010
0001
0100
0010
,
1000
0000
0001
0100
0001
0000
1000
0010
,
1000
0001
0010
0110
,
0010
0001
1000
1001
,
0101
0000
0010
0000
1000
0001
1000
0000
,
1100
0000
1000
0000
0001
0010
0001
0000
,
0220
0000
0000
0000
0000
0000
0000
0330
;

//---------------dance-single - ----------------
#NOTES:
     dance-single:
     :
     Easy:
     4:
     0.334,0.432,0.137,0.196,0.000:
1000
0100
1000
0001
,
0100
0001
0010
0100
,
0220
0000
0000
0330
,
2002
3003
0000
0000
,
1000
0100
1000
1000
,
1000
0001
0100
0100
,
0200
0000
1000
0000
,
0010
0000
0001
0001
,
0301
0010
0100
0100
,
0100
0010
0001
0001
,
0001
1000
0001
0000
,
0220
0000
0000
0330
,
0010
1000
0100
0100
,
0010
0001
0100
0100
,
0002
0000
0010
0000
,
1000
0000
0100
0100
,
0103
0001
1000
1000
,
0100
0010
0100
0100
,
0010
0001
2002
3003
,
1000
0010
0220
0330
,
1001
0000
1000
0000
,
0001
0100
0001
0010
,
0100
0000
0010
0000
,
0001
1000
0001
0000
,
1000
0100
1000
0000
,
0001
0100
0001
0000
,
1000
0010
0100
0001
,
0010
0100
1000
0100
,
1000
0000
0001
0000
,
0100
0001
0100
0010
,
1000
0000
0010
0000
,
0220
0330
0100
0010
,
0100
0001
0100
0010
,
1000
0010
1000
0100
,
0010
0001
0010
0001
,
1000
0100
1000
0100
,
1000
0001
0100
0010
,
2002
0000
0000
3003
,
0001
0100
0001
0100
,
0010
0010
0010
0000
,
1000
0100
0010
0100
,
1000
1000
1000
0000
,
0001
0100
0010
1000
,
0001
0010
0100
1000
,
0100
0001
0100
1000
,
0010
0100
0001
1000
,
0001
0010
0001
1000
,
0100
0100
0100
0000
,
1000
0010
1000
0001
,
0100
0100
0100
0000
,
0010
0100
0010
1000
,
0001
0010
0100
0010
,
0110
0000
1001
0000
,
0220
0330
0010
0100
,
0001
0001
1000
1000
,
0001
0010
0100
0000
,
0001
0001
1000
1000
,
0100
1000
0010
0100
,
0001
0010
0100
0000
,
0010
0001
1000
0000
,
1001
0000
0001
0100
,
0110
0000
0010
1000
,
2002
0000
0000
0000
0000
0000
0000
3003
;

//---------------dance-single - ----------------
#NOTES:
     dance-single:
     :
     Beginner:
     1:
     0.170,0.213,0.137,0.000,0.000:
1000
0000
0001
0000
,
0100
0000
0010
0000
,
1001
0000
0110
0000
,
1001
0000
0000
0000
,
1000
0000
0000
0000
,
0001
0000
0000
0000
,
1000
0000
0001
0000
,
1000
0000
0001
0000
,
0100
0000
0000
0000
,
0010
0000
0000
0000
,
0100
0000
0010
0000
,
0100
0000
0000
0000
,
1001
0000
0000
0000
,
0110
0000
0000
0000
,
0010
0000
0100
0000
,
0001
0000
1000
0000
,
0110
0000
0000
0000
,
1001
0000
0000
0000
,
1000
0000
0001
0000
,
0100
0000
0000
0000
,
0001
0000
0001
0000
,
1000
0000
1000
0000
,
0100
0000
0010
0000
,
0110
0000
0000
0000
,
0100
0000
0100
0000
,
0010
0000
0010
0000
,
0001
0000
0000
0000
,
1000
0000
0000
0000
,
0001
0000
0100
0000
,
0010
0000
1000
0000
,
0100
0000
0010
0000
,
0001
0000
0000
0000
,
1000
0000
0000
0000
,
0001
0000
0000
0000
,
0100
0000
0100
0000
,
0010
0000
0010
0000
,
0110
0000
0000
0000
,
1001
0000
0000
0000
,
1000
0000
0100
0000
,
1000
1000
1000
0000
,
0001
0000
0100
0000
,
0001
0001
0001
0000
,
0100
0000
0010
0000
,
1000
0000
0001
0000
,
0010
0000
0100
0000
,
0010
0000
0001
0000
,
1000
0000
0100
0000
,
0010
0010
0010
0000
,
0001
0000
0100
0000
,
0010
0010
0010
0000
,
1000
0000
0001
0000
,
0100
0000
0010
0000
,
1001
0000
1001
0000
,
1001
0000
0000
0000
,
0001
0000
0100
0000
,
0010
0000
0000
0000
,
0010
0000
1000
0000
,
0001
0000
0000
0000
,
1000
0000
0100
0000
,
0010
0000
0001
0000
,
1000
0000
0010
0000
,
0100
0000
0001
0000
,
1001
0000
0000
0000
;
