#TITLE:Les Vague;
#SUBTITLE:;
#ARTIST:m@sumi;
#TITLETRANSLIT:;
#SUBTITLETRANSLIT:;
#ARTISTTRANSLIT:;
#CREDIT:;
#BANNER:Les Vague.png;
#BACKGROUND:Les Vague-bg.png;
#LYRICSPATH:;
#CDTITLE:;
#MUSIC:Les Vague.mp3;
#OFFSET:-6.620;
#SAMPLESTART:22.620;
#SAMPLELENGTH:10.670;
#SELECTABLE:YES;
#BPMS:0.000=100.000,10.000=180.000,182.000=90.000,196.000=180.000;
#STOPS:260.000=1.667
;
#BGCHANGES:;

//---------------dance-single - ----------------
#NOTES:
     dance-single:
     :
     Hard:
     9:
     0.697,0.860,0.383,0.258,0.221: // measure 1
0000
0000
1000
0010
0010
0010
0100
0010
,  // measure 2
1000
0100
0100
0100
0010
0001
0100
0010
,  // measure 3
1000
0100
1000
0001
1001
0000
1000
0100
,  // measure 4
0000
0010
0100
0010
0001
0000
0100
0010
,  // measure 5
1000
0000
0001
0010
0000
0010
0001
1000
,  // measure 6
0010
0100
0001
0001
1000
0100
1000
0010
,  // measure 7
0000
0110
0000
0101
0000
0001
1000
0100
,  // measure 8
0010
0001
1000
0001
0000
1001
0000
0101
,  // measure 9
0000
0010
1010
0000
0002
0103
0010
2000
,  // measure 10
3100
0010
0001
2000
3100
0002
0103
0010
,  // measure 11
0110
0000
2001
0000
3100
0010
0001
0100
,  // measure 12
0000
0100
0010
1000
0001
0010
0100
0001
,  // measure 13
0100
0000
0010
0001
0000
0001
0100
0010
,  // measure 14
0000
1000
0010
0100
0101
0000
0202
0000
,  // measure 15
0303
0001
1000
0000
1000
0100
0010
0100
,  // measure 16
0000
0010
0001
0100
0010
1000
0001
0100
,  // measure 17
0000
0010
0100
0001
0000
0010
0100
2000
,  // measure 18
0000
0000
3001
0000
1000
0001
0100
0010
,  // measure 19
0100
0000
1001
0000
0001
0100
0010
2000
,  // measure 20
0000
3100
0010
0001
0100
0010
0100
0001
,  // measure 21
1000
0000
0001
1000
0000
0100
1000
0001
,  // measure 22
0000
0100
0010
0100
0101
0000
0202
0000
,  // measure 23
0303
0001
1000
0100
0010
0010
0001
1000
,  // measure 24
0000
0010
0100
0010
1000
0100
0010
0002
,  // measure 25
0000
0103
0010
2000
0000
3010
1000
0002
,  // measure 26
0000
0000
1000
0000
0100
0100
0103
0000
,  // measure 27
1000
0100
1000
0001
0100
0001
1000
0010
,  // measure 28
1000
0001
0010
0001
0100
0100
0010
1000
,  // measure 29
0100
0010
0001
0100
0010
1000
0100
0010
,  // measure 30
0002
0000
0000
0000
0003
0000
1000
0001
1000
0000
0000
0000
0101
0000
0000
0000
,  // measure 31
0010
1000
0001
1000
0100
0000
0010
0000
,  // measure 32
1001
0000
1000
0100
0010
0100
1000
0000
,  // measure 33
0001
0100
1000
0001
0010
1000
0001
0100
,  // measure 34
1000
0001
0010
1000
0001
0001
1000
0100
,  // measure 35
0001
1000
0010
0001
1000
0100
0001
1000
,  // measure 36
0010
0000
0001
0000
1000
0000
1000
0000
0001
0000
0000
0001
0100
0000
0010
0000
,  // measure 37
0000
0010
1000
0000
0100
0000
0000
0100
0010
0000
0001
0000
0000
0001
1000
0000
,  // measure 38
0010
0100
0010
0000
1000
0001
1000
0000
1002
0000
0000
0000
0000
0000
0000
0000
,  // measure 39
1000
0000
1000
0000
,  // measure 40
0100
0000
0000
0100
0000
0000
0100
0000
0203
0000
0000
0000
0000
0000
0000
0000
,  // measure 41
0020
0000
0330
0110
,  // measure 42
2002
0000
3003
0000
1000
0100
1000
0100
,  // measure 43
0000
0001
0100
0001
0000
0100
1000
0001
,  // measure 44
1001
0000
0000
1001
0000
0000
1001
0000
1000
0000
0100
0000
0010
0000
0000
0001
,  // measure 45
0100
0000
0010
0000
1000
0001
1000
0001
0200
0000
0000
0000
0000
0000
0000
0000
,  // measure 46
0000
0000
0000
0000
0000
0000
0000
0000
0300
0000
0000
0000
0000
0000
0000
0000
0010
0000
0000
1000
0000
0000
0010
0000
0100
0000
0000
0001
0000
0000
0100
0000
,  // measure 47
0001
0000
0000
1000
0000
0000
0001
0000
0020
0000
0000
0000
0000
0000
0000
0000
0031
0000
0000
1000
0000
0000
0100
0000
0010
0000
0000
0001
0000
0000
0100
0000
,  // measure 48
0010
0000
0000
1000
0000
0000
0001
0000
1000
0000
0000
0010
0000
0000
0100
0000
0110
0000
0000
0100
0000
0000
0001
0000
1000
0000
0000
0001
0000
0000
1100
0000
,  // measure 49
1100
0000
0000
1000
0000
0000
0100
0000
0010
0000
0000
0001
0000
0000
1000
0000
1001
0000
0000
0000
0000
0000
0000
0000
0110
0000
0000
0000
0000
0000
0000
0000
,  // measure 50
1001
0000
0101
0000
1010
0000
1100
0000
0011
0000
1001
0000
,  // measure 51
1000
0100
0010
0100
0000
0100
1000
0010
,  // measure 52
0100
0001
0100
0010
0000
0010
0100
0001
,  // measure 53
0010
0100
0010
0001
0000
0001
1000
0010
,  // measure 54
0100
0000
0000
0001
0000
0000
0100
0000
0010
0000
0000
1000
0000
0000
0001
0000
,  // measure 55
1000
0000
0100
1000
0100
0000
0010
0000
0001
0000
0100
0000
0010
0000
1000
0000
,  // measure 56
0001
0000
0100
0001
0100
0000
0010
0000
0100
0000
0001
0000
1000
0000
0100
0000
,  // measure 57
1000
0100
1000
0000
0001
0100
0001
0000
1000
0010
0100
0000
0001
0010
0100
0000
,  // measure 58
1100
0000
1000
0010
0100
0001
0010
0002
,  // measure 59
0000
0103
0001
1000
0100
0010
0100
1000
,  // measure 60
0010
0000
0100
0010
1000
0001
0100
0020
,  // measure 61
0000
1030
0100
1000
0001
0001
1000
1000
,  // measure 62
1001
0000
0001
0100
0010
0100
1000
0200
,  // measure 63
0000
0310
0100
0001
0010
0100
0010
0001
,  // measure 64
1000
0000
0001
0010
0100
0001
0100
0020
,  // measure 65
0000
0000
0031
0000
0100
0000
0010
0000
1000
0000
0001
0000
0100
0010
0100
0010
,  // measure 66
0100
0000
1000
0010
0001
0010
1000
0100
,  // measure 67
0010
0001
0000
0010
0001
0101
0000
0100
,  // measure 68
0001
1000
1001
0000
2002
0000
3003
0000
,  // measure 69
1100
0000
1001
1001
0000
0101
0000
0010
,  // measure 70
0100
0001
1000
0100
0010
0100
0001
0100
,  // measure 71
1000
0001
1000
0010
0001
0020
0000
0100
,  // measure 72
0130
0010
1000
0001
1000
0001
1000
0100
,  // measure 73
0001
1000
0010
0001
0001
0100
1000
0001
,  // measure 74
0010
0000
1000
0000
0001
1000
0001
0000
1000
0000
0001
0000
0011
0000
0000
1100
,  // measure 75
0000
0000
1010
0000
0000
0101
0000
0000
0001
0010
0100
1000
0000
0000
0000
0000
,  // measure 76
2002
0000
0000
0000
,  // measure 77
0000
0000
3003
0000
;

//---------------dance-single - ----------------
#NOTES:
     dance-single:
     :
     Medium:
     7:
     0.518,0.542,0.283,0.225,0.037:
0000
0000
1000
0000
0000
0001
0000
0100
,
0001
0000
0000
1000
0000
0100
1000
0000
,
0000
0001
1000
0001
1001
0000
1000
0100
,
0000
0010
0001
0000
1000
0001
1000
0000
,
0001
0000
0100
0010
0000
1000
0001
0000
,
1000
0100
1000
0100
1000
0000
0001
0010
,
0000
0010
0001
0000
1000
0010
0100
0000
,
0001
0000
1000
0010
0000
0100
0001
0000
,
1000
0001
1000
0000
0101
0000
0000
1010
,
0000
0000
1000
0001
0000
1001
0000
0001
,
1000
0000
0010
0000
1000
0002
0000
0010
,
0000
0100
0103
0000
0001
0100
0001
0000
,
1000
0000
0100
0010
0000
0100
0010
0001
,
0000
1000
0001
0000
1001
0000
2002
0000
,
3003
0000
0101
0000
0010
2000
0000
0010
,
0000
0100
3100
0000
1000
0100
0010
0001
,
0000
0010
0001
0100
0000
0010
1000
0002
,
0000
0010
1000
2000
,
3003
0000
1001
0000
0001
0100
0000
0010
,
0000
0100
0001
0000
1000
0100
1000
0100
,
0010
0000
0001
1000
0000
0001
1000
0001
,
0000
1000
0100
0000
1001
0000
2002
0000
,
3003
0000
1010
0000
0100
0001
0000
1000
,
0000
0001
0010
0000
0100
0010
0100
0010
,
0000
0001
1000
0001
0000
0100
0010
0200
,
0000
0000
0301
0000
0100
0001
1000
0000
,
0001
0000
0001
0100
0000
0100
0010
0000
,
0010
1000
0000
1000
0001
0000
1000
0000
,
1000
0100
0000
0100
0010
0000
0010
0001
,
1000
0000
0001
0000
1001
0000
1000
0010
,
0100
0001
1000
0100
,
0010
0000
0100
0000
0010
0001
1000
0000
,
0001
0000
0001
0100
0000
0100
0010
0000
,
0010
1000
0000
1000
0001
0000
1000
0000
,
1000
0100
0000
0100
0010
0000
0010
0001
,
0000
0001
1000
0000
1100
0000
0000
0110
,
0000
0000
0011
0000
0000
1001
0000
0000
,
1000
0010
0100
0001
2000
0000
0000
0000
,
0001
0000
0001
0000
,
0001
0000
0000
0001
0000
0000
0001
0000
3002
0000
0000
0000
0000
0000
0000
0000
,
2000
0000
3003
0110
,
2002
0000
3003
0000
1000
0100
0010
0001
,
0000
0010
0001
0100
0000
0001
0100
0000
,
0001
0000
0000
1000
0000
0000
0001
0000
1000
0000
0000
0000
1100
0000
0000
0000
,
1000
0100
0010
0001
0200
0000
0000
0000
,
0000
0300
0001
0100
,
0001
0002
1003
0100
,
0010
0000
0000
0000
0100
0000
0000
0000
2002
0000
0000
0000
3003
0000
0000
0200
,
0020
0330
1001
0110
,
1100
0000
0100
0000
0010
0000
1001
0000
1001
0000
1001
0000
,
1000
0000
0001
0100
0000
0010
0100
0001
,
1000
0000
0100
1000
0100
0000
1000
0000
,
0001
0000
1000
0100
0000
0010
0001
0100
,
0001
0000
1000
0001
0100
0000
0110
0000
,
0010
1000
1000
0010
1000
0000
0001
0000
,
1000
0001
0001
0010
0001
0000
0100
0000
,
0010
0100
0010
0100
0001
1000
0001
1000
,
0100
0000
0010
0000
0001
0000
1000
0010
,
0000
0100
0001
0000
1000
0100
0010
0001
,
0100
0000
0001
0000
0100
0000
0010
1000
,
0000
0001
1000
0000
1000
0100
1000
0001
,
0100
0000
0001
0010
0001
0000
0100
0010
,
0000
1000
0100
0000
0010
0100
1000
0100
,
0010
0000
0001
0100
0010
0000
0100
0001
,
0000
1000
0100
0010
0001
0100
0002
0000
,
1003
0000
1000
0001
1000
0001
1000
0000
,
0001
0100
0000
0001
0100
0010
0000
1000
,
0001
1000
0001
0000
2002
0000
3003
0000
,
1100
0000
0010
0001
0000
0101
0000
0001
,
1000
0000
0010
0100
0001
1000
0000
0100
,
1000
0100
0000
1000
0001
0100
0000
0001
,
0100
0101
1001
1000
,
0001
1000
0000
0010
0100
0000
0001
0010
,
0000
0000
0100
0000
1000
0000
0100
0000
0010
0000
0001
0000
1000
0000
0000
1000
,
0000
0000
0001
0000
0000
0001
0000
0000
2002
0000
0000
0000
3003
0000
0000
0000
,
0220
0000
0000
0000
,
0000
0000
0330
0000
;

//---------------dance-single - ----------------
#NOTES:
     dance-single:
     :
     Easy:
     5:
     0.343,0.414,0.258,0.233,0.000:
0000
0000
1000
0000
0000
0100
0000
0000
,
0010
0000
0000
0001
0000
0000
0100
0000
,
0000
0010
0000
0000
1001
0000
0000
0000
,
1000
0100
1000
0000
,
0001
0000
0100
0001
,
0100
0000
1001
1000
,
0100
0010
0001
0000
,
0001
0100
0010
1000
,
0001
0000
0000
0000
1000
0000
0000
0001
,
0000
0000
2002
0000
0000
3003
0000
0000
,
1001
0000
0001
0000
,
0100
0001
0010
0100
,
0010
0000
0001
1000
,
0010
0100
0110
0220
,
0330
0100
0010
0000
,
1000
0010
1000
0100
,
0010
0100
0010
0001
,
0100
0000
0001
1000
,
1001
0000
0001
0100
,
0010
1000
0100
1000
,
0001
0000
1000
0100
,
0010
0001
1001
2002
,
3003
1000
0010
0000
,
0100
0010
1000
0001
,
1000
0000
0001
0010
,
0100
0000
0010
0001
,
1000
0000
0000
1000
0000
0000
1000
0000
,
0000
1000
0000
0000
0100
0000
0010
0000
,
0000
0010
0000
0000
0010
0000
0000
0020
,
0000
0030
0000
0000
1001
0000
0000
0000
,
0001
0100
0010
1000
,
0001
0000
1000
0010
,
0100
0000
0000
0100
0000
0000
0100
0000
,
0000
0100
0000
0000
0100
0000
0001
0000
,
0000
0001
0000
0000
0001
0000
0000
0001
,
0000
0000
0001
0000
1001
0000
0000
1001
,
0000
0000
0110
0000
0000
0110
0000
0000
,
0001
1000
2002
0000
,
0000
0000
0000
0000
,
0000
3003
0220
0000
,
0000
0000
0330
1001
,
2002
3003
0001
0100
,
0002
1003
0100
0010
,
0001
1000
0001
0001
,
1000
0001
2002
0000
,
0000
3003
1000
0100
,
1000
0000
0001
0100
,
0001
1000
2002
3003
,
0220
0330
1001
0110
,
2002
0000
0000
3003
,
1000
0100
0010
0001
,
0100
0010
0100
0000
,
0010
0100
0001
1000
,
0100
0010
0001
1000
,
0001
0001
1000
0001
,
0100
0100
0010
1000
,
0100
0100
0010
0010
,
1001
0000
0001
0100
,
0010
0100
0001
1000
,
0100
0000
0010
0100
,
0010
0001
1000
0001
,
1001
0000
1000
0010
,
1000
0001
0100
0001
,
0010
0000
0100
0010
,
0001
1000
0100
0010
,
1001
1000
0010
1000
,
0000
0001
0100
0010
,
0100
1001
2002
3003
,
0001
0100
0001
0010
,
0100
0010
0001
1000
,
0100
0010
0100
1000
,
0010
0100
0001
1000
,
0000
1000
0000
0000
0001
0000
0000
0001
,
0000
0100
0010
0220
,
0000
0000
0330
0000
,
2002
0000
0000
0000
,
0000
0000
3003
0000
;

//---------------dance-single - ----------------
#NOTES:
     dance-single:
     :
     Beginner:
     2:
     0.164,0.219,0.200,0.000,0.000:
0000
0001
0000
0000
,
1000
0000
0000
0001
,
0000
0000
1001
0000
,
0000
0000
0000
0000
,
0001
0000
0000
0000
,
0000
0000
1000
0000
,
0100
0000
1000
0000
,
0001
0000
0100
0000
,
0001
0000
1001
0000
,
0000
0000
0000
0000
,
1000
0000
0100
0000
,
1000
0000
0000
0000
,
0001
0000
0100
0000
,
0001
0000
1001
1001
,
0000
0000
1000
0000
,
0100
0000
1000
0000
,
0001
0000
0000
0000
,
0100
0000
0000
0000
,
0010
0000
0100
0000
,
0001
0000
0000
0000
,
1000
0000
0001
0000
,
1000
0000
1001
1001
,
0000
0000
0001
0000
,
0100
0000
0000
0000
,
0010
0000
1000
0000
,
0001
0000
0000
0000
,
1001
0000
0000
0000
,
0000
0000
0000
0110
,
0000
0000
0000
0000
,
0000
0000
1001
0000
,
0000
1000
0000
0010
,
0000
0000
0100
0000
,
0110
0000
0000
0000
,
0000
0000
0000
1001
,
0000
0000
0000
0000
,
0000
0000
1000
0000
,
0000
0001
0000
0000
,
1001
0000
1001
0000
,
0000
0000
0000
0000
,
0000
0000
0000
0000
,
0000
0000
0000
0110
,
0110
0000
0010
0000
,
1000
0000
0001
0000
,
1000
0000
0100
0000
,
0010
0000
0001
0000
,
0000
0000
1000
0000
,
0000
0000
0001
0000
,
0100
0000
0010
0000
,
0010
0000
0100
0100
,
0100
0000
0000
0000
,
1001
0000
0001
0000
,
0100
0000
0001
0000
,
1000
0000
0100
0000
,
0010
0000
0000
0000
,
0100
0000
0010
0000
,
0100
0000
0010
0000
,
0001
0000
1000
0000
,
0001
0000
0001
0000
,
0100
0000
0100
0000
,
0010
0000
0010
0000
,
1000
0000
1000
0000
,
0001
0000
0100
0000
,
0001
0000
1000
0000
,
0100
0000
0010
0000
,
0001
0000
1000
0000
,
1001
0000
0000
0001
,
0000
0100
0000
0001
,
0000
1001
1001
0000
,
0000
1000
0000
0100
,
0000
0010
0000
0100
,
0000
0010
0000
0001
,
0000
1000
0000
1001
,
0000
0000
0110
0000
,
0000
1001
0000
0110
,
0000
0000
0000
0000
,
1001
0000
0000
0000
;
