#TITLE:KHAOS X4;
#SUBTITLE:;
#ARTIST:Poppy;
#TITLETRANSLIT:;
#SUBTITLETRANSLIT:;
#ARTISTTRANSLIT:;
#CREDIT:;
#BANNER:;
#BACKGROUND:;
#LYRICSPATH:;
#CDTITLE:;
#MUSIC:KHAOS X4.mp3;
#OFFSET:-0.360;
#SAMPLESTART:33.060;
#SAMPLELENGTH:10.900;
#SELECTABLE:YES;
#DISPLAYBPM:130.000:176.000;
#BPMS:0.000=176.000,192.000=175.000,200.000=172.000,204.000=171.000,208.000=166.000,256.000=130.000,286.000=176.000;
#STOPS:;
#BGCHANGES:;

//---------------dance-single - ----------------
#NOTES:
     dance-single:
     :
     Hard:
     9:
     0.643,0.638,0.321,0.174,0.060: // measure 1
0000
0000
0000
0000
,  // measure 2
0000
0000
0000
0000
,  // measure 3
0000
0000
0000
0000
,  // measure 4
0000
0000
0000
0000
,  // measure 5
1000
0100
1000
0100
0010
0001
0100
0000
,  // measure 6
0001
0100
0001
0100
0001
1000
0100
0000
,  // measure 7
1000
0100
0010
0001
0100
0001
0100
0000
,  // measure 8
0010
1000
0100
0020
0100
0100
0130
0000
,  // measure 9
0001
0100
0001
0100
0010
0000
0100
0010
,  // measure 10
0100
0001
0010
0000
0001
1000
0001
0000
,  // measure 11
1000
0010
1000
0010
0100
0000
0010
1000
,  // measure 12
0100
1000
0100
0010
0001
1000
1001
0000
,  // measure 13
0010
1000
0001
0010
0100
0000
0010
0001
,  // measure 14
1000
0010
0100
0000
0010
1000
0100
1000
,  // measure 15
0001
0001
0010
0100
0010
0001
1000
0010
,  // measure 16
0200
0000
0000
0000
0000
0000
0300
0010
,  // measure 17
0100
0010
0100
0000
1001
0000
0001
0010
,  // measure 18
0100
0000
0010
0000
0001
0000
0000
1000
0100
0000
1000
0000
0001
0000
1000
0000
,  // measure 19
0001
0100
0010
1000
0100
0010
0001
0100
,  // measure 20
0010
0000
0100
0000
0010
0000
0000
1000
0001
0000
1000
0000
0100
0000
1000
0000
,  // measure 21
0010
0100
0010
0000
1001
0000
0001
0010
,  // measure 22
0100
0000
0010
0000
0001
0000
0000
0010
0001
0000
1000
0000
0010
0000
0010
0000
,  // measure 23
0100
0010
0100
1000
0100
0001
1000
0100
,  // measure 24
0010
0001
1000
0000
1001
1001
1001
0000
,  // measure 25
1000
0100
0010
0100
1000
0000
0001
0100
,  // measure 26
0010
0100
0001
0000
1000
0010
1000
0000
,  // measure 27
0001
0100
1000
0100
0001
0000
1000
0100
,  // measure 28
0010
0001
0100
1000
0100
0001
0010
0100
,  // measure 29
0010
0001
1000
0001
0100
0000
0010
1000
,  // measure 30
0001
1000
0100
0000
1000
0100
0010
0100
,  // measure 31
1000
1000
0010
0100
0001
0010
0100
0010
,  // measure 32
0022
0000
0033
0000
,  // measure 33
1000
0010
1000
0001
0100
0000
0001
1000
,  // measure 34
0100
1000
0100
0020
0000
0031
0100
0010
,  // measure 35
0100
0001
1000
0010
1000
0000
0001
1000
,  // measure 36
0100
0001
0100
1000
0010
0001
0010
1000
,  // measure 37
0001
1000
0100
0010
0001
0010
0100
0010
,  // measure 38
0011
0000
1000
0001
0101
0000
0010
0100
,  // measure 39
0110
0000
0001
1000
0100
0010
0001
1000
,  // measure 40
0001
0100
0010
2000
0001
0001
3001
0000
,  // measure 41
1000
0010
1000
0000
0101
0000
0001
0100
,  // measure 42
0001
0000
1000
0000
0100
0000
0000
1000
0100
0000
0010
0000
0001
0000
0100
0000
,  // measure 43
0001
0100
0001
0100
1000
0100
1000
0100
,  // measure 44
0010
0000
0100
0000
0001
0000
0000
1000
0001
0000
1000
0000
0100
0000
0010
0000
,  // measure 45
0100
1000
0001
0000
0011
0000
0010
0001
,  // measure 46
1000
0000
0001
0000
0100
0000
0000
0010
0100
0000
0010
0000
1000
0000
0001
0000
,  // measure 47
0100
0100
0010
1000
0100
0010
0001
1000
,  // measure 48
0001
1000
0001
0000
0110
0110
0110
0000
,  // measure 49
1002
1000
0100
0100
,  // measure 50
1000
0010
1000
0103
,  // measure 51
1000
0100
1000
0100
0010
0001
0010
0001
,  // measure 52
2002
0000
3003
0000
1000
0010
1000
0001
,  // measure 53
0101
0110
1010
1001
,  // measure 54
1000
0100
0010
0100
0000
0010
0001
1000
,  // measure 55
0001
0100
0010
1000
0100
0010
0100
2000
,  // measure 56
0000
3001
0100
0010
1000
0001
1001
0000
,  // measure 57
1100
0000
0011
0000
1000
0010
0100
0000
,  // measure 58
0010
0100
0001
0100
0001
0010
0100
0010
,  // measure 59
0001
0000
1000
0001
0000
0100
0202
0000
,  // measure 60
0303
0001
0100
0010
1000
0100
1000
0100
,  // measure 61
1100
0101
1100
1001
,  // measure 62
1000
0010
0100
0002
0000
1003
0100
1000
,  // measure 63
0001
0000
0011
0000
0100
0001
0100
0010
,  // measure 64
1000
0100
0010
0002
0000
0103
0010
0100
,  // measure 65
0001
0100
0102
0013
,  // measure 66
0100
0000
1000
0000
1100
0000
1000
0100
,  // measure 67
1000
0001
0100
0220
,  // measure 68
0330
0000
1000
0100
0000
0100
0010
0000
0010
0001
0000
0000
,  // measure 69
2002
0000
0000
0000
,  // measure 70
0000
0000
0000
0000
,  // measure 71
3003
0000
0000
0000
,  // measure 72
0000
0000
0000
0000
0000
0000
0000
0000
1000
0100
1000
0000
0100
0000
0010
0000
,  // measure 73
0001
0100
0001
0000
0100
0000
0010
0000
1000
0010
1000
0000
0001
0010
0001
0000
,  // measure 74
1000
0001
1001
0000
0000
0000
0000
0000
;

//---------------dance-single - ----------------
#NOTES:
     dance-single:
     :
     Medium:
     7:
     0.488,0.503,0.174,0.147,0.000: // measure 1
0000
0000
0000
0000
,  // measure 2
0000
0000
0000
0000
,  // measure 3
0000
0000
0000
0000
,  // measure 4
0000
0000
0000
0000
,  // measure 5
0001
0100
0001
1000
,  // measure 6
0100
0000
0010
0000
0001
0100
0010
1000
,  // measure 7
0100
1000
0001
0100
,  // measure 8
0001
0100
0001
1000
0001
1000
0001
0000
,  // measure 9
1000
0100
0000
1000
0001
0000
0100
0001
,  // measure 10
0000
0100
0010
0000
1000
0000
0001
0000
,  // measure 11
1000
0001
0000
0010
0001
0000
0100
0010
,  // measure 12
0100
0110
0001
1001
,  // measure 13
0001
0010
0000
0001
0100
0000
0010
1000
,  // measure 14
0000
0100
1000
0000
0001
0100
0001
0000
,  // measure 15
1000
0100
1000
0000
0001
0000
0010
0001
,  // measure 16
0200
0000
0000
0300
,  // measure 17
0001
0010
0100
0000
0010
0000
0001
0000
,  // measure 18
1000
0001
1000
0000
0001
0100
0010
0000
,  // measure 19
1000
0100
1000
0100
1000
0000
0001
0000
,  // measure 20
0100
0010
0100
0000
0010
1000
0001
0000
,  // measure 21
1000
0100
0010
0000
0011
0000
1100
0000
,  // measure 22
1000
0010
0100
0000
0101
0000
1010
0000
,  // measure 23
0001
0100
0001
0100
0001
0000
1000
0000
,  // measure 24
0010
0100
0020
0000
1000
1000
1030
0000
,  // measure 25
1000
0001
0000
1000
0001
0000
0100
0010
,  // measure 26
0000
0100
0010
0000
1000
0001
1000
0000
,  // measure 27
0001
0010
0000
0100
1000
0000
0001
0010
,  // measure 28
0100
0010
0001
0000
1000
0010
0100
0000
,  // measure 29
0010
0100
0000
0001
0100
0000
0010
1000
,  // measure 30
0000
0001
1000
0000
1000
0100
0010
0000
,  // measure 31
0001
1000
0001
1000
0001
0000
0100
0001
,  // measure 32
0200
0000
0300
0000
,  // measure 33
0001
0000
0101
0000
1000
0010
1000
0000
,  // measure 34
0001
0000
1000
0100
0000
0010
0001
0000
,  // measure 35
1000
0100
1000
0000
0011
0000
0101
0000
,  // measure 36
0010
1000
0001
1000
0001
1000
0100
0000
,  // measure 37
0001
0010
0100
0000
0011
0000
1100
0000
,  // measure 38
2000
3010
0002
0103
,  // measure 39
1000
0010
1000
0001
0100
0000
0110
0000
,  // measure 40
0010
0100
0002
0000
0010
0010
0013
0000
,  // measure 41
0100
1000
0100
0000
1000
0000
0001
0000
,  // measure 42
0100
0010
0100
0000
0001
1000
0100
0000
,  // measure 43
0010
0001
1000
0001
0100
0000
0010
0000
,  // measure 44
1000
0010
1000
0000
0001
0000
0100
0000
,  // measure 45
0001
0010
0100
0000
0010
0000
0001
0000
,  // measure 46
1000
0100
0010
0000
0100
0000
1000
0000
,  // measure 47
0001
0100
0001
0100
0001
0000
0100
0000
,  // measure 48
0010
1000
0020
0000
0100
0100
0130
0000
,  // measure 49
0010
1000
0010
1000
,  // measure 50
0001
0010
0001
0010
,  // measure 51
1000
0100
0010
0001
,  // measure 52
0100
0000
0010
0000
1000
0001
1000
0001
,  // measure 53
1000
0100
1000
0001
,  // measure 54
0100
0000
0001
0100
0000
0010
1000
0001
,  // measure 55
1000
0000
0001
0000
0010
0000
0001
0100
,  // measure 56
0000
0100
0001
0000
1000
0100
0010
0000
,  // measure 57
0110
0000
0100
0000
0010
0001
1000
0000
,  // measure 58
0001
0000
0100
0000
0010
1000
0001
0100
,  // measure 59
0001
0000
1000
0010
0000
0010
1000
0000
,  // measure 60
0001
0100
0001
0000
1000
0100
0010
0000
,  // measure 61
1001
0000
0001
0000
0100
0010
0100
0000
,  // measure 62
0001
0000
1000
0100
0000
1000
0001
0000
,  // measure 63
0100
0000
0010
0000
1000
0000
0001
0010
,  // measure 64
0000
0010
0001
0200
0000
0310
0100
0000
,  // measure 65
2020
0000
3030
0000
1000
0100
1000
0000
,  // measure 66
2002
3003
0001
0100
,  // measure 67
0110
0010
1000
2002
,  // measure 68
0000
0000
3003
0000
,  // measure 69
0220
0000
0000
0000
,  // measure 70
0000
0000
0000
0000
,  // measure 71
0330
0000
0000
0000
,  // measure 72
0000
0000
0000
0000
0010
0100
0010
0000
,  // measure 73
1000
0001
1000
0000
0001
0100
0010
1000
,  // measure 74
0100
0010
0100
0000
0000
0000
0000
0000
;

//---------------dance-single - ----------------
#NOTES:
     dance-single:
     :
     Easy:
     5:
     0.414,0.436,0.440,0.302,0.000: // measure 1
0000
0000
0000
0000
,  // measure 2
0000
0000
0000
0000
,  // measure 3
0000
0000
0000
0000
,  // measure 4
0000
0000
0000
0000
,  // measure 5
1000
0100
1000
0001
,  // measure 6
0100
0010
0100
0001
,  // measure 7
0010
0100
0010
0001
,  // measure 8
1000
0001
1001
0110
,  // measure 9
1001
0001
0100
0001
,  // measure 10
1000
0100
0010
0000
,  // measure 11
0100
1000
0001
0100
,  // measure 12
0110
0110
1001
1001
,  // measure 13
0001
1000
0100
0010
,  // measure 14
0001
1000
0001
0000
,  // measure 15
1000
0010
0100
0001
,  // measure 16
2002
0000
3003
0000
,  // measure 17
0001
0010
0220
0330
,  // measure 18
1000
0010
0220
0330
,  // measure 19
1000
0100
0010
0001
,  // measure 20
0100
0010
0100
0000
,  // measure 21
0001
0100
2002
3003
,  // measure 22
1000
0100
2002
3003
,  // measure 23
1000
0100
0010
0100
,  // measure 24
1000
0001
1001
0110
,  // measure 25
1001
0001
0100
1000
,  // measure 26
0100
0001
1000
0000
,  // measure 27
0001
0010
1000
0010
,  // measure 28
0001
0001
1000
1000
,  // measure 29
0001
0100
0010
1000
,  // measure 30
0100
0010
0001
0000
,  // measure 31
1000
0001
1000
0010
,  // measure 32
0220
0000
0330
0000
,  // measure 33
0010
1000
0001
1000
,  // measure 34
0100
0010
0001
0010
,  // measure 35
0001
1000
0001
0100
,  // measure 36
0110
0110
1001
1001
,  // measure 37
1000
0100
1000
0001
,  // measure 38
0010
0010
0100
0100
,  // measure 39
0010
0001
1000
0010
,  // measure 40
0110
0110
2002
3003
,  // measure 41
1000
0100
0220
0330
,  // measure 42
0001
0010
0220
0330
,  // measure 43
1000
0001
0100
0010
,  // measure 44
1000
0010
2002
3003
,  // measure 45
0001
0100
2002
3003
,  // measure 46
1000
0100
2002
3003
,  // measure 47
0100
0010
0001
1000
,  // measure 48
0010
0100
1001
0110
,  // measure 49
2001
0001
0010
0010
,  // measure 50
0001
0001
0100
0100
,  // measure 51
3001
0100
0001
1000
,  // measure 52
0100
0010
1001
0110
,  // measure 53
1001
1000
0001
0100
,  // measure 54
0001
1000
0100
0100
,  // measure 55
0010
0100
0010
0001
,  // measure 56
1001
0000
0001
0100
,  // measure 57
1001
1000
0100
0010
,  // measure 58
0001
0100
0010
1000
,  // measure 59
0010
0000
0000
1000
0000
0000
1001
0000
,  // measure 60
0000
0001
1000
0010
,  // measure 61
1001
0100
0001
1000
,  // measure 62
0100
1000
0100
0010
,  // measure 63
0001
1000
0001
0100
,  // measure 64
0010
0100
0001
0100
,  // measure 65
2002
3003
0010
1000
,  // measure 66
0220
0330
0010
0001
,  // measure 67
1000
0001
0100
0220
,  // measure 68
0000
0000
0330
0000
,  // measure 69
2002
0000
0000
0000
,  // measure 70
0000
0000
0000
0000
,  // measure 71
3003
0000
0000
0000
,  // measure 72
0000
0000
1001
0100
,  // measure 73
1001
0010
1001
1001
,  // measure 74
0110
0110
0000
0000
;

//---------------dance-single - ----------------
#NOTES:
     dance-single:
     :
     Beginner:
     2:
     0.160,0.201,0.082,0.000,0.000: // measure 1
0000
0000
0000
0000
,  // measure 2
0000
0000
0000
0000
,  // measure 3
0000
0000
0000
0000
,  // measure 4
0000
0000
0000
0000
,  // measure 5
1000
0000
0001
0000
,  // measure 6
0100
0000
0010
0000
,  // measure 7
1000
0000
0001
0000
,  // measure 8
1001
0000
0000
0000
,  // measure 9
1000
0000
1000
0000
,  // measure 10
0100
0000
0000
0000
,  // measure 11
0010
0000
0010
0000
,  // measure 12
0100
0000
0000
0000
,  // measure 13
0001
0000
0001
0000
,  // measure 14
0100
0000
0000
0000
,  // measure 15
1000
0000
0001
0000
,  // measure 16
1001
0000
0000
0000
,  // measure 17
0001
0000
0000
0000
,  // measure 18
0100
0000
0000
0000
,  // measure 19
0001
0000
1000
0000
,  // measure 20
0100
0000
1000
0000
,  // measure 21
0001
0000
0000
0000
,  // measure 22
1000
0000
0000
0000
,  // measure 23
0001
0000
0010
0000
,  // measure 24
0100
0000
0010
0010
,  // measure 25
0010
0000
0001
0000
,  // measure 26
1000
0000
0000
0000
,  // measure 27
0010
0000
1000
0000
,  // measure 28
0001
0000
0100
0000
,  // measure 29
0001
0000
1000
0000
,  // measure 30
0100
0000
0000
0000
,  // measure 31
1000
0000
0001
0000
,  // measure 32
1001
0000
0000
0000
,  // measure 33
0001
0000
0100
0000
,  // measure 34
0001
0000
1000
0000
,  // measure 35
0100
0000
0000
0000
,  // measure 36
0010
0010
0010
0010
,  // measure 37
0010
0000
0001
0000
,  // measure 38
1000
0000
0001
0000
,  // measure 39
0100
0000
0000
0000
,  // measure 40
0110
0000
0000
0000
,  // measure 41
0001
0000
0000
0000
,  // measure 42
0100
0000
0000
0000
,  // measure 43
0001
0000
1000
0000
,  // measure 44
0100
0000
0010
0000
,  // measure 45
0001
0000
0000
0000
,  // measure 46
1000
0000
0000
0000
,  // measure 47
0001
0000
0100
0000
,  // measure 48
0010
0000
1000
1000
,  // measure 49
1000
0000
0000
0000
,  // measure 50
0001
0000
0000
0000
,  // measure 51
1000
0000
0001
0000
,  // measure 52
1000
0000
0001
0000
,  // measure 53
1001
0000
1000
0000
,  // measure 54
0100
0000
0010
0000
,  // measure 55
0001
0000
1000
0000
,  // measure 56
0001
0000
0000
0000
,  // measure 57
0100
0000
0001
0000
,  // measure 58
0100
0000
0010
0000
,  // measure 59
1000
0000
0000
0000
,  // measure 60
0001
0000
1000
1000
,  // measure 61
1000
0000
0001
0000
,  // measure 62
0010
0000
0100
0000
,  // measure 63
0010
0000
0001
0000
,  // measure 64
1000
0000
0001
0000
,  // measure 65
1001
0000
0000
0000
,  // measure 66
0110
0000
0000
0000
,  // measure 67
0001
0000
0000
1001
,  // measure 68
0000
0000
0000
0000
,  // measure 69
1001
0000
0000
0000
,  // measure 70
0000
0000
0000
0000
,  // measure 71
0000
0000
0000
0000
,  // measure 72
0000
0000
1000
0000
,  // measure 73
0001
0000
0100
0100
,  // measure 74
0100
0100
0000
0000
;
