#TITLE:Jump Around;
#SUBTITLE:;
#ARTIST:House of Pain;
#TITLETRANSLIT:;
#SUBTITLETRANSLIT:;
#ARTISTTRANSLIT:;
#CREDIT:;
#BANNER:Jump Around.png;
#BACKGROUND:Jump Around-bg.png;
#LYRICSPATH:;
#CDTITLE:;
#MUSIC:Jump Around.mp3;
#OFFSET:-6.890;
#SAMPLESTART:47.000;
#SAMPLELENGTH:13.470;
#SELECTABLE:YES;
#DISPLAYBPM:107.000;
#BPMS:0.000=106.900;
#STOPS:;
#BGCHANGES:-12.250=Jump Around.avi=1.000=0=0=1,
198.000=Jump Around-bg.png=1.000=1=0=1,
99999=-nosongbg-=1.000=0=0=0 // don't automatically add -songbackground-
;

//---------------dance-single - ----------------
#NOTES:
     dance-single:
     :
     Hard:
     6:
     0.389,0.343,0.445,0.132,0.021: // measure 1
2001
0000
3100
0000
1000
0001
0100
0000
,  // measure 2
0102
0000
1003
0000
1000
0100
0010
0000
,  // measure 3
0120
0000
0031
0000
0001
0100
0010
0000
,  // measure 4
2001
0000
3010
0000
1000
0100
0010
0010
,  // measure 5
0100
0000
0010
0000
0001
1000
0001
0000
,  // measure 6
1000
0100
1000
0001
0100
0000
0101
0000
,  // measure 7
0001
0100
0010
0000
1000
0010
0100
0000
,  // measure 8
0001
0000
1000
0000
0100
0100
0010
0000
,  // measure 9
1001
0000
0110
0000
1000
0001
0100
0000
,  // measure 10
0010
1000
0100
0000
0010
0100
0010
0000
,  // measure 11
0001
1000
0001
1000
0010
0100
0010
0000
,  // measure 12
1000
0100
1000
0000
0001
0100
0001
0001
,  // measure 13
1000
0000
0101
0000
1000
0010
0100
0000
,  // measure 14
0001
0000
1100
0000
0001
1000
0100
1000
,  // measure 15
0001
0000
0000
0001
0000
0000
0001
0000
1000
0000
0000
0000
0001
0000
0010
0000
,  // measure 16
0001
1000
0100
0000
1000
0001
0100
0000
,  // measure 17
0010
0000
1000
0001
0000
0000
0000
0000
0010
0000
0001
1000
0000
0000
0000
0000
,  // measure 18
0010
1000
0001
0000
2002
0000
3003
0000
,  // measure 19
1001
0000
1000
0100
0010
0001
0100
0000
,  // measure 20
0101
0000
0001
0100
0010
1000
0100
0000
,  // measure 21
1100
0000
1000
0010
0100
0010
1000
0000
,  // measure 22
1001
0000
0011
0000
0220
0000
0330
0011
,  // measure 23
0000
0011
0000
1100
0000
1100
0000
1010
,  // measure 24
0000
0101
0000
0011
0000
1000
0100
0010
,  // measure 25
0000
0110
0000
1100
0000
1010
0000
0110
,  // measure 26
0000
1010
0000
1001
0000
0001
0100
0010
,  // measure 27
1000
0000
0001
0000
0100
0010
0100
0000
,  // measure 28
0010
1000
0001
0010
0100
0000
0110
0000
,  // measure 29
0010
0001
1000
0000
0001
0100
0010
0000
,  // measure 30
1000
0010
0100
0010
1000
0001
1000
0000
,  // measure 31
0001
0100
0001
0000
1000
0100
1000
0000
,  // measure 32
0001
0010
0100
0010
0001
0000
1001
0000
,  // measure 33
1000
0010
1000
0000
0001
0000
0100
0010
,  // measure 34
0100
0010
0100
0000
0220
0000
0330
0000
,  // measure 35
1001
0000
0001
0010
0001
1000
0100
0000
,  // measure 36
1100
0000
1000
0000
0010
0100
0001
0001
,  // measure 37
1000
0000
0001
0000
0010
0001
0100
0000
,  // measure 38
0010
1000
0001
1000
0001
1000
0100
0000
,  // measure 39
1000
0000
0001
1000
0000
0000
0000
0000
0001
0000
1000
0001
0000
0000
0000
0000
,  // measure 40
0001
0100
0010
0000
2002
0000
3003
0000
,  // measure 41
1100
0000
1000
0001
0100
0001
0100
0000
,  // measure 42
0101
0000
0010
1000
0001
1000
0001
0000
,  // measure 43
1001
0000
1000
0100
0010
0001
0100
0000
,  // measure 44
1001
0000
0110
0000
2002
0000
3003
1001
,  // measure 45
0000
0011
0000
0101
0000
1010
0000
1100
,  // measure 46
0000
0110
0000
1001
0000
0001
0100
0010
,  // measure 47
0000
1010
0000
0101
0000
0011
0000
1100
,  // measure 48
0000
1001
0000
2001
0000
0001
0000
0001
,  // measure 49
0002
0000
0000
0000
,  // measure 50
3003
0000
0000
0000
;

//---------------dance-single - ----------------
#NOTES:
     dance-single:
     :
     Medium:
     5:
     0.363,0.323,0.362,0.214,0.000: // measure 1
2002
0000
3003
0000
0001
0100
0010
0000
,  // measure 2
0220
0000
0330
0000
0010
1000
0100
0000
,  // measure 3
0022
0000
0033
0000
1000
0001
0100
0000
,  // measure 4
0202
0000
0303
0000
0010
1000
0001
0000
,  // measure 5
1000
0000
0100
0000
1000
0001
0100
0000
,  // measure 6
0010
0000
0100
0000
0001
1000
0100
0000
,  // measure 7
0010
0001
0001
0000
0100
0010
1000
0000
,  // measure 8
0001
0000
1000
0000
0001
0100
0010
0100
,  // measure 9
0001
0000
0101
0000
1000
0100
1000
0000
,  // measure 10
0001
0000
0010
0000
0100
0010
0001
1000
,  // measure 11
0001
0000
0100
0000
0010
1000
0001
0000
,  // measure 12
0100
0010
1000
0000
0001
0010
0001
0010
,  // measure 13
0100
0000
0100
0000
0010
0001
0100
0000
,  // measure 14
0010
1000
0001
0000
1000
0100
1000
0100
,  // measure 15
1000
0000
0001
0000
0100
0010
0100
0000
,  // measure 16
0001
0000
1000
0000
0001
0010
0100
0000
,  // measure 17
0012
1003
2010
3001
,  // measure 18
0001
0100
0010
1000
0001
0000
1000
0100
,  // measure 19
0020
0000
0001
0000
0100
0000
0031
1000
,  // measure 20
0020
0000
0100
0000
1000
0000
0130
0001
,  // measure 21
2000
0000
0010
0000
0001
0000
3100
1000
,  // measure 22
0001
0000
1000
0000
2002
0000
3003
0100
,  // measure 23
0000
0110
0000
0110
0000
1001
0000
1001
,  // measure 24
0000
0011
0000
0011
0000
1100
0000
1100
,  // measure 25
0000
1010
0000
1010
0000
0101
0000
0101
,  // measure 26
0000
1001
0000
0110
0000
1001
0000
0010
,  // measure 27
0100
0000
0001
0000
1000
0100
1000
0000
,  // measure 28
0001
0010
0001
0100
0010
0000
0100
0000
,  // measure 29
0010
1000
0001
0000
0010
1000
0001
0000
,  // measure 30
1000
0100
0010
0001
0010
0000
0001
0000
,  // measure 31
0100
0001
0100
0000
0001
0000
1001
0000
,  // measure 32
1000
0100
0010
0000
0100
0000
1001
0000
,  // measure 33
0001
0100
0001
0000
1000
0010
1000
0000
,  // measure 34
0001
1000
0100
0000
0220
0000
0330
0000
,  // measure 35
0010
0000
0001
0000
1000
0010
1000
0000
,  // measure 36
0001
0000
0100
0000
0010
0100
0010
0100
,  // measure 37
0010
1000
0001
0010
,  // measure 38
0100
0000
0010
0001
0010
0000
0001
0000
,  // measure 39
2010
3001
0012
1003
,  // measure 40
0001
0100
0001
1000
0100
0000
0010
0100
,  // measure 41
0020
0000
0001
0000
0100
0000
0031
0010
,  // measure 42
0002
0000
0010
0000
1000
0000
0013
0001
,  // measure 43
2000
0000
0010
0000
0001
0000
3010
1000
,  // measure 44
0001
0000
0110
0000
2002
0000
3003
0001
,  // measure 45
0000
1001
0000
1001
0000
1100
0000
1100
,  // measure 46
0000
0101
0000
0101
0000
1010
0000
1010
,  // measure 47
0000
0011
0000
1100
0000
1010
0000
0101
,  // measure 48
0000
0110
0000
2001
0000
0001
0000
0001
,  // measure 49
0002
0000
0000
0000
,  // measure 50
3003
0000
0000
0000
;

//---------------dance-single - ----------------
#NOTES:
     dance-single:
     :
     Easy:
     4:
     0.278,0.323,0.263,0.354,0.000: // measure 1
2002
3003
0001
0100
,  // measure 2
0220
0330
0010
1000
,  // measure 3
2002
3003
1000
0100
,  // measure 4
0220
0330
0010
0001
,  // measure 5
1001
1000
0001
0000
,  // measure 6
0100
0010
1000
0001
,  // measure 7
0010
0100
0010
0000
,  // measure 8
0100
0010
0001
1000
,  // measure 9
0001
0100
0001
0000
,  // measure 10
1000
0010
1000
0001
,  // measure 11
0100
0001
1000
0001
,  // measure 12
1000
0100
0010
0000
,  // measure 13
2002
3003
0001
0100
,  // measure 14
0001
1000
0100
1000
,  // measure 15
0002
0003
1000
0010
,  // measure 16
0100
1000
0100
0001
,  // measure 17
2000
3000
2000
3000
,  // measure 18
0001
1000
2002
3003
,  // measure 19
0220
0330
0010
1000
,  // measure 20
2002
3003
0001
0010
,  // measure 21
0220
0330
0100
0010
,  // measure 22
0001
0000
1000
0000
2002
0000
3003
0100
,  // measure 23
0000
0100
0000
0100
0000
0010
0000
0010
,  // measure 24
0000
0001
0000
0001
0000
1000
0000
1000
,  // measure 25
0000
1001
0000
1001
0000
0110
0000
0110
,  // measure 26
0000
1001
0000
1001
0000
0110
0000
0010
,  // measure 27
0010
1000
0001
0000
,  // measure 28
1000
0100
0010
0000
,  // measure 29
0100
0010
0100
0010
,  // measure 30
0001
1000
2002
3003
,  // measure 31
0001
0100
0002
0003
,  // measure 32
1000
0001
0200
0300
,  // measure 33
0010
0010
1000
0001
,  // measure 34
1000
0100
0220
0330
,  // measure 35
1001
0001
0100
0001
,  // measure 36
1000
0100
1000
0100
,  // measure 37
1000
0000
1001
0000
,  // measure 38
0001
1000
1001
0000
,  // measure 39
2000
3000
2000
3000
,  // measure 40
0001
1000
2002
3003
,  // measure 41
2002
3003
0001
0010
,  // measure 42
0220
0330
0100
0010
,  // measure 43
2002
3003
0001
0100
,  // measure 44
0010
0000
1000
0000
2002
0000
3003
1000
,  // measure 45
0000
0100
0000
1000
0000
0010
0000
0100
,  // measure 46
0000
0001
0000
0010
0000
0001
0000
0100
,  // measure 47
0000
0010
0000
0100
0000
0001
0000
0010
,  // measure 48
0000
0110
0000
1001
0000
0110
0000
2002
,  // measure 49
0000
0000
0000
0000
,  // measure 50
3003
0000
0000
0000
;

//---------------dance-single - ----------------
#NOTES:
     dance-single:
     :
     Beginner:
     1:
     0.113,0.138,0.107,0.000,0.000: // measure 1
1001
0000
0000
0000
,  // measure 2
0110
0000
0000
0000
,  // measure 3
1001
0000
0000
0000
,  // measure 4
0110
0000
0000
0000
,  // measure 5
0010
0000
1000
0000
,  // measure 6
0001
0000
0100
0100
,  // measure 7
0100
0000
0010
0000
,  // measure 8
1000
0000
0001
0000
,  // measure 9
0100
0000
0100
0000
,  // measure 10
0010
0000
0000
0000
,  // measure 11
1000
0000
0001
0000
,  // measure 12
1000
0000
0100
0000
,  // measure 13
1000
0000
0000
0000
,  // measure 14
0001
0000
0000
0000
,  // measure 15
1000
0000
0001
0000
,  // measure 16
0100
0000
0001
0000
,  // measure 17
0001
0000
0001
0000
,  // measure 18
0001
0001
0001
0000
,  // measure 19
1001
0000
0000
0000
,  // measure 20
1001
0000
0000
0000
,  // measure 21
0110
0000
0000
0000
,  // measure 22
0010
0010
0010
0000
,  // measure 23
0100
0000
0000
0000
,  // measure 24
0010
0000
0000
0000
,  // measure 25
1000
0000
0000
0000
,  // measure 26
0001
0000
0000
0000
,  // measure 27
1001
0000
0000
0000
,  // measure 28
1000
0000
0100
0000
,  // measure 29
1000
0000
0001
0000
,  // measure 30
0100
0000
0100
0000
,  // measure 31
0010
0000
0000
0000
,  // measure 32
0100
0000
0001
0000
,  // measure 33
1000
0000
0000
0000
,  // measure 34
0001
0001
0001
0000
,  // measure 35
1001
0000
1000
0000
,  // measure 36
0100
0000
0010
0000
,  // measure 37
0100
0000
1000
0000
,  // measure 38
0100
0000
0010
0000
,  // measure 39
0001
0000
0001
0000
,  // measure 40
0001
0001
0001
0000
,  // measure 41
1001
0000
0000
0000
,  // measure 42
0110
0000
0000
0000
,  // measure 43
1001
0000
0000
0000
,  // measure 44
0100
0100
0100
0000
,  // measure 45
0010
0000
1000
0000
,  // measure 46
0001
0000
0100
0000
,  // measure 47
0001
0000
0010
0000
,  // measure 48
0100
0000
1000
0000
,  // measure 49
1001
0000
0000
0000
;

//---------------dance-single - ----------------
#NOTES:
     dance-single:
     :
     Challenge:
     8:
     0.528,0.444,0.280,0.206,0.333: // measure 1
1002
0000
0103
0001
1000
0100
0010
0001
,  // measure 2
0021
0000
0130
0010
0001
0100
0010
1000
,  // measure 3
1002
0000
0103
1000
0100
0001
0010
0100
,  // measure 4
0120
0000
0000
0000
0031
0000
1000
0000
0100
0000
1000
0000
0001
0000
1000
0100
,  // measure 5
1000
0001
0100
0000
0010
1000
0001
0000
,  // measure 6
0010
0001
0000
0001
0010
0000
0001
0000
1000
0000
0010
0100
0001
0000
0000
0000
,  // measure 7
1000
0000
0001
0100
0001
0000
1000
0000
0100
0000
0010
0100
1000
0000
0001
0000
,  // measure 8
1000
0000
0010
0100
0010
0000
1000
0000
0001
0000
0100
0000
1000
0000
0100
0000
,  // measure 9
0010
1000
0000
0000
0200
0002
0300
0003
1000
0000
0001
0010
0100
0000
0010
0000
,  // measure 10
0001
0000
1000
0000
0100
0010
0000
0000
0001
0000
1000
0000
0010
0100
0000
0000
,  // measure 11
0010
0000
1000
0100
0010
0000
0100
0000
0001
0000
0100
0000
0100
0000
0010
0001
,  // measure 12
1000
0000
0010
0000
0100
0000
0000
0000
0001
0100
0001
0100
0001
0000
1000
0000
,  // measure 13
0100
2000
0000
0000
3001
0000
0100
0000
0001
0000
1000
0100
1000
0000
0001
0000
,  // measure 14
2000
0000
0001
0000
3001
0000
1000
0010
0100
0000
0001
0000
0100
0000
0010
0000
,  // measure 15
1000
0100
0000
1100
0000
0000
0001
0100
0000
0001
0100
0000
0010
0000
1000
0001
,  // measure 16
1000
0000
0010
0000
0100
0000
0001
0000
1000
0100
0010
0002
0000
0000
0003
1000
,  // measure 17
0100
1000
0100
1000
0000
0000
0000
0001
0100
0001
0100
0001
0000
0000
0000
1000
,  // measure 18
0100
0000
0010
0000
0100
0000
1000
0002
2000
0000
0000
0000
3003
0000
0001
0100
,  // measure 19
0002
0000
0000
0000
1003
0000
0010
0000
0100
0000
0001
0000
1000
0000
0100
1000
,  // measure 20
0200
0000
0000
0000
1300
0000
0010
0000
0100
0000
1000
0000
0100
0000
0010
1000
,  // measure 21
0020
0000
0130
0001
0010
0100
0010
0001
,  // measure 22
1000
0000
0010
0001
0000
0010
1000
0000
2002
0000
0000
0000
3003
0000
0011
0000
,  // measure 23
0100
0000
1100
0000
0000
0000
1010
0000
0000
0000
0010
1000
0001
1000
0001
0000
,  // measure 24
0000
0011
0000
0101
0000
1010
1000
1001
,  // measure 25
0000
0000
0011
0000
0000
0000
1100
0000
0000
0000
0001
0100
0001
1000
0010
0000
,  // measure 26
0000
0101
0000
1010
0000
0110
0100
1001
,  // measure 27
1000
0000
0100
0000
0010
0000
0100
1000
0000
0010
0000
0100
0001
0000
0100
0000
,  // measure 28
1000
0000
0100
0000
0001
0000
1000
0000
0001
1000
0001
0200
0000
0000
0301
0000
,  // measure 29
1000
0000
0100
1000
0100
0000
0010
0000
0100
0010
0001
0000
1000
0000
0001
0000
,  // measure 30
0100
1000
0010
0001
1000
0001
0100
0000
,  // measure 31
0001
0000
1000
0000
0100
1000
0100
0000
0010
0000
0001
0000
0101
0000
0000
0000
,  // measure 32
0001
0000
1000
0000
0001
0100
0010
0000
1000
0000
0100
0000
1001
0000
0000
0000
,  // measure 33
1000
0000
0001
0000
0100
0010
0000
0100
0010
0000
1000
0000
0001
0000
0010
0000
,  // measure 34
0001
0000
0100
0000
0010
0000
1000
0000
0001
0100
0001
0100
0001
1000
0001
1000
,  // measure 35
0001
0000
1000
0100
1000
0000
0001
0000
0010
0000
0100
0000
0010
0000
0001
0000
,  // measure 36
1000
0000
0000
0000
0001
0000
0100
0000
0010
0000
1000
0001
1000
0000
0100
0000
,  // measure 37
1000
0000
0010
0000
0100
0000
0001
0000
0100
0000
1000
0100
0001
0000
1000
0000
,  // measure 38
0001
0000
0010
0000
0100
0000
0010
0000
0001
1000
0000
1000
0010
0000
0000
1000
,  // measure 39
0001
1000
0001
0100
0000
0000
0000
0001
1000
0001
1000
0100
0000
0000
0000
1000
,  // measure 40
0100
0000
0001
0000
0100
0000
0010
0002
2000
0000
0000
0000
3003
0000
1000
0100
,  // measure 41
0020
0000
0000
0000
0130
0000
0010
0000
0001
0000
0100
0000
0010
0000
1000
0010
,  // measure 42
0200
0000
0000
0000
1300
0000
0100
0000
0001
0000
1000
0000
0001
0000
0010
0001
,  // measure 43
0200
0000
0310
1000
0001
0010
0100
0010
,  // measure 44
0010
0000
0001
0010
0000
1000
0010
0000
0220
0000
0000
0000
0330
0000
0110
0000
,  // measure 45
0100
0000
1001
0000
0000
0000
0011
0000
0000
0000
1000
0100
0010
0001
0100
0000
,  // measure 46
0000
0101
0000
1010
0000
1001
0010
1100
,  // measure 47
0000
0000
0101
0000
0000
0000
0110
0000
0000
0000
0001
1000
0010
1000
0001
0000
,  // measure 48
0000
0000
1010
0000
0000
0000
0101
0000
0000
0000
1001
0000
0000
0000
1000
0001
,  // measure 49
0200
0000
0000
0000
,  // measure 50
0300
0000
0000
0000
;
