#TITLE:Je Me Casse;
#SUBTITLE:;
#ARTIST:Destiny;
#TITLETRANSLIT:;
#SUBTITLETRANSLIT:;
#ARTISTTRANSLIT:;
#CREDIT:;
#BANNER:Je Me Casse.png;
#BACKGROUND:Je Me Casse-bg.PNG;
#LYRICSPATH:;
#CDTITLE:;
#MUSIC:Je Me Casse.mp3;
#OFFSET:-0.020;
#SAMPLESTART:44.350;
#SAMPLELENGTH:12.850;
#SELECTABLE:YES;
#BPMS:0.000=112.000;
#STOPS:165.000=1.071
;
#BGCHANGES:0.000=Je Me Casse.avi=1.000=1=1=0,
213.000=Je Me Casse-bg.PNG=1.000=1=0=1,
99999=-nosongbg-=1.000=0=0=0 // don't automatically add -songbackground-
;

//---------------dance-single - ----------------
#NOTES:
     dance-single:
     :
     Hard:
     7:
     0.507,0.456,0.206,0.550,0.309: // measure 1
0000
0000
0000
0000
0000
0000
0000
0000
0000
1000
0001
1000
,  // measure 2
0002
0000
0010
0000
1000
0000
0103
0001
,  // measure 3
0200
0000
0000
0001
0000
0000
0310
0000
0000
0010
1000
0010
,  // measure 4
2000
0000
0010
0000
0001
0000
3100
1000
,  // measure 5
0002
0000
0000
0000
0010
0000
0000
0000
1003
0000
0000
0000
1000
0001
1000
0000
,  // measure 6
0200
0000
0000
0310
0000
0000
0010
0000
0002
0000
0000
1003
0000
0000
1000
0000
,  // measure 7
0200
0000
0000
1000
0000
0000
0310
0000
0000
1000
0100
1000
,  // measure 8
0200
0000
0001
0000
1300
0100
0010
0001
,  // measure 9
0100
0000
0000
0010
0000
0000
0100
0000
0000
0001
0000
0000
0001
0000
1000
0200
0000
0000
0000
0000
0000
0300
0000
0000
,  // measure 10
1000
0100
1100
1000
0001
0100
0020
0030
,  // measure 11
0100
0001
0101
0001
1000
0100
0020
0030
,  // measure 12
0001
1000
1001
0001
1000
0010
0200
0300
,  // measure 13
0001
0100
0100
0001
0002
0000
1003
0000
,  // measure 14
0002
0000
0010
0000
1003
0100
0010
0001
,  // measure 15
0200
0000
1000
0000
0010
0000
0301
0100
,  // measure 16
0001
0000
1000
0001
0000
1000
0001
0000
0200
0000
0000
0000
0301
0000
1000
0000
,  // measure 17
0100
0000
1000
0001
0000
1000
0001
0000
0020
0000
0000
0000
0031
0000
0000
0000
,  // measure 18
2010
0000
0000
0010
0000
0000
0010
0000
0000
0001
0000
0000
3001
0000
0000
0000
,  // measure 19
0102
0000
0000
0100
0000
0000
0100
0000
0000
1000
0000
0000
1003
0000
0001
0000
,  // measure 20
2000
0000
0010
0000
0001
0000
3100
1000
,  // measure 21
0002
0000
0100
0000
0100
0000
1000
0000
1003
0000
0000
0000
1000
0001
1000
0000
,  // measure 22
0001
0000
0000
0100
0000
0000
0001
0000
0000
0200
0000
0000
0000
0000
0310
0000
0000
0100
0001
0000
0000
1000
0000
0000
,  // measure 23
0100
0000
0000
0000
0010
0000
0000
0000
0000
0000
0010
0000
0100
0000
0000
0000
0000
0000
0010
0000
0000
0000
0000
0000
0001
0000
0000
0000
0000
0000
0100
0000
0000
0000
0000
0000
0001
0000
0000
0100
0000
0000
0001
0000
0000
0000
0000
0000
,  // measure 24
1000
0000
0000
1000
0000
0100
0000
0000
1000
0000
0000
0100
1000
0000
0000
0100
0000
0000
0010
0000
0000
0001
0000
0000
,  // measure 25
1000
0002
0000
0000
0103
0000
0000
0000
0001
2000
0000
0000
3100
0000
0000
0000
,  // measure 26
1000
0000
0000
0010
0000
0000
0100
0000
0000
0102
0000
0000
0000
0000
1003
0000
0000
1000
0100
0000
0000
1000
0000
0000
,  // measure 27
0100
0000
0000
0000
0010
0000
0000
0000
0000
0000
0100
0000
0010
0000
0000
0000
0000
0000
0001
0000
0000
0000
0000
0000
1000
0000
0000
0000
0000
0000
0001
0000
0000
0000
0000
0000
0100
0000
0000
0001
0000
0000
0100
0000
0000
0000
0000
0000
,  // measure 28
0010
0000
0000
1000
0000
0001
0000
0000
1000
0000
0000
0001
1000
0000
0000
0010
0000
0000
0100
0000
0000
0001
0000
0000
,  // measure 29
1000
0200
0000
0000
0310
0000
0000
0000
0010
0002
0000
0000
1003
0000
0000
0000
,  // measure 30
2001
0000
3200
0000
,  // measure 31
0320
0000
0032
0000
,  // measure 32
2000
0000
0000
3003
,  // measure 33
0220
0000
0000
0330
,  // measure 34
2002
0000
3003
0000
,  // measure 35
0110
0000
0220
0000
0000
0000
0330
0000
0000
0000
0000
0000
,  // measure 36
1100
0000
1100
0000
2200
0000
3300
0000
0000
0000
0000
0000
,  // measure 37
1001
0000
1000
0000
0100
0000
0220
0000
0000
0330
0000
0000
,  // measure 38
0202
0303
2020
3030
,  // measure 39
1000
0000
0000
0001
0000
0000
0000
0000
0000
0000
0000
0000
0100
0000
0000
0000
0000
0000
0010
0000
0000
0000
0000
0000
0110
0000
0000
0000
0000
0000
0000
0000
0000
0000
0000
0000
0010
0000
0000
0000
0100
0000
0000
0000
0010
0000
0000
0000
,  // measure 40
1000
0001
0000
0000
1000
0000
0100
0000
1100
0000
0000
0000
1000
0001
1000
0000
,  // measure 41
0001
0000
0000
0100
0000
0000
0000
0000
0000
0000
0000
0000
0010
0000
0000
0000
0000
0000
0100
0000
0000
0000
0000
0000
0101
0000
0000
0000
0000
0000
0000
0000
0000
0000
0000
0000
0001
0000
0000
0000
1000
0000
0000
0000
0001
0000
0000
0000
,  // measure 42
2000
0002
0000
0000
3003
0000
0000
0000
1000
0000
0000
1000
0100
0000
0010
0000
,  // measure 43
0100
0000
1000
0000
0010
0000
0100
0000
0001
0000
0000
0100
0001
0000
0100
0000
,  // measure 44
0010
0000
1000
0000
0100
0000
0010
0000
0001
0000
1000
0001
0000
1000
0001
0000
,  // measure 45
0200
0000
0000
0000
0310
0000
0100
0000
0001
0000
1000
0100
0000
1000
0100
0000
,  // measure 46
2000
0000
0000
0000
3010
0000
1000
0000
0002
0000
0000
0203
0000
0000
2300
0000
,  // measure 47
0000
3200
0000
0000
0301
0000
1000
0000
0002
0000
0000
0023
0000
0000
0230
0000
,  // measure 48
0000
2300
0000
0000
3001
0000
1000
0000
0001
0000
0000
0000
0101
0000
0000
0000
,  // measure 49
0010
1000
0100
0010
0100
0010
0001
1000
,  // measure 50
2002
0000
3003
0000
1000
0001
1000
0000
0001
0000
0100
0000
0010
0000
0200
0000
,  // measure 51
0000
0000
0301
0000
0000
0100
0001
0000
0000
1000
0000
0000
0100
0000
0010
0000
0000
0100
0010
0000
0000
0001
0000
0000
,  // measure 52
1000
0000
0000
0000
0000
0000
0001
0000
0000
0000
0000
0000
0100
0000
0000
0001
0000
0000
0100
0000
0000
0000
0000
0000
0020
0000
0000
0000
0000
0000
0000
0000
0000
0000
1030
0000
0000
0000
0000
0000
0010
0000
0000
0000
0000
0000
1000
0000
,  // measure 53
0001
1000
0100
0010
0100
0010
0001
2002
,  // measure 54
3003
0000
0000
0000
;

//---------------dance-single - ----------------
#NOTES:
     dance-single:
     :
     Medium:
     5:
     0.368,0.364,0.275,0.404,0.021:
0000
0000
0000
0000
0000
0000
0010
0100
,
0002
0000
0000
0000
1003
0000
1000
0100
,
0020
0000
0000
0000
0130
0000
0010
0001
,
0200
0000
0000
0000
0310
0000
0010
1000
,
0002
0010
2000
3003
,
1000
1100
0001
0101
,
1000
0000
1001
0000
0001
0000
0100
0010
,
0200
1000
0010
0301
,
1000
0100
1000
0000
0001
0100
0002
0003
,
0000
1000
2000
0000
0010
0000
3001
0000
,
0000
0001
0002
0000
0010
0000
1003
0000
,
0000
0100
0200
0000
0010
0000
0310
0000
,
0000
1000
0001
1000
0001
0000
0000
0000
,
1001
0000
1000
0000
1000
0000
1000
0001
,
0100
0000
0100
0000
0100
0000
0100
0010
,
1000
0000
0001
0000
0010
0000
0100
0010
,
0001
0000
0100
0000
0010
0000
1000
0010
,
1000
0101
0001
1100
,
0010
0000
1001
0000
0100
0000
0010
0100
,
0020
0000
1000
0000
0130
0000
0100
0010
,
0200
0000
0010
0010
0020
0000
0330
0000
,
1000
0100
1000
0000
0001
0000
0101
0000
,
1000
0010
0200
0000
0001
0001
0301
0000
,
0001
0010
0001
0000
1000
0000
1100
0000
,
0110
1001
0220
0330
,
0010
1000
0001
2000
0000
0100
3100
0000
,
1000
0100
0010
0000
0002
0000
1003
0000
,
0001
0100
0001
0200
0000
0010
0310
0000
,
0110
1001
0220
0330
,
1002
0000
0203
0000
,
0320
0000
2030
0000
,
0002
0000
0000
3003
,
0220
0000
0000
0330
,
2002
0000
3003
0000
,
1001
0000
2002
0000
0000
0000
3003
0000
0000
0000
0000
0000
,
1001
0000
1001
0000
2002
0000
3003
0000
0000
0000
0000
0000
,
1001
0100
0220
0330
,
2200
3300
0202
0303
,
0001
0000
1000
0000
1100
0000
1000
0100
,
1000
0000
0001
0000
0101
0000
0010
0010
,
1000
0000
0001
0000
1001
0000
1000
0001
,
0200
0300
1001
1000
,
0100
0000
0010
0100
1000
0000
0001
0000
,
0100
0000
0000
0000
0010
0000
1000
0000
0010
0000
0000
1000
0000
0000
0010
0000
,
2000
0000
0000
0000
3000
0000
0000
0000
0001
0000
0000
0010
0000
0000
0001
0000
,
0020
0030
0001
0100
,
1000
0010
0001
1000
,
0001
0100
0001
0100
0002
0000
0010
0000
,
1000
0000
0103
0000
1000
0001
1000
0001
,
2000
0000
3001
0000
1000
0100
1000
0002
,
0000
0100
0103
0000
0001
0000
0101
0000
,
0010
1000
0010
0000
1000
0100
1000
0002
,
0000
0010
0013
0000
0001
1000
0001
1000
;

//---------------dance-single - ----------------
#NOTES:
     dance-single:
     :
     Easy:
     4:
     0.290,0.295,0.206,0.404,0.000:
0000
0000
0000
1000
,
1002
0000
0103
0001
,
0020
0000
0130
0010
,
0002
0000
1003
0100
,
2000
0000
3001
0100
,
1000
1000
0100
0100
,
0010
0010
0100
0001
,
2000
0000
3100
0010
,
0001
0000
1000
0000
0001
0002
0003
0000
,
0000
1000
2000
0000
0001
0000
3001
0000
,
0000
0001
0002
0000
1000
0000
1003
0000
,
0000
1000
2000
0000
0001
0000
3001
0000
,
1000
0001
2002
3003
,
2002
3003
0001
1000
,
0001
0000
0100
0010
,
0100
0010
0220
0330
,
0010
1000
2002
3003
,
1000
0100
0010
0001
,
0100
0010
1000
0001
,
2002
0000
3003
0100
,
0200
0000
0020
0330
,
1000
0100
1000
1000
,
0001
0100
0110
1001
,
0001
0010
0100
1000
,
2001
0010
0002
3003
,
0001
0100
1000
0100
,
0010
1000
0110
1001
,
1000
0100
0010
0001
,
2000
0010
0002
3003
,
1001
0000
1000
0000
,
0100
0000
0010
0000
,
0002
0000
0003
0000
,
2002
0000
0000
3003
,
0220
0000
0330
0000
,
2002
0000
3003
0000
,
0220
0000
0330
0000
,
1001
0000
0100
0000
,
1001
0000
0010
0000
,
1000
0001
2002
3003
,
0001
0100
0220
0330
,
0010
1000
0001
1000
,
0200
0300
1000
0100
,
0100
1000
0002
0103
,
0001
1000
0001
1000
,
2002
3003
0100
0010
,
0220
0330
0010
1000
,
0100
0001
0100
1000
,
0001
1000
0002
0010
,
1000
0103
0010
0100
,
2002
3003
1000
0100
,
1000
1000
0001
0100
,
0010
0110
0100
0001
,
1000
0000
0100
0000
0010
0000
0100
0100
;

//---------------dance-single - ----------------
#NOTES:
     dance-single:
     :
     Beginner:
     1:
     0.131,0.159,0.103,0.000,0.000:
0000
0000
0000
0000
,
1001
0000
0000
0000
,
0001
0000
0000
0000
,
1000
0000
0000
0000
,
0001
0000
0000
0000
,
1000
0000
0100
0000
,
1000
0000
0010
0000
,
0100
0000
0000
0000
,
0010
0000
0000
0000
,
0110
0000
0000
0000
,
1001
0000
0000
0000
,
1001
0000
0000
0000
,
0010
0010
0010
0000
,
1000
0000
0000
0100
,
0100
0000
0000
0010
,
0010
0000
0000
0001
,
0001
0000
0000
0000
,
1000
0000
0001
0000
,
0100
0000
0010
0000
,
0100
0000
0000
0000
,
0010
0000
0110
0000
,
1000
0000
0100
0000
,
1000
0000
0001
0000
,
0100
0000
0010
0000
,
0100
0100
0100
0000
,
0001
0000
0100
0000
,
0010
0000
1000
0000
,
0100
0000
0010
0000
,
0001
0001
0001
0000
,
1001
0000
1000
0000
,
0100
0000
1000
0000
,
0001
0000
0000
0000
,
0110
0000
0000
0000
,
1001
0000
0000
0000
,
1001
0000
0000
0000
,
0110
0000
0100
0000
,
0001
0000
1000
0000
,
0001
0000
1000
0000
,
0100
0100
0100
0000
,
0010
0010
0010
0000
,
0100
0100
0100
0000
,
1001
0000
1000
0000
,
0000
0000
0001
0000
,
0000
0000
0100
0000
,
0010
0000
0100
0000
,
0001
0000
1000
0000
,
1000
0000
0100
0000
,
0100
0000
0010
0000
,
0001
0001
0001
0000
,
1001
0000
1000
0000
,
0100
0000
1000
0000
,
0001
0000
0100
0000
,
0010
0000
0100
0100
;
