#TITLE:INNOCENCE OF SILENCE;
#SUBTITLE:(Cube Hard's Not So Innocent Mix);
#ARTIST:nc ft NRG Factory;
#TITLETRANSLIT:;
#SUBTITLETRANSLIT:;
#ARTISTTRANSLIT:;
#CREDIT:;
#BANNER:;
#BACKGROUND:;
#LYRICSPATH:;
#CDTITLE:;
#MUSIC:INNOCENCE OF SILENCE (Cube Hard's Not So Innocent Mix).mp3;
#OFFSET:-0.020;
#SAMPLESTART:44.150;
#SAMPLELENGTH:11.030;
#SELECTABLE:YES;
#BPMS:0.000=174.000,64.000=87.000,80.000=174.000;
#STOPS:176.000=2.414
;
#BGCHANGES:;

//---------------dance-single - ----------------
#NOTES:
     dance-single:
     :
     Hard:
     9:
     0.650,0.840,0.258,0.250,0.423: // measure 1
0000
0000
0000
0000
,  // measure 2
0000
0000
0000
0000
,  // measure 3
0000
0000
0000
0000
,  // measure 4
0000
0000
0000
0000
,  // measure 5
1000
0000
0000
0000
0010
0000
0000
0100
0000
0000
0010
0000
0100
0000
0000
0000
,  // measure 6
0001
0000
0000
0000
0010
0000
0000
0100
0000
0000
0010
0000
0100
0000
0000
0000
,  // measure 7
0010
0000
0000
0000
0001
0000
0000
1000
0000
0000
0001
0000
0100
0000
0000
0000
,  // measure 8
0110
0000
0000
0000
0001
0000
0000
1000
0000
0000
0100
0000
0100
0000
0000
0000
,  // measure 9
1000
0000
0100
0000
1000
0000
0000
0001
0000
0100
0000
0001
0000
0000
0000
0000
,  // measure 10
1000
0000
0100
0000
0010
0000
0000
0001
0000
0100
0000
0010
0000
0000
1000
0000
,  // measure 11
0001
0000
0010
0000
0001
0000
0000
1000
0000
0100
0000
0010
0000
0000
0000
0000
,  // measure 12
0001
0000
0100
0000
0010
0000
1000
0010
0000
0100
0000
0001
0000
0000
1000
0000
,  // measure 13
0100
0000
0010
0000
0001
0000
0000
0001
0000
1000
0000
0001
0000
0000
0100
0000
,  // measure 14
0010
0000
1000
0000
0010
0000
1000
0100
0000
0010
0000
0001
0000
0000
0100
0000
,  // measure 15
0010
0000
1000
0000
0001
0000
0010
0001
0000
1000
0000
0100
0000
0000
1000
0000
,  // measure 16
0100
0000
1000
0000
0010
0000
0100
0010
0000
1000
0000
0001
0100
0000
0001
0000
,  // measure 17
1001
0000
1000
0020
0000
0000
0000
0000
0130
0000
0010
1000
0000
0001
0010
0001
,  // measure 18
0010
0100
0010
0002
0000
0000
0000
0000
1003
0001
1000
0100
0000
0010
0100
1000
,  // measure 19
0010
0100
0001
2000
0000
0000
0000
0000
3100
0010
0001
0010
0000
0001
0100
0001
,  // measure 20
1000
0010
0100
0002
0000
0000
0000
0000
1003
0100
1000
0010
0100
0001
0010
0001
,  // measure 21
0100
0000
0001
2000
0000
0000
3100
0000
,  // measure 22
1000
0000
0000
0000
0100
0000
0000
0010
0000
0010
0001
0000
0100
0000
0010
0000
,  // measure 23
0100
0000
0010
2000
0000
0000
3001
0000
,  // measure 24
0010
0000
0000
0000
0001
0000
1000
0010
0000
1000
0010
0000
0100
0000
0000
0000
,  // measure 25
0001
0000
1000
0200
0000
0000
1300
0000
,  // measure 26
0001
0000
0000
0000
0100
0000
0000
0010
0000
0010
0100
0000
0001
0000
0000
0000
,  // measure 27
1000
0000
0001
0100
0000
0100
0001
0000
,  // measure 28
1000
0000
0000
0000
0001
0000
1000
0001
1000
0000
0001
0000
1001
0000
0000
0000
,  // measure 29
1000
0100
1000
0020
0000
0100
0130
0000
,  // measure 30
0010
0100
0001
0010
0000
0010
0001
0100
,  // measure 31
0010
1000
0100
0020
0000
0001
0031
0000
,  // measure 32
0010
0001
1000
0100
0000
1000
0001
0100
,  // measure 33
1000
0100
0010
0200
0000
0001
0301
0000
,  // measure 34
1000
0100
0010
0001
0000
0010
0001
1000
,  // measure 35
0001
0100
0010
2000
0000
0100
3100
0000
,  // measure 36
1000
0100
0001
0100
1000
0010
0100
0001
,  // measure 37
0010
0001
1000
0020
0000
0130
0110
0000
,  // measure 38
0010
1000
0100
0010
0100
0010
0001
1000
,  // measure 39
0001
1000
0100
0020
0000
0031
0011
0000
,  // measure 40
0001
0100
0010
0001
0010
1000
0100
0010
,  // measure 41
0001
1000
0100
2000
0000
3010
1010
0000
,  // measure 42
1000
0010
0001
1000
0100
0010
1000
0100
,  // measure 43
0010
0001
1000
0010
0100
0001
0010
1000
,  // measure 44
0010
0001
1000
0001
0100
0010
1000
0001
,  // measure 45
2002
3003
0000
0000
0110
0000
0000
0000
0001
0000
0000
0000
1000
0000
0000
0000
,  // measure 46
0001
0000
0000
0000
1000
0000
0000
1001
0000
0000
0001
0000
0100
0000
0010
0000
,  // measure 47
1001
0000
0000
1000
0100
0000
0000
0000
0011
0000
0000
0000
0001
0000
0100
0000
,  // measure 48
0110
0000
0010
0000
1000
0002
0000
0103
,  // measure 49
0001
0000
0000
0000
1000
0000
0100
0000
1000
0000
0000
1100
0000
0000
0110
0000
,  // measure 50
0000
0011
0000
0000
0001
0000
0100
0000
0001
0000
0000
0101
0000
0000
0110
0000
,  // measure 51
0000
1010
0000
0000
1000
0000
0100
0000
0001
0000
0100
0000
1000
0000
0010
0000
,  // measure 52
0100
0000
0001
0000
0011
0000
0000
0000
0010
0000
0001
0000
1000
0001
0000
1000
,  // measure 53
0001
0000
1000
0100
0010
0010
0001
0100
,  // measure 54
0100
0010
1000
1000
0100
0010
0010
0001
,  // measure 55
1001
0000
1000
0000
0110
0000
0001
0010
,  // measure 56
0110
0000
0010
0000
0001
1000
0100
0010
,  // measure 57
0001
0000
0000
0000
1000
0000
0010
0000
0100
0000
0000
0110
0000
0000
1001
0000
,  // measure 58
0000
0110
0000
0000
0010
0000
1000
0000
0001
0000
0000
1001
0000
0000
0110
0000
,  // measure 59
0000
1001
0000
0000
0101
0000
0000
0000
0010
0000
1000
0000
0100
0000
0010
0000
,  // measure 60
0100
0000
1000
0000
0001
0000
0000
0000
0100
0000
0010
0000
1000
0001
0000
1000
,  // measure 61
0001
0000
0000
0000
1002
0000
0000
0000
0010
0000
0000
0010
0000
0000
1000
0000
,  // measure 62
0000
1000
0000
0000
1003
0000
0001
0100
0000
0001
0100
0000
0010
0000
1000
0000
,  // measure 63
1001
0000
0000
0000
1000
0000
0100
0000
0010
0000
0000
1000
0000
0100
0000
0010
,  // measure 64
0000
0000
1000
0000
0001
0000
0100
0000
0010
0000
0000
0001
0000
0100
0000
0010
,  // measure 65
0000
0001
1000
0100
1000
0010
0100
0001
,  // measure 66
0010
0000
0001
0100
0010
2000
0000
0100
,  // measure 67
3100
0000
0000
0000
1000
0000
0001
0000
0100
0000
0000
0001
0000
1000
0000
0100
,  // measure 68
0000
0000
1000
0000
0001
0000
0010
0000
0100
0000
0000
1000
0000
0010
0000
0100
,  // measure 69
0000
0000
0001
0000
0010
0000
0001
0000
0200
0000
0000
0320
0000
0000
2030
0000
,  // measure 70
0000
3200
0000
0000
1300
0000
0100
0000
0020
0000
0000
0032
0000
0000
2003
0000
,  // measure 71
0000
3002
0000
0000
0103
0000
0001
0000
0100
0000
0001
1000
0000
0001
0000
1000
,  // measure 72
0000
0000
0100
0000
0010
0000
0001
0000
0010
0000
0100
1000
0000
0001
0000
1000
,  // measure 73
0000
0001
0100
1000
0100
0010
1000
0100
,  // measure 74
0010
0010
0001
1000
0100
0020
0000
0001
,  // measure 75
0031
0000
0000
0000
0001
0000
0100
0000
0001
0000
1000
0010
0000
1000
0000
0010
,  // measure 76
0000
0000
0100
0001
0100
0000
0001
0000
1000
0000
0100
0010
0000
0001
0000
1000
,  // measure 77
0000
0000
0001
1000
0002
0000
0000
0000
0000
0000
0000
0000
0000
0000
0000
0000
,  // measure 78
0000
0000
1003
0100
1000
0100
0010
0001
,  // measure 79
0100
0010
2002
0000
0000
0000
0000
0000
,  // measure 80
0000
0000
0000
0000
,  // measure 81
0000
3003
0000
0000
;

//---------------dance-single - ----------------
#NOTES:
     dance-single:
     :
     Medium:
     6:
     0.484,0.485,0.201,0.209,0.020: // measure 1
0000
0000
0000
0000
,  // measure 2
0000
0000
0000
0000
,  // measure 3
0000
0000
0000
0000
,  // measure 4
0000
0000
0000
0000
,  // measure 5
2000
0010
0000
3001
,  // measure 6
0002
0100
0000
1003
,  // measure 7
0200
0010
0000
0301
,  // measure 8
0020
1000
0030
0110
,  // measure 9
0010
1000
0010
0000
0100
0000
0101
0000
,  // measure 10
0001
0010
0001
0000
1000
0000
1100
0000
,  // measure 11
1000
0001
0100
0000
0001
0000
1001
0000
,  // measure 12
0001
1000
0100
0000
1000
0000
0110
0000
,  // measure 13
0010
1000
0100
0000
0010
0001
0100
0000
,  // measure 14
0001
1000
0001
0000
1000
0010
1000
0000
,  // measure 15
0001
0100
0010
0000
1000
0100
0010
0000
,  // measure 16
0001
1000
0001
1000
0001
0100
0001
0000
,  // measure 17
2001
0000
3002
0000
,  // measure 18
0103
0000
0010
2000
0000
0000
0000
0000
3200
0000
0000
0000
0000
0000
0000
0000
,  // measure 19
0310
0000
0100
0020
0000
0000
0000
0000
0032
0000
0000
0000
0000
0000
0000
0000
,  // measure 20
1003
0000
0001
0200
0000
0000
0000
0000
0020
0000
0000
0000
0330
0000
0000
0000
,  // measure 21
1000
1002
0000
0103
,  // measure 22
0001
0000
0100
0000
0010
0100
0001
0000
,  // measure 23
1000
1200
0000
1300
,  // measure 24
1000
0000
0010
0000
0100
0010
0100
0010
,  // measure 25
1000
0102
0000
0013
,  // measure 26
0100
0000
0010
0000
0001
1000
0001
0000
,  // measure 27
0100
1020
0000
0130
,  // measure 28
0010
0000
0100
0001
1000
0001
0010
0000
,  // measure 29
1000
0000
0001
0200
0000
0000
0310
0000
,  // measure 30
0100
0000
0001
1000
0000
0001
1000
0100
,  // measure 31
0010
0000
0010
0200
0000
0000
1300
0000
,  // measure 32
0001
0000
1000
0001
0000
0100
0010
1000
,  // measure 33
0001
0000
0010
0200
0000
0000
0310
0000
,  // measure 34
0001
0000
1000
0100
0000
1000
0001
1000
,  // measure 35
0001
0000
0100
0020
0000
0000
1030
0000
,  // measure 36
0010
1000
0001
0100
0000
0100
0001
0000
,  // measure 37
1000
0000
0100
1000
0100
0000
1000
0000
,  // measure 38
0001
0000
0100
0010
0000
0100
0010
0100
,  // measure 39
0010
0000
1000
0001
1000
0000
0001
0000
,  // measure 40
1000
0000
0001
0010
0000
0001
0010
0001
,  // measure 41
0010
0000
0001
1000
0001
0000
1000
0000
,  // measure 42
0010
0000
0100
0010
0000
1000
0010
1000
,  // measure 43
0010
0000
0100
0001
0100
0000
0001
0000
,  // measure 44
1000
0000
1100
0000
1000
0001
1000
0000
,  // measure 45
2002
3003
0000
0000
1000
0000
0000
0000
0100
0000
0000
0000
0010
0000
0000
0000
,  // measure 46
0001
0000
0000
0000
1000
0000
0000
0001
0000
0000
1000
0000
0001
0000
1000
0000
,  // measure 47
0001
0000
0101
0000
0010
0000
0100
0010
,  // measure 48
1000
0000
0001
0000
1000
0100
1000
0000
,  // measure 49
0100
0000
0010
0000
0100
0000
0010
0001
,  // measure 50
1000
0000
0001
0000
0100
0010
1000
0010
,  // measure 51
1000
0000
0001
0000
0110
0000
1000
0001
,  // measure 52
0010
0000
0100
0000
0010
0001
1000
0000
,  // measure 53
0100
0000
1001
0000
0001
0100
0000
0100
,  // measure 54
0010
0000
0010
1000
0000
1000
0001
0000
,  // measure 55
0110
0000
1001
0000
1000
0000
0100
0010
,  // measure 56
0100
0000
0010
0000
0001
1000
0001
0000
,  // measure 57
0110
0000
0100
0000
0001
0000
1000
0100
,  // measure 58
1000
0000
0001
0000
0010
0001
1000
0001
,  // measure 59
0100
0000
0010
0000
1001
0000
0100
0010
,  // measure 60
1000
0000
0001
0000
0010
0001
1000
0000
,  // measure 61
0110
0000
1001
0000
0100
0000
1000
0001
,  // measure 62
1000
0000
0000
0000
0010
0000
0000
0100
0000
0000
0010
0000
1000
0000
0001
0000
,  // measure 63
1000
0000
0001
0100
0001
0000
1000
0100
,  // measure 64
1000
0000
0001
0010
0001
0000
1000
0010
,  // measure 65
1000
0000
0001
0000
0100
0000
0010
1000
,  // measure 66
0100
0000
1000
0000
0100
0010
0000
0100
,  // measure 67
0010
0000
0001
0010
0001
0000
1000
0010
,  // measure 68
1000
0000
0001
0100
0001
0000
1000
0010
,  // measure 69
1000
0000
0001
0000
0100
0000
0010
1000
,  // measure 70
0001
0000
0010
0000
0100
0010
0000
1000
,  // measure 71
0001
1000
0001
0100
0001
0000
1000
0010
,  // measure 72
1000
0000
0001
0010
0001
0000
1000
0100
,  // measure 73
1000
0000
0001
0000
0010
0001
1000
0000
,  // measure 74
0010
0000
0100
0000
0010
1000
0000
0001
,  // measure 75
0100
0000
0001
0100
0001
0100
0001
0000
,  // measure 76
1001
0000
1000
0100
1000
0100
1000
0000
,  // measure 77
1001
0220
0000
0000
,  // measure 78
0330
0000
0010
1000
0010
0100
0001
0100
,  // measure 79
0001
2002
0000
0000
,  // measure 80
0000
0000
0000
0000
,  // measure 81
0000
3003
0000
0000
;

//---------------dance-single - ----------------
#NOTES:
     dance-single:
     :
     Easy:
     4:
     0.297,0.323,0.072,0.129,0.000: // measure 1
0000
0000
0000
0000
,  // measure 2
0000
0000
0000
0000
,  // measure 3
0000
0000
0000
0000
,  // measure 4
0000
0000
0000
0000
,  // measure 5
2000
0000
0000
0000
,  // measure 6
3200
0000
0000
0000
,  // measure 7
0320
0000
0000
0000
,  // measure 8
0230
0000
0000
0000
,  // measure 9
1300
0100
1000
0000
,  // measure 10
0001
0100
0001
0000
,  // measure 11
1000
0010
1000
0000
,  // measure 12
0001
0100
0010
0000
,  // measure 13
1000
0100
0010
0001
,  // measure 14
0100
0010
1000
0000
,  // measure 15
0001
0100
0010
0100
,  // measure 16
0001
1000
0100
1000
,  // measure 17
1002
0000
0203
0000
,  // measure 18
0320
0000
2030
0000
,  // measure 19
3200
0000
0320
0000
,  // measure 20
0032
0000
1003
0000
,  // measure 21
1000
0001
0000
0100
,  // measure 22
0010
0100
0000
0010
,  // measure 23
1000
0001
0000
0010
,  // measure 24
0001
1000
0000
0100
,  // measure 25
0010
0100
0000
0010
,  // measure 26
0001
1000
0000
0001
,  // measure 27
0100
0001
0000
1000
,  // measure 28
0010
1000
0001
0100
,  // measure 29
0001
0010
0100
0000
,  // measure 30
0010
0001
1000
0000
,  // measure 31
0001
0100
0010
0000
,  // measure 32
1000
0010
0100
0001
,  // measure 33
0100
0001
1000
0000
,  // measure 34
0001
1000
0100
0000
,  // measure 35
1000
0100
0010
0001
,  // measure 36
0100
0010
1000
0001
,  // measure 37
1000
1000
0100
0100
,  // measure 38
0010
0010
0001
0001
,  // measure 39
1000
0100
1000
0100
,  // measure 40
0010
0001
0010
0001
,  // measure 41
1000
0010
0100
1000
,  // measure 42
0100
0001
0010
0100
,  // measure 43
0010
0001
1000
0100
,  // measure 44
0010
0100
1000
0001
,  // measure 45
1001
0000
0000
0000
,  // measure 46
0000
0220
0000
0000
,  // measure 47
0330
1001
1000
0100
,  // measure 48
0010
0100
0000
0010
,  // measure 49
0001
1000
0010
0100
,  // measure 50
1000
0100
0010
0100
,  // measure 51
0001
1000
0001
0010
,  // measure 52
0001
0100
0000
0010
,  // measure 53
0100
0001
1000
0100
,  // measure 54
0010
0001
0100
0010
,  // measure 55
0000
1001
0001
0100
,  // measure 56
0001
1000
0000
1001
,  // measure 57
0000
0001
0100
1000
,  // measure 58
0100
0001
1000
0001
,  // measure 59
1000
0100
0010
0001
,  // measure 60
0010
0100
0000
0110
,  // measure 61
0000
0010
0001
0010
,  // measure 62
0001
1000
0100
1000
,  // measure 63
0000
0001
0001
0100
,  // measure 64
0100
0001
0100
0001
,  // measure 65
0000
1000
0001
1000
,  // measure 66
0000
0010
0100
0010
,  // measure 67
0000
1000
1000
0100
,  // measure 68
0100
1000
0100
1000
,  // measure 69
0000
0001
0010
0001
,  // measure 70
0000
1000
0100
0010
,  // measure 71
0000
0100
0010
0001
,  // measure 72
0100
0010
1000
0001
,  // measure 73
0000
0100
0000
0010
,  // measure 74
1000
0001
0000
0110
,  // measure 75
0000
1000
0100
1000
,  // measure 76
0001
0010
0001
0100
,  // measure 77
0010
0200
0000
0000
,  // measure 78
0300
0010
0100
0010
,  // measure 79
0100
2002
0000
0000
,  // measure 80
0000
0000
0000
0000
,  // measure 81
0000
3003
0000
0000
;

//---------------dance-single - ----------------
#NOTES:
     dance-single:
     :
     Beginner:
     1:
     0.159,0.194,0.097,0.016,0.000: // measure 1
0000
0000
0000
0000
,  // measure 2
0000
0000
0000
0000
,  // measure 3
0000
0000
0000
0000
,  // measure 4
0000
0000
0000
0000
,  // measure 5
1000
0000
0000
0000
,  // measure 6
0001
0000
0000
0000
,  // measure 7
0100
0000
0000
0000
,  // measure 8
0110
0000
0000
0000
,  // measure 9
1001
0000
0000
0000
,  // measure 10
1000
0000
0000
0000
,  // measure 11
0100
0000
0000
0000
,  // measure 12
1000
0000
0000
0000
,  // measure 13
0001
0000
0001
0000
,  // measure 14
0100
0000
0100
0000
,  // measure 15
0010
0000
0100
0000
,  // measure 16
0001
0000
1000
0000
,  // measure 17
1001
0000
0000
0000
,  // measure 18
0001
0000
0000
0000
,  // measure 19
0100
0000
0000
0000
,  // measure 20
0001
0000
0000
0000
,  // measure 21
1001
0000
0000
0000
,  // measure 22
0000
0000
0000
0000
,  // measure 23
1000
0000
0100
0000
,  // measure 24
1000
0000
0000
0000
,  // measure 25
0010
0000
0100
0000
,  // measure 26
0001
0000
0000
0000
,  // measure 27
1000
0000
0100
0000
,  // measure 28
0010
0000
0001
0000
,  // measure 29
1001
0000
0000
0000
,  // measure 30
1000
0000
0010
0000
,  // measure 31
0100
0000
0001
0000
,  // measure 32
1000
0000
0000
0000
,  // measure 33
0010
0000
0100
0000
,  // measure 34
0001
0000
0010
0000
,  // measure 35
0100
0000
0010
0000
,  // measure 36
0001
0000
0000
0000
,  // measure 37
1001
0000
0001
0000
,  // measure 38
1000
0000
0010
0000
,  // measure 39
0100
0000
0100
0000
,  // measure 40
0010
0000
1000
0000
,  // measure 41
0100
0000
0010
0000
,  // measure 42
0100
0000
0010
0000
,  // measure 43
0001
0000
1000
0000
,  // measure 44
0001
0000
1000
1000
,  // measure 45
1000
0000
0000
0000
,  // measure 46
0000
1001
0000
0000
,  // measure 47
0000
1000
0000
0001
,  // measure 48
0000
1000
0000
0000
,  // measure 49
0000
0001
0000
0010
,  // measure 50
0000
0100
0000
0010
,  // measure 51
0000
0001
0000
0100
,  // measure 52
0000
0010
0000
0000
,  // measure 53
0000
0100
0000
0010
,  // measure 54
0000
0100
0000
0010
,  // measure 55
0000
1000
0000
0100
,  // measure 56
0000
0010
0000
0000
,  // measure 57
0000
1001
0000
0100
,  // measure 58
0000
1001
0000
0010
,  // measure 59
0000
0001
0000
0100
,  // measure 60
0000
0010
0000
0000
,  // measure 61
0000
1001
0000
0100
,  // measure 62
0000
0010
0010
0010
,  // measure 63
0000
1000
0000
0010
,  // measure 64
0000
0100
0000
0001
,  // measure 65
0000
1000
0000
0100
,  // measure 66
0000
0010
0000
0001
,  // measure 67
0000
1000
0000
0001
,  // measure 68
0000
1000
0000
0001
,  // measure 69
0000
0100
0000
0010
,  // measure 70
0000
0100
0000
0010
,  // measure 71
0000
1000
0000
0100
,  // measure 72
0000
1000
0000
0001
,  // measure 73
0000
0100
0000
0001
,  // measure 74
0000
1000
0000
0010
,  // measure 75
0000
0100
0000
0001
,  // measure 76
0000
0010
0000
0100
,  // measure 77
0000
0110
0000
0000
,  // measure 78
0000
0001
0000
1000
,  // measure 79
0000
2002
0000
0000
,  // measure 80
0000
0000
0000
0000
,  // measure 81
0000
3003
0000
0000
;
