#TITLE:I'm Coming;
#SUBTITLE:(2017 Version);
#ARTIST:Pa's Lam System;
#TITLETRANSLIT:;
#SUBTITLETRANSLIT:;
#ARTISTTRANSLIT:;
#CREDIT:;
#BANNER:I'm Coming (2017 Version).png;
#BACKGROUND:I'm Coming (2017 Version)-bg.PNG;
#LYRICSPATH:;
#CDTITLE:;
#MUSIC:I'm Coming (2017 Version).mp3;
#OFFSET:-0.020;
#SAMPLESTART:28.460;
#SAMPLELENGTH:14.220;
#SELECTABLE:YES;
#BPMS:0.000=135.000;
#STOPS:;
#BGCHANGES:0.000=I'm Coming (2017 Version).avi=1.000=1=0=0,
258.000=I'm Coming (2017 Version)-bg.PNG=1.000=1=0=0,
99999=-nosongbg-=1.000=0=0=0 // don't automatically add -songbackground-
;

//---------------dance-single - ----------------
#NOTES:
     dance-single:
     :
     Hard:
     8:
     0.601,0.577,0.213,0.298,0.456:
0000
0000
0000
0000
,
0000
0000
0000
0000
,
0000
0000
0000
0000
,
0000
0000
0000
0000
,
0002
0000
0000
0000
0003
0000
1000
0000
0001
0000
0000
0100
0000
0000
0020
0000
,
0000
0000
0000
0000
0030
0000
0100
0000
0001
0000
0000
1000
0000
0000
0200
0000
,
0000
0000
0000
0000
0300
0000
0010
0000
0001
0000
0000
1000
0000
0000
0002
0000
,
0000
0000
0000
0000
0003
0000
1000
0001
1000
0000
0100
0000
0020
0000
0030
0000
,
1002
0000
0000
0000
0013
0000
0000
0010
0001
0000
0100
0000
0010
0000
0000
0000
,
2000
0000
0000
0000
3010
0000
0000
0010
1000
0000
0001
0000
0100
0000
0000
0000
,
0002
0000
0000
0000
1003
0000
0000
0100
1000
0000
0100
0000
0010
0000
0001
0000
,
2000
0000
0000
0000
3010
0000
1000
0010
1000
0000
0001
0000
0101
0000
0000
0000
,
1002
0000
0000
0000
1000
0000
0000
0000
0103
0000
0000
0001
0100
0000
0010
0000
,
0100
0000
0010
0000
1000
0000
0000
0000
0001
0000
0000
1000
0100
0000
0010
0000
,
0100
0010
0001
1000
0100
0010
0001
0100
,
0010
0000
1000
0000
0001
0000
1000
0002
2000
0000
3003
0000
1001
0000
0000
0000
,
0100
0000
0000
0000
1001
0000
0001
0100
0000
0001
0100
0000
0010
0200
0000
0000
,
0301
0000
0000
0000
1000
0000
0100
0010
0000
0100
0010
0000
0001
0020
0000
0000
,
0130
0000
0000
0000
1001
0000
0010
1000
0000
0001
0100
0000
0001
2000
0000
0000
,
3100
0000
0000
0000
0010
0000
0001
1000
0001
0000
0100
0000
0101
0000
0000
0000
,
1000
0000
0010
0000
0100
0000
0001
0010
0000
0100
1000
0000
0001
2000
0000
0000
,
3001
0000
0010
0000
0100
0000
0010
0001
0000
1000
0100
0000
0010
0002
0000
0000
,
0103
0000
0010
0000
0100
0000
0001
1000
0000
0001
0100
0000
0001
2000
0000
0000
,
3100
0000
1000
0000
0100
0000
0010
0001
1000
0000
0001
0000
1001
0000
0000
0000
,
1000
0000
0010
0100
0000
0010
0100
0000
0001
0000
0010
0000
0100
0000
0010
0000
,
0010
0000
0001
1000
0000
0001
1000
0000
0001
0000
0100
0000
0010
0000
1000
0000
,
0100
0000
0010
0001
0000
1000
0100
0000
1000
0000
0001
0000
0100
0000
0100
0000
,
0001
0000
0100
0010
0000
1000
0001
1000
0001
0000
0100
0000
0110
0000
0000
0000
,
1000
0000
0100
1000
0000
1000
0001
0000
0100
0000
0001
0010
0000
0010
0100
0000
,
0010
0000
0001
1000
0000
1000
0010
0000
0100
0000
0010
0000
0100
0000
0001
0000
,
1000
0000
0100
0010
0000
0001
1000
0000
0010
0000
0100
0010
0000
1000
0001
0000
,
1000
0000
0001
0010
0000
0001
0100
0000
0010
0000
1000
0000
0001
0000
1000
0000
,
1002
0000
0000
0000
0100
0000
0000
0000
0103
0000
0000
0010
1000
0000
0100
0000
,
0020
0000
0000
0000
0001
0000
0000
0000
0031
0000
0001
1000
0000
0000
0010
0000
,
1020
0000
1000
0000
1030
0100
0010
0001
,
1000
0000
0010
0000
0100
0000
0010
0000
0100
0000
0001
2000
0000
0000
3001
0000
,
1001
0000
0000
0000
1000
0000
0100
0000
0010
0000
0000
0010
0001
0000
1000
0000
,
0001
0000
0000
0000
1000
0000
0001
0000
1000
0000
0010
0200
0000
0000
0310
0000
,
0100
0000
0010
1000
0100
0010
0001
1000
,
1001
0000
0000
0000
0110
0000
0000
0000
1000
0000
0001
1000
0000
0001
1000
0000
,
2100
0000
0000
0000
0001
0000
0000
0000
0010
0000
0000
0010
0000
0000
0020
0000
,
3030
0000
0100
1000
0100
0010
0001
0100
,
0010
0000
0010
0100
0001
1000
0100
0010
,
0011
0000
0000
0001
1000
0000
0001
0000
0100
0000
0000
0010
0100
0000
0001
0000
,
0102
0000
0000
0000
1000
0000
0000
0000
0010
0000
0000
0010
0000
0000
0020
0000
,
0033
0000
0000
0000
0001
0100
0001
0000
1000
0000
0100
0000
0100
0000
0010
0000
,
0001
0000
1000
0010
0010
1000
0001
0010
,
0001
0000
1000
0001
0000
1000
0001
0000
0100
0000
0010
0000
1001
0000
0000
0000
,
2002
0000
0000
0000
3003
0000
1000
0000
0001
0000
0000
0001
0000
0000
0200
0000
,
0000
0000
0000
0000
0300
0000
0010
0000
1000
0000
0000
1000
0000
0000
0002
0000
,
0000
0000
0000
0000
0003
0000
1000
0000
0100
0000
0000
0100
0000
0000
0020
0000
,
0000
0000
0000
0000
0030
0000
0001
0010
0001
0000
0000
0000
1001
0000
0000
0000
,
1000
0000
0000
0000
0100
0000
0000
0000
1000
0000
0000
1000
0100
0000
0010
0000
,
0001
0000
0100
0000
0010
0000
0000
0000
0100
0000
0000
0010
0100
0000
0001
0000
,
1000
0100
0010
0001
1000
0010
0100
0001
,
1000
0000
0001
0000
1000
0000
0001
2000
0002
0000
3003
0000
1001
0000
0000
0000
,
1000
0000
0000
0000
0101
0000
0001
0100
0000
0010
0000
1000
0000
0100
0000
0010
,
0001
0000
0000
0000
1100
0000
0010
0100
0000
1000
0000
0010
0000
0100
0000
0010
,
0100
0000
0000
0000
0101
0000
0001
1000
0000
0001
0000
0100
0000
0001
0000
0010
,
0100
0000
0010
0000
0001
0000
1000
0010
1000
0000
0001
0000
1001
0000
0000
0000
,
1000
0000
0010
0000
1000
0000
0001
0100
0000
1000
0000
0100
0000
0001
0000
1000
,
0100
0000
0010
0000
0100
0000
0010
0001
0000
1000
0000
0001
0000
0010
0000
0100
,
0010
0000
0001
0000
1000
0000
0010
1000
0000
0001
0000
0010
0000
0100
0000
0010
,
0001
0000
1000
0000
0010
0000
0100
0001
0000
0100
0001
0000
1000
0001
1000
0000
,
0200
0000
0300
0000
;

//---------------dance-single - ----------------
#NOTES:
     dance-single:
     :
     Medium:
     7:
     0.479,0.467,0.239,0.230,0.132:
0000
0000
0000
0000
,
0000
0000
0000
0000
,
0000
0000
0000
0000
,
0000
0000
0000
0000
,
2000
0000
0000
0000
3000
0000
1000
0000
0001
0000
0000
0100
0000
0000
0002
0000
,
0000
0000
0000
0000
0003
0000
0001
0000
1000
0000
0000
0100
0000
0000
0020
0000
,
0000
0000
0000
0000
0030
0000
0010
0000
0100
0000
0000
0010
0000
0000
0002
0000
,
0000
0000
0003
0001
0100
0001
1000
0000
,
1002
0000
0103
0000
0001
0100
0010
0000
,
2010
0000
3001
0000
1000
0100
0010
0000
,
0210
0000
1300
0000
1000
0010
0100
0001
,
0200
0000
0310
0100
0001
0010
0100
0000
,
0020
0000
0000
0000
0031
0000
1000
0000
0001
0000
0000
0101
0000
0000
2010
0000
,
0000
0000
0001
0000
3001
0000
1000
0000
0100
0000
0000
0010
0000
0000
0001
0000
,
1000
0010
1000
0010
0100
0001
0100
0001
,
1000
0100
0010
0001
0200
0000
0300
0000
,
0001
0000
0000
0000
1001
0000
0000
1000
0000
0000
0100
0000
1000
0000
0100
0000
,
1000
0000
0000
0000
1001
0000
0000
0001
0000
0000
0100
0000
0010
0000
0100
0000
,
0001
0000
0000
0000
0011
0000
0000
1000
0000
0000
0100
0000
1000
0000
0010
0000
,
1000
0000
0100
0001
1000
0010
0100
0000
,
0001
0000
0000
0000
0011
0000
0000
0100
0000
0000
0010
0000
0001
0000
1000
0000
,
0010
0000
0000
0000
0101
0000
0000
0010
0000
0000
1000
0000
0001
0000
1000
0000
,
0100
0000
0000
0000
0011
0000
0000
0100
0000
0000
1000
0000
0001
0000
1000
0000
,
0010
0000
0100
0010
1000
0001
0010
0000
,
0001
0010
0001
1000
0000
0010
1000
0001
,
0000
0100
0001
1000
0100
0010
0100
0000
,
0010
0001
0100
0010
0000
0100
0010
1000
,
0000
0100
0010
0100
1000
0100
0010
0000
,
0001
1000
0001
0100
0000
0010
0100
0010
,
0000
1000
0010
1000
0001
0100
0001
0000
,
1000
0100
0010
0100
0000
0010
0100
1000
,
0000
1000
0010
0100
0001
0000
1001
0000
,
2010
0000
0001
0000
3100
1000
0001
0000
,
0200
0000
0010
0000
0301
0100
0010
0100
,
0002
0000
0010
0000
1003
0001
0010
0000
,
0001
0100
0010
1000
0100
0000
1001
0000
,
0012
0000
1000
0000
0103
0001
0100
0000
,
0020
0000
1000
0000
0130
0010
1000
0001
,
2000
0000
0010
0000
3001
1000
0001
0000
,
0200
0001
1000
0301
,
0011
0000
0000
0000
1100
0000
0000
0000
0001
0000
0000
1000
0000
0000
0200
0000
,
0000
0000
1300
0000
0001
0100
0001
0000
,
1000
0000
0010
0000
0100
0010
0100
0001
,
1000
0000
0011
0000
1000
0001
0100
0000
,
1010
0000
0000
0000
0101
0000
0000
0000
1000
0000
0000
0001
0000
0000
0020
0000
,
0000
0000
0130
0000
0010
0001
1000
0000
,
0001
0100
0001
1000
0100
0010
0100
0000
,
0010
0000
0000
1001
0000
0000
0100
0000
0010
0000
0010
0000
0010
0000
0000
0000
,
0002
0000
0000
0000
0003
0000
0001
0000
1000
0000
0000
0100
0000
0000
2000
0000
,
0000
0000
0000
0000
3000
0000
1000
0000
0010
0000
0000
0100
0000
0000
0020
0000
,
0000
0000
0000
0000
0030
0000
0010
0000
1000
0000
0000
0001
0000
0000
0020
0000
,
0000
0000
0030
0010
0100
0000
1001
0000
,
0001
0000
0000
0000
0101
0000
0000
0000
1000
0000
0000
0100
0000
0000
2200
0000
,
3300
0000
1000
0000
0001
0000
0100
0000
0010
0000
0000
0100
0000
0000
0010
0000
,
0100
0010
0100
0001
0100
0001
1000
0100
,
1000
0100
0010
0001
1000
0000
1001
0000
,
0001
0000
0000
0000
0110
0000
0000
0100
0000
0000
0001
0000
1000
0000
0100
0000
,
0010
0000
0000
0000
1001
0000
0000
0100
0000
0000
0010
0000
1000
0000
0001
0000
,
0010
0000
0000
0000
0011
0000
0000
1000
0000
0000
0100
0000
1000
0000
0001
0000
,
0100
0000
0010
0100
0001
1000
0100
0000
,
1000
0000
0100
0000
1000
0000
0000
0001
0000
0100
0000
0001
0000
0000
0000
0000
,
1000
0000
0010
0000
1000
0000
0000
0001
0000
0010
0000
0001
0000
0000
0000
0000
,
0100
0000
0010
0000
0100
0000
0000
0001
0000
1000
0000
0001
0000
0000
0000
0000
,
1000
0100
0010
0001
0100
0010
1000
0001
,
0200
0000
0300
0000
;

//---------------dance-single - ----------------
#NOTES:
     dance-single:
     :
     Easy:
     4:
     0.337,0.440,0.281,0.264,0.000: // measure 1
0000
0000
0000
0000
,  // measure 2
0000
0000
0000
0000
,  // measure 3
0000
0000
0000
0000
,  // measure 4
0000
0000
0000
0000
,  // measure 5
1001
0000
0001
0100
,  // measure 6
0001
0000
0100
0010
,  // measure 7
0100
0000
0010
1000
,  // measure 8
0001
1000
0100
0010
,  // measure 9
0002
0010
0000
1003
,  // measure 10
2000
0001
0000
3100
,  // measure 11
0020
0100
0000
1030
,  // measure 12
0200
0010
0000
0301
,  // measure 13
0100
0010
1000
0001
,  // measure 14
1000
0100
0010
0001
,  // measure 15
0100
0100
0010
0010
,  // measure 16
0100
0010
2002
3003
,  // measure 17
1000
0100
0010
0010
,  // measure 18
0100
0010
0001
0001
,  // measure 19
1000
0010
0100
0100
,  // measure 20
0010
0100
1001
0110
,  // measure 21
0001
1000
0001
0100
,  // measure 22
0001
1000
0100
1000
,  // measure 23
0010
0100
0001
0010
,  // measure 24
0100
0010
1001
0110
,  // measure 25
1002
0103
0010
0100
,  // measure 26
0210
0301
0010
0001
,  // measure 27
1002
0013
0100
0010
,  // measure 28
2001
3100
1001
0110
,  // measure 29
0001
0100
0010
1001
,  // measure 30
1000
0100
0010
1001
,  // measure 31
0001
0100
0001
0110
,  // measure 32
2001
0010
0002
3003
,  // measure 33
1001
1000
0100
0000
,  // measure 34
1000
0001
0100
0000
,  // measure 35
0010
0100
0001
0010
,  // measure 36
0100
0010
0001
1000
,  // measure 37
0100
0010
0100
0000
,  // measure 38
0010
0001
1000
0000
,  // measure 39
0001
1000
0010
0000
,  // measure 40
0120
0000
0100
0130
,  // measure 41
1000
0100
0010
0001
,  // measure 42
0002
0000
1003
0001
,  // measure 43
1000
0000
0010
0000
,  // measure 44
0100
0010
1000
0001
,  // measure 45
0001
0010
0100
1000
,  // measure 46
2000
0000
0001
0001
,  // measure 47
3001
0000
1000
0001
,  // measure 48
0100
0000
0010
0100
,  // measure 49
0220
0330
0010
1000
,  // measure 50
2002
3003
1000
0100
,  // measure 51
0220
0330
0100
0010
,  // measure 52
2002
3003
0110
1001
,  // measure 53
0220
0330
0010
1000
,  // measure 54
2002
3003
0001
0010
,  // measure 55
0100
0100
0010
0010
,  // measure 56
0001
1000
2002
3003
,  // measure 57
1000
0100
0001
0100
,  // measure 58
1000
0001
0100
0110
,  // measure 59
0100
1000
0100
0001
,  // measure 60
0010
0100
0010
0110
,  // measure 61
0100
0010
0001
1000
,  // measure 62
0100
1000
0001
1001
,  // measure 63
0001
0100
0010
1000
,  // measure 64
0001
0100
0110
1001
,  // measure 65
0220
0000
0330
0000
;

//---------------dance-single - ----------------
#NOTES:
     dance-single:
     :
     Beginner:
     2:
     0.174,0.218,0.102,0.000,0.000: // measure 1
0000
0000
0000
0000
,  // measure 2
0000
0000
0000
0000
,  // measure 3
0000
0000
0000
0000
,  // measure 4
0000
0000
0000
0000
,  // measure 5
1000
0000
0000
0000
,  // measure 6
0001
0000
0000
0000
,  // measure 7
0100
0000
0000
0000
,  // measure 8
0010
0000
0000
0000
,  // measure 9
1000
0000
0100
0000
,  // measure 10
1000
0000
0001
0000
,  // measure 11
0100
0000
0010
0000
,  // measure 12
0100
0000
0100
0100
,  // measure 13
0100
0000
0010
0000
,  // measure 14
1000
0000
0001
0000
,  // measure 15
1000
0000
0001
0000
,  // measure 16
0010
0010
0010
0000
,  // measure 17
0110
0000
0000
0000
,  // measure 18
0100
0000
0010
0000
,  // measure 19
0001
0000
1000
0000
,  // measure 20
0001
0000
0100
0000
,  // measure 21
0010
0000
0000
0000
,  // measure 22
0100
0000
0010
0000
,  // measure 23
1000
0000
0001
0000
,  // measure 24
1000
0000
0000
0000
,  // measure 25
1001
0000
0001
0000
,  // measure 26
1001
0000
1000
0000
,  // measure 27
0110
0000
0100
0000
,  // measure 28
0010
0000
0100
0100
,  // measure 29
0100
0000
0010
0000
,  // measure 30
1001
0000
0010
0000
,  // measure 31
0110
0000
1000
0000
,  // measure 32
1001
0000
0000
0000
,  // measure 33
0001
0001
0001
0000
,  // measure 34
1000
1000
1000
0000
,  // measure 35
0010
0000
0100
0000
,  // measure 36
0010
0010
0010
0000
,  // measure 37
0100
0100
0100
0000
,  // measure 38
0001
0001
0001
0000
,  // measure 39
1000
0000
0100
0000
,  // measure 40
0010
0000
0001
0000
,  // measure 41
1001
0000
0100
0100
,  // measure 42
0100
0000
0010
0000
,  // measure 43
0100
0000
0010
0000
,  // measure 44
0001
0000
1000
0000
,  // measure 45
0010
0000
0100
0100
,  // measure 46
0100
0000
0001
0000
,  // measure 47
1000
0000
0100
0000
,  // measure 48
0010
0010
0010
0000
,  // measure 49
1001
0000
0100
0000
,  // measure 50
1001
0000
0010
0000
,  // measure 51
0001
0000
0100
0000
,  // measure 52
0010
0000
1000
0000
,  // measure 53
0110
0000
0001
0000
,  // measure 54
0110
0000
1000
0000
,  // measure 55
0100
0000
0010
0000
,  // measure 56
0001
0001
0001
0000
,  // measure 57
0001
0000
0100
0100
,  // measure 58
0100
0000
0010
0000
,  // measure 59
1000
0000
0100
0100
,  // measure 60
0100
0000
1000
0000
,  // measure 61
0001
0000
0010
0010
,  // measure 62
0010
0000
0001
0001
,  // measure 63
0001
0000
1000
1000
,  // measure 64
1000
0000
0001
0001
,  // measure 65
0001
0000
0000
0000
;
