#TITLE:Hold On;
#SUBTITLE:;
#ARTIST:Nano;
#TITLETRANSLIT:;
#SUBTITLETRANSLIT:;
#ARTISTTRANSLIT:;
#CREDIT:;
#BANNER:Hold On.png;
#BACKGROUND:Hold On-bg.PNG;
#LYRICSPATH:;
#CDTITLE:;
#MUSIC:Hold On.mp3;
#OFFSET:-0.020;
#SAMPLESTART:50.270;
#SAMPLELENGTH:12.000;
#SELECTABLE:YES;
#DISPLAYBPM:80.000:160.000;
#BPMS:0.000=80.000,36.000=160.000;
#STOPS:;
#BGCHANGES:;

//---------------dance-single - ----------------
#NOTES:
     dance-single:
     :
     Hard:
     8:
     0.581,0.549,0.329,0.337,0.072:
0000
0000
0000
0000
,
1000
0000
0001
0100
0010
0000
0100
0010
,
2000
0100
0000
3001
,
1000
0000
0000
0000
0100
0000
0010
0000
0001
0000
0000
0000
1000
0001
1000
0002
,
0000
0100
0000
1003
,
0001
0000
0000
0000
0100
0000
0010
1000
0000
0000
1000
0000
0100
0000
0010
0002
,
0000
1000
0000
0103
,
0001
0000
0000
0000
1000
0100
0000
0010
0100
0000
0010
0000
0001
1000
0001
2000
,
0000
0010
0000
3001
,
1002
0000
1000
0000
0103
0001
0100
0000
,
2001
0000
0001
3000
1000
0100
0010
0001
,
0202
0303
2002
3003
,
1000
0000
0100
0000
1000
0100
1000
0001
,
0200
0000
0001
0300
0001
0100
0001
1000
,
0020
0000
0100
0000
0130
0010
1000
0001
,
0022
0033
2200
3300
,
1000
0000
0100
1000
0001
0200
0000
0300
,
0010
0100
0010
0000
1000
0200
0000
0310
,
0001
1000
0001
0000
0001
0100
0010
0100
,
0220
0330
2002
3003
,
2000
0000
0000
0100
0000
3001
0100
0001
,
1000
0100
0010
0000
0100
2000
0000
3001
,
0100
0010
0100
0000
0010
2000
0000
3001
,
1000
0100
1000
0100
0010
0001
0010
0002
,
2000
0000
0000
0000
3003
0000
0000
0000
1001
0000
0000
0000
0110
0000
0100
0001
,
0100
0000
0000
0000
1001
0000
0000
0000
1000
0000
0100
0000
0000
0000
1000
0001
,
1000
0000
0000
0000
0101
0000
0000
0000
0010
0000
0100
0000
0000
0000
0001
1000
,
0001
0000
0010
0001
2000
0000
3010
0000
,
0100
0000
0010
0000
1000
0000
0100
0000
0010
0000
0100
0000
1000
0000
0100
1000
,
0100
0000
1000
0010
1010
0000
0101
0000
,
0011
0000
0000
0000
0001
0000
0100
0000
1000
0000
0100
0000
0000
0000
0010
0100
,
0010
0000
0010
0100
0102
0000
1003
0000
,
1000
0001
1001
0000
0010
0200
0000
0301
,
0100
0001
0100
1000
0100
0010
0100
0001
,
1000
0100
0010
0100
0001
0100
0010
0001
,
0101
0000
0010
1000
1200
0000
0310
0000
,
0010
0001
1000
0000
0001
0101
0000
0100
,
0010
1000
0100
0010
0001
0100
0010
1000
,
0100
0001
0100
1000
0010
0100
0001
0010
,
0011
0000
0001
1000
1020
0000
0100
0000
,
1030
0000
0001
0000
1000
0100
0010
0001
,
0010
0000
1001
0000
0001
0100
0010
2000
,
0000
0100
3100
0000
0010
0100
1000
0100
,
0010
0000
1001
0000
0001
0100
0010
0200
,
0000
0001
0301
0000
0100
0010
1000
0001
,
1000
0000
1100
0000
0100
0010
0001
1000
,
0001
0002
0100
0000
0000
0000
0103
0000
,
0001
0000
1001
0000
1000
0100
1000
0001
,
0000
0001
0100
1000
0100
0010
0100
0001
,
1000
0000
1001
0000
0001
0010
0100
0020
,
0000
0000
0031
0010
0001
0100
0010
1000
,
0001
0000
0101
0000
0100
0010
1000
0002
,
0000
0000
1003
0100
0010
0100
1000
0001
,
0100
0000
0110
0000
0010
1000
0001
0010
,
0100
0200
0010
0000
0000
0000
0310
0000
,
0100
0010
0100
0010
0001
1000
0001
1000
,
0001
0000
0100
0000
0010
0000
1000
0000
1010
0000
0000
0000
0101
0000
0100
0001
,
0100
0000
0000
0000
1001
0000
0000
0000
1000
0000
0100
0000
0010
0000
0001
1000
,
0001
0000
0000
0000
1001
0000
0000
0000
1000
0000
0010
0000
0100
0000
0001
0100
,
0002
0000
0010
0010
0013
0000
1100
0000
,
1000
0000
0100
0000
1000
0000
0000
0000
0001
0000
0100
0000
0010
0000
0100
0010
,
0100
0000
0001
1000
1100
0000
0011
0000
,
1001
0000
0000
0000
1000
0000
0010
0000
0100
0000
0001
0000
0010
0000
0001
1000
,
0002
0000
0100
0100
0103
0000
0010
0000
,
1000
0010
1010
0000
0001
0100
0001
1000
,
1000
0100
0010
0001
0100
0100
0010
1000
,
0100
0010
0001
1000
0100
0100
1000
0010
,
0110
0000
1000
0001
0110
0000
1000
0100
,
0001
0100
1000
0010
0100
0001
0010
0001
,
1000
1000
0100
0010
0001
0001
1000
0010
,
0100
0001
0010
1000
0010
0001
0100
0010
,
0210
0000
0002
0000
,
0303
0000
0000
0000
;

//---------------dance-single - ----------------
#NOTES:
     dance-single:
     :
     Medium:
     6:
     0.480,0.462,0.281,0.433,0.000:
0000
0000
0000
0000
,
2000
0010
0001
0200
,
0300
0001
0000
3001
,
0002
0010
1000
0200
,
0300
0100
0000
0103
,
0200
0000
0310
1000
0002
0000
2000
0000
,
3000
1000
0000
1003
,
2000
0000
3100
0010
0002
0000
2000
0000
,
3000
1000
0000
1003
,
1000
0100
0010
0001
,
1000
0000
0010
0000
0100
0010
0100
0000
,
2002
3003
0220
0330
,
0010
0000
1000
0000
0001
1000
0001
0000
,
1000
0100
1000
0000
0001
0000
0010
0000
,
0001
0100
0001
0000
1000
0000
0010
0000
,
0220
0330
2002
3003
,
1000
0000
0100
0000
0010
0002
0000
0000
,
1003
0000
0001
0000
0100
0010
0100
0000
,
0001
0000
1000
0000
0100
0010
0100
0000
,
0220
0330
2002
3003
,
1000
0000
0010
0000
0100
0001
0100
0000
,
0001
0000
1000
0000
0100
0010
0001
0000
,
0100
0010
1000
0000
0010
0100
0001
0000
,
1000
0100
1000
0100
0010
0001
0010
0001
,
2000
3000
1001
0110
,
2002
0000
3003
0000
1000
0100
0010
0000
,
0220
0000
0330
0000
0010
0001
1000
0000
,
0101
0000
0010
1000
0010
0000
0100
0000
,
0010
1000
0001
0010
0100
0000
0010
0000
,
0022
0033
1100
0101
,
2002
0000
3003
0000
1000
0000
0010
0100
,
0010
0000
1000
0001
1000
0000
1001
0000
,
0001
0100
0001
0000
1000
0100
0000
1000
,
0100
0000
1100
0000
1000
0001
0100
0000
,
0001
0000
0101
0000
0100
0010
0100
0010
,
0200
0010
0002
0303
,
0001
1000
0001
0000
1000
0100
0010
0100
,
1000
0000
1001
0000
0100
0010
0100
0000
,
0001
0000
1001
0000
1000
0100
0010
0100
,
0020
0001
0200
0330
,
0010
0001
0010
0000
0001
0000
1001
0000
,
1000
0000
0001
0000
0100
0000
0010
1000
,
0000
1000
0010
0000
0100
0001
0100
0000
,
0001
0000
1000
0000
0100
0000
0010
0100
,
0000
0010
0100
0000
1000
0001
1000
0000
,
0001
0000
0100
0000
0010
1000
0010
0000
,
0100
0001
0100
0000
0001
0000
1000
0000
,
0100
0000
0010
0000
0001
0000
1000
0002
,
0000
0100
0103
0000
0010
0100
0010
0000
,
1000
0000
1100
0000
0010
0000
0001
0200
,
0000
0010
0310
0000
0010
0100
0010
0000
,
1000
0000
1001
0000
0001
0000
0010
0002
,
0000
1000
1003
0000
1000
0100
0010
0000
,
0100
0000
1100
0000
1000
0010
0100
0000
,
0001
0100
0002
0000
0010
0000
1003
0000
,
0001
0100
0001
0000
1000
0100
1000
0000
,
0010
0100
0010
0100
0010
0000
1001
0000
,
0220
0000
0330
0000
0010
1000
0001
0000
,
2002
0000
3003
0000
1000
0100
0010
0100
,
1000
0000
0001
0100
0001
0000
1001
0000
,
1000
0100
0010
0000
0001
1000
0001
0000
,
0202
0303
1010
0101
,
2002
0000
3003
0000
1000
0100
0010
0001
,
0100
0000
0010
1000
0010
0000
1001
0000
,
1000
0100
0020
0000
0100
0200
0330
0000
,
0100
0010
0100
0000
0001
1000
0001
0000
,
1000
0010
1000
0010
1000
0000
0001
0000
,
0101
0000
1000
0001
1000
0000
0110
0000
,
0010
1000
0001
0000
0010
0001
0000
1000
,
0200
0000
0310
0000
0100
0010
0100
0000
,
0002
0000
1003
0000
0001
0100
0010
1000
,
0200
0000
0020
0000
,
0330
0000
0000
0000
;

//---------------dance-single - ----------------
#NOTES:
     dance-single:
     :
     Easy:
     4:
     0.322,0.433,0.241,0.441,0.000: // measure 1
0000
0000
0000
0000
,  // measure 2
1000
0000
0100
0000
,  // measure 3
2002
3000
0000
0003
,  // measure 4
1000
0000
0001
0000
,  // measure 5
0220
0030
0000
0300
,  // measure 6
0010
0000
1000
0000
,  // measure 7
2002
0003
0000
3000
,  // measure 8
0001
0000
0100
0000
,  // measure 9
2002
0000
3003
0000
,  // measure 10
1000
0000
0001
0000
,  // measure 11
0100
0000
0001
0000
,  // measure 12
2002
0000
3003
0000
,  // measure 13
0000
0000
0000
0000
,  // measure 14
1000
0000
0100
0000
,  // measure 15
0010
0000
0001
0000
,  // measure 16
2002
0000
3003
0000
,  // measure 17
0000
0000
0000
0000
,  // measure 18
0001
0100
0001
0000
,  // measure 19
1000
0100
1000
0000
,  // measure 20
2002
0000
3003
0000
,  // measure 21
1000
0000
0100
0000
,  // measure 22
1000
0010
0100
0000
,  // measure 23
0001
0010
0100
0000
,  // measure 24
0010
0001
1000
0001
,  // measure 25
0100
0010
0220
0330
,  // measure 26
1001
0001
0100
0000
,  // measure 27
0001
1000
0100
0000
,  // measure 28
1000
0100
0010
0001
,  // measure 29
0100
0010
0200
0300
,  // measure 30
0110
0000
0010
1000
,  // measure 31
1001
0000
0001
0010
,  // measure 32
0100
0010
0001
1000
,  // measure 33
0001
0100
0220
0330
,  // measure 34
0010
1000
0001
1000
,  // measure 35
0100
1000
0001
1000
,  // measure 36
0220
0330
2002
3003
,  // measure 37
0001
0010
0100
0000
,  // measure 38
0010
0001
1000
0100
,  // measure 39
0010
0001
0100
0010
,  // measure 40
0220
0330
2002
3003
,  // measure 41
1000
0100
0010
0001
,  // measure 42
0200
0000
0310
0000
,  // measure 43
0100
0010
1000
0001
,  // measure 44
0020
0000
0130
0000
,  // measure 45
0010
0001
1000
0100
,  // measure 46
2000
0000
0010
0001
,  // measure 47
3010
0000
0001
0100
,  // measure 48
0001
0010
0100
1000
,  // measure 49
0100
0000
1000
0001
,  // measure 50
0020
0000
0031
0000
,  // measure 51
0001
0100
0001
1000
,  // measure 52
0020
0000
1030
0000
,  // measure 53
1000
0100
0010
0001
,  // measure 54
0200
0000
0010
0001
,  // measure 55
0310
0000
0100
0010
,  // measure 56
1000
0100
0001
0100
,  // measure 57
1000
0001
2002
3003
,  // measure 58
2200
3300
0010
0001
,  // measure 59
0202
0303
0010
1000
,  // measure 60
1001
0010
2002
3003
,  // measure 61
0001
0100
0010
1000
,  // measure 62
0220
0330
0011
1100
,  // measure 63
2002
3003
0001
0100
,  // measure 64
0220
0330
2002
3003
,  // measure 65
1000
0100
0010
0001
,  // measure 66
1000
0010
1000
0001
,  // measure 67
0100
0001
0010
0100
,  // measure 68
0220
0330
2002
3003
,  // measure 69
1000
0010
0100
1000
,  // measure 70
0100
0001
0010
0100
,  // measure 71
0010
0001
1000
0100
,  // measure 72
2001
0000
0002
0000
,  // measure 73
3003
0000
0000
0000
;

//---------------dance-single - ----------------
#NOTES:
     dance-single:
     :
     Beginner:
     1:
     0.148,0.230,0.153,0.000,0.000: // measure 1
0000
0000
0000
0000
,  // measure 2
0100
0000
0100
0000
,  // measure 3
0100
0000
0000
0000
,  // measure 4
0010
0000
0010
0000
,  // measure 5
0010
0000
0000
0000
,  // measure 6
1000
0000
0001
0000
,  // measure 7
1000
0000
0000
0000
,  // measure 8
0001
0000
1000
0000
,  // measure 9
1001
0000
0000
0000
,  // measure 10
0001
0000
0000
0000
,  // measure 11
0100
0000
0000
0000
,  // measure 12
0010
0000
0010
0000
,  // measure 13
0000
0000
0000
0000
,  // measure 14
1000
0000
0000
0000
,  // measure 15
0100
0000
0000
0000
,  // measure 16
0010
0000
0010
0000
,  // measure 17
0000
0000
0000
0000
,  // measure 18
0001
0000
0000
0000
,  // measure 19
1000
0000
0000
0000
,  // measure 20
0001
0000
0001
0000
,  // measure 21
0000
0000
0000
0000
,  // measure 22
1000
0000
0000
0000
,  // measure 23
0001
0000
0000
0000
,  // measure 24
1000
0000
0001
0000
,  // measure 25
1001
0000
0000
0000
,  // measure 26
0110
0000
0000
0000
,  // measure 27
1001
0000
0000
0000
,  // measure 28
1000
0000
0001
0000
,  // measure 29
1000
0000
0010
0000
,  // measure 30
0110
0000
0100
0000
,  // measure 31
0110
0000
0010
0000
,  // measure 32
1000
0000
0001
0000
,  // measure 33
1000
0000
0001
0000
,  // measure 34
1000
0000
1000
0000
,  // measure 35
0100
0000
0100
0000
,  // measure 36
0010
0000
0001
0000
,  // measure 37
1000
0000
0001
0000
,  // measure 38
0100
0000
0100
0000
,  // measure 39
0010
0000
0010
0000
,  // measure 40
1000
0000
0001
0000
,  // measure 41
1000
0000
0010
0000
,  // measure 42
0110
0000
0000
0000
,  // measure 43
0001
0000
1000
0000
,  // measure 44
1001
0000
0000
0000
,  // measure 45
0001
0000
0100
0000
,  // measure 46
0110
0000
0000
0000
,  // measure 47
1000
0000
0000
0000
,  // measure 48
0100
0000
0010
0000
,  // measure 49
0100
0000
0010
0000
,  // measure 50
0110
0000
0000
0000
,  // measure 51
0001
0000
1000
0000
,  // measure 52
1001
0000
0000
0000
,  // measure 53
1000
0000
0100
0000
,  // measure 54
0010
0000
0001
0000
,  // measure 55
1000
0000
0000
0000
,  // measure 56
0001
0000
1000
0000
,  // measure 57
1001
0000
0110
0000
,  // measure 58
1001
0000
0000
0000
,  // measure 59
0110
0000
0000
0000
,  // measure 60
1000
0000
0100
0000
,  // measure 61
0010
0000
0001
0000
,  // measure 62
1001
0000
0100
0000
,  // measure 63
1001
0000
0010
0000
,  // measure 64
1000
0000
0100
0000
,  // measure 65
0010
0000
0001
0000
,  // measure 66
0100
0000
0100
0000
,  // measure 67
0010
0000
1000
0000
,  // measure 68
0001
0000
0001
0000
,  // measure 69
1000
0000
0100
0000
,  // measure 70
0010
0000
0000
0000
,  // measure 71
0100
0000
0000
0000
,  // measure 72
1001
0000
1001
0000
;
