#TITLE:Gimme a Big Beat;
#SUBTITLE:;
#ARTIST:kors k;
#TITLETRANSLIT:;
#SUBTITLETRANSLIT:;
#ARTISTTRANSLIT:;
#CREDIT:;
#BANNER:Gimme a Big Beat.png;
#BACKGROUND:Gimme a Big Beat-bg.PNG;
#LYRICSPATH:;
#CDTITLE:;
#MUSIC:Gimme a Big Beat.mp3;
#OFFSET:-1.750;
#SAMPLESTART:90.670;
#SAMPLELENGTH:13.910;
#SELECTABLE:YES;
#BPMS:0.000=138.000;
#STOPS:;
#BGCHANGES:;

//---------------dance-single - ----------------
#NOTES:
     dance-single:
     :
     Hard:
     7:
     0.539,0.516,0.311,0.447,0.136: // measure 1
2002
0000
0000
0000
3003
0000
0001
0000
0100
0000
0000
0001
0000
0000
2001
0000
,  // measure 2
0000
0100
3100
0000
1000
0100
1000
0001
,  // measure 3
0200
0000
0000
0000
0300
0000
0010
0000
0100
0000
0000
0001
0000
0000
2002
0000
,  // measure 4
0000
0000
3003
0000
0001
0010
0001
1000
,  // measure 5
2002
0000
0000
0000
3003
0000
1000
0000
0100
0000
0000
1000
0000
0000
1002
0000
,  // measure 6
0000
0100
0103
0000
0100
0010
1000
0001
,  // measure 7
0200
0000
0000
0000
0300
0000
0001
0000
0010
0000
0000
0100
0000
0000
2002
0000
,  // measure 8
0000
0000
3003
0000
1000
0100
0010
0001
,  // measure 9
0100
0001
0100
0001
0000
1000
0100
1000
,  // measure 10
0000
0001
0010
0100
0000
0010
0001
1000
,  // measure 11
0000
0001
0100
1000
0000
0100
1000
0010
,  // measure 12
0000
1000
0010
0001
0000
0010
0001
1000
,  // measure 13
0001
0100
0001
0100
0001
1000
0001
1000
,  // measure 14
0001
0010
0001
0010
0001
0100
0010
1000
,  // measure 15
0100
0010
0100
0001
0100
1000
0001
0200
,  // measure 16
0000
0310
0100
0010
0100
0000
1001
0000
,  // measure 17
0001
0000
0000
0100
0000
0000
0001
0000
1000
0000
0100
0000
0010
0000
0100
0000
,  // measure 18
1000
0000
0000
0100
0000
0000
1000
0000
0001
0000
0100
0000
0001
0000
0000
0000
,  // measure 19
1000
0000
0000
0001
0000
0000
1000
0000
0001
0000
0100
0000
0010
0000
0100
0000
,  // measure 20
0001
0000
0000
0010
0000
0000
0100
0000
0010
0000
0001
0000
1000
0000
0000
0000
,  // measure 21
0001
0000
0000
0001
0100
0000
0001
0000
1000
0000
0001
0000
0010
0000
0001
0000
,  // measure 22
1000
0000
0000
1000
0100
0000
1000
0000
0100
0000
0010
0000
0001
0000
0000
0000
,  // measure 23
0010
0000
0000
0100
0000
0000
0010
0000
0100
0000
0010
0000
0001
0000
0100
0000
,  // measure 24
0020
0000
0000
0000
0000
0000
0000
0000
0100
0000
0000
0100
0000
0000
0130
0000
,  // measure 25
0110
0000
0000
0010
0000
0000
0100
0000
0010
0000
1000
0000
0001
0000
0001
0000
,  // measure 26
0100
0000
0000
0010
0000
0000
0100
0000
0001
0000
1000
0000
1001
0000
0000
0000
,  // measure 27
0001
0000
0000
0010
0000
0000
0100
0000
1000
0000
0010
0000
0100
0000
0001
0000
,  // measure 28
1000
0000
0000
0010
0000
0000
0100
0000
0001
0000
1000
0000
0100
0000
0100
0000
,  // measure 29
1000
0000
0000
0001
0000
0000
0100
0000
0010
0000
0100
0000
0001
0000
1000
0000
,  // measure 30
0100
0000
0000
1000
0001
0000
0000
0000
0001
1000
0000
0001
1000
0000
0010
0000
,  // measure 31
2000
0000
0000
3200
0000
0000
0320
0000
0000
0032
0000
0000
1003
0000
0001
0000
,  // measure 32
0000
1000
0100
0100
0100
0000
1001
0000
,  // measure 33
0210
0000
0000
0000
0302
0000
0000
2003
,  // measure 34
0000
0000
0000
3200
,  // measure 35
0320
0000
0000
0000
0032
0000
0000
2000
,  // measure 36
0000
0000
0000
3003
,  // measure 37
0002
0000
0000
0000
0203
0000
0000
0320
,  // measure 38
0000
0000
0000
2030
,  // measure 39
3002
0000
0000
0003
2000
0000
0000
0002
,  // measure 40
0000
0000
0000
3003
,  // measure 41
0220
0000
0000
0000
0330
0000
0010
0000
1010
0000
0000
0101
0000
0000
2002
0000
,  // measure 42
0000
0003
0010
0000
0001
0000
3010
0000
,  // measure 43
0202
0000
0000
0000
0303
0000
0100
0000
0101
0000
0000
1010
0000
0000
2002
0000
,  // measure 44
0000
3000
0100
0000
1000
0000
0103
0000
,  // measure 45
2002
0000
0000
0000
3003
0000
0100
0000
0110
0000
0000
1001
0000
0000
0220
0000
,  // measure 46
0000
0030
0010
0000
0001
0000
0310
0000
,  // measure 47
2002
0000
0000
0000
3003
0000
0001
0000
0011
0000
0000
0110
0000
0000
2200
0000
,  // measure 48
0000
0300
0100
0000
3001
1000
0100
0010
,  // measure 49
0001
0100
0001
0010
0000
0100
1000
0001
,  // measure 50
0000
0100
0010
1000
0000
0010
0100
0001
,  // measure 51
0000
1000
0100
0001
0100
1000
0100
0001
,  // measure 52
0100
0010
0001
1000
0001
0000
1001
0000
,  // measure 53
0110
0000
0000
0000
0010
0000
1000
0000
0001
0000
0000
1000
0000
0000
0200
0000
,  // measure 54
0000
0310
0100
0010
0001
1000
0001
0000
,  // measure 55
0101
0000
0000
0000
0010
0000
1000
0000
0001
0000
0000
0010
0000
0000
0002
0000
,  // measure 56
0000
0103
0010
0100
1000
0100
0001
1000
,  // measure 57
0100
0000
0000
0000
0010
0000
0100
0000
0010
0000
0000
0001
1000
0000
0002
0000
,  // measure 58
0000
0103
0010
1000
0010
0100
0001
0000
,  // measure 59
1000
0000
0000
0000
0100
0000
1000
0000
0100
0000
0000
1000
0001
0000
0200
0000
,  // measure 60
0000
0310
0100
0001
1000
0001
0010
0100
,  // measure 61
0010
0000
0000
0000
1001
0000
0001
0000
0100
0000
0000
1010
0000
0000
0102
0000
,  // measure 62
0000
1003
0100
0010
0001
0010
0001
1000
,  // measure 63
0010
0000
0000
0000
0100
0000
0010
0000
1000
0000
0000
1100
0000
0000
1002
0000
,  // measure 64
0000
0013
0100
0010
0001
1000
0100
1000
,  // measure 65
0001
0000
0000
0000
0101
0000
0100
0000
0010
0000
0000
1001
0000
0000
0021
0000
,  // measure 66
0000
0130
0010
0001
1000
0100
1000
0001
,  // measure 67
0200
0000
0000
0000
0310
0000
0100
0000
0001
0000
0000
1000
0000
0000
0100
0000
,  // measure 68
0010
0100
0001
0100
1000
0001
0100
0000
,  // measure 69
1001
0000
0000
0000
;

//---------------dance-single - ----------------
#NOTES:
     dance-single:
     :
     Medium:
     5:
     0.421,0.407,0.231,0.319,0.036: // measure 1
2002
0000
0000
0000
3003
0000
0000
0000
0100
0000
0000
0100
0000
0000
0200
0000
,  // measure 2
0000
0000
0310
0000
1000
0001
1000
0000
,  // measure 3
0220
0000
0000
0000
0330
0000
0000
0000
0001
0000
0000
0001
0000
0000
0002
0000
,  // measure 4
0000
0000
0003
0000
1000
0010
0100
0000
,  // measure 5
0202
0000
0000
0000
0303
0000
0000
0000
1000
0000
0000
1000
0000
0000
2000
0000
,  // measure 6
0000
0001
3001
0000
1000
0001
1000
0000
,  // measure 7
2200
0000
0000
0000
3300
0000
0000
0000
0010
0000
0000
0010
0000
0000
0020
0000
,  // measure 8
0000
0000
0030
0000
0100
0010
0100
0000
,  // measure 9
0001
1000
0100
0000
1000
0000
0001
0000
,  // measure 10
0010
0001
1000
0000
0001
0000
0100
0000
,  // measure 11
0010
1000
0001
0000
0010
0000
0100
0000
,  // measure 12
0010
0100
1000
0000
0001
0000
0100
0000
,  // measure 13
0001
0100
0001
0000
1000
0010
1000
0000
,  // measure 14
0001
0010
0100
0000
0010
0001
1000
0000
,  // measure 15
2002
0000
0000
3003
,  // measure 16
0000
0001
0100
0000
0101
0000
1001
0000
,  // measure 17
0110
0000
0001
1000
0001
0000
1000
0000
,  // measure 18
0100
0000
0010
0001
0100
0000
0010
1000
,  // measure 19
0001
0000
0010
0001
1000
0000
0001
0000
,  // measure 20
0100
0000
0001
0100
1000
0000
0110
0000
,  // measure 21
1000
0000
0010
1000
0001
0000
0010
0000
,  // measure 22
0100
0000
0010
0000
0001
0100
0010
0000
,  // measure 23
1000
0000
0001
0100
0001
0000
1000
0000
,  // measure 24
2200
0000
0000
0000
3300
0000
0000
0000
0001
0000
0000
1000
0000
0000
0001
0000
,  // measure 25
1000
0000
0001
0000
0100
0001
0100
0000
,  // measure 26
0010
0000
1000
0000
0001
1000
0001
1000
,  // measure 27
0100
0000
0010
0000
0100
1000
0001
0000
,  // measure 28
2002
0000
0000
3003
0000
0000
0000
0000
1001
0000
0000
0000
0110
0000
0000
0000
,  // measure 29
1001
0000
0001
0000
0100
0010
0100
0000
,  // measure 30
0010
1000
1010
0101
,  // measure 31
2002
0000
0000
3003
,  // measure 32
0000
0001
1000
0001
1000
0000
1001
0000
,  // measure 33
0001
0100
0001
1000
,  // measure 34
0100
0010
0001
0100
,  // measure 35
0001
1000
0100
1000
,  // measure 36
0020
0000
0030
0000
,  // measure 37
0100
0010
0100
0001
,  // measure 38
1000
0100
0010
0100
,  // measure 39
1000
0001
0100
0010
,  // measure 40
2000
0000
3000
0000
,  // measure 41
2002
0000
0000
0000
3003
0000
0000
0000
0010
0000
0000
0100
0000
0000
0020
0000
,  // measure 42
0000
1000
1000
1030
,  // measure 43
2002
0000
0000
0000
3003
0000
0000
0000
0001
0000
0000
0010
0000
0000
0200
0000
,  // measure 44
0000
0010
0010
0310
,  // measure 45
2002
0000
0000
0000
3003
0000
0000
0000
0001
0000
0000
0100
0000
0000
0002
0000
,  // measure 46
0000
0010
1000
0103
,  // measure 47
2002
0000
0000
0000
3003
0000
0000
0000
1000
0000
0000
0100
0000
0000
2000
0000
,  // measure 48
0000
0010
0001
3100
,  // measure 49
1000
0100
0001
0000
0001
0100
1000
0000
,  // measure 50
1000
0010
0001
0000
0001
0010
1000
0000
,  // measure 51
0001
0100
0001
0000
1000
0100
0010
0000
,  // measure 52
2002
0000
3003
1001
,  // measure 53
0110
0000
0010
1000
0001
0000
1000
0000
,  // measure 54
0100
0000
0010
0000
1000
0010
0001
0000
,  // measure 55
1001
0000
0001
0100
0001
0000
1000
0000
,  // measure 56
0010
0000
0100
0000
1000
0100
0001
0000
,  // measure 57
1001
0000
0001
0100
0001
0000
1000
0000
,  // measure 58
0100
0000
0010
0000
0001
0100
0010
0000
,  // measure 59
0101
0000
0010
1000
0001
0000
0010
0000
,  // measure 60
0100
0000
0010
0000
0001
1000
0001
1000
,  // measure 61
0200
0000
1300
0000
0001
0100
0001
0000
,  // measure 62
1000
0000
0010
0000
0100
0001
0100
0000
,  // measure 63
0002
0000
0013
0000
0100
1000
0100
0000
,  // measure 64
1000
0000
0010
0000
0100
0010
0100
0010
,  // measure 65
2000
0000
3001
0000
1000
0000
0100
1000
,  // measure 66
0001
0000
0100
0000
0010
0100
0010
0000
,  // measure 67
1000
0000
0001
0010
0100
0000
0010
0000
,  // measure 68
0001
1000
0001
1000
0002
0000
0103
0000
,  // measure 69
1001
0000
0000
0000
;

//---------------dance-single - ----------------
#NOTES:
     dance-single:
     :
     Easy:
     4:
     0.341,0.407,0.367,0.399,0.000: // measure 1
2002
0000
0000
0000
,  // measure 2
3003
1001
0001
0100
,  // measure 3
0220
0000
0000
0000
,  // measure 4
0330
0000
0010
1000
,  // measure 5
2002
0000
0000
0000
,  // measure 6
3003
1001
0010
0100
,  // measure 7
2002
0000
0000
0000
,  // measure 8
3003
0000
1000
0100
,  // measure 9
1000
2000
3001
0002
,  // measure 10
0103
0200
0310
0020
,  // measure 11
0130
0200
0301
0002
,  // measure 12
1003
2000
3001
0002
,  // measure 13
1003
0100
1000
0100
,  // measure 14
0001
0100
0001
0100
,  // measure 15
1000
0010
0001
0220
,  // measure 16
0000
0000
0000
0330
,  // measure 17
1001
0001
0100
0001
,  // measure 18
1000
0100
0010
0010
,  // measure 19
0010
0100
0010
0001
,  // measure 20
1000
0001
0100
0000
,  // measure 21
0010
0100
0001
1000
,  // measure 22
0100
1000
0001
0001
,  // measure 23
0001
0100
0010
1000
,  // measure 24
2002
3003
0010
0100
,  // measure 25
1001
0001
0010
0100
,  // measure 26
0010
0001
2000
3000
,  // measure 27
0001
0100
1000
0100
,  // measure 28
0220
0330
1001
0110
,  // measure 29
1001
0001
0010
0100
,  // measure 30
1001
0110
2002
3003
,  // measure 31
0220
0000
0000
0000
,  // measure 32
0330
0000
0000
1001
,  // measure 33
1002
0000
0100
0000
,  // measure 34
1000
0000
0100
0000
,  // measure 35
2003
0000
3020
0000
,  // measure 36
0200
0000
0330
0000
,  // measure 37
2000
0000
0010
0000
,  // measure 38
0001
0000
0100
0000
,  // measure 39
3002
0000
0023
0000
,  // measure 40
0200
0000
0330
0000
,  // measure 41
1001
0000
0001
1000
,  // measure 42
2002
0000
3003
0000
,  // measure 43
0110
0000
0100
0010
,  // measure 44
0220
0000
0330
0000
,  // measure 45
2002
3003
0001
0100
,  // measure 46
0220
0000
0000
0330
,  // measure 47
0110
0000
0010
1000
,  // measure 48
2002
3003
0001
1000
,  // measure 49
0100
0001
0100
1000
,  // measure 50
0010
0001
0010
1000
,  // measure 51
0100
0010
0100
0010
,  // measure 52
0220
0000
0330
0110
,  // measure 53
1001
0001
0100
0010
,  // measure 54
1001
1000
0100
0010
,  // measure 55
0110
0100
1000
0001
,  // measure 56
1001
0001
0100
0010
,  // measure 57
0110
0100
0001
1000
,  // measure 58
1001
1000
0100
0010
,  // measure 59
0110
0100
1000
0001
,  // measure 60
1001
1000
0001
0200
,  // measure 61
0300
0110
0010
1000
,  // measure 62
0100
0001
0010
2000
,  // measure 63
3000
1001
0001
0100
,  // measure 64
1000
0010
0001
2000
,  // measure 65
3000
0110
0001
0010
,  // measure 66
0100
0001
0100
1000
,  // measure 67
0010
0100
1000
0100
,  // measure 68
1001
1001
0110
0110
,  // measure 69
1001
0000
0000
0000
;

//---------------dance-single - ----------------
#NOTES:
     dance-single:
     :
     Beginner:
     1:
     0.145,0.271,0.120,0.024,0.000: // measure 1
1001
0000
0000
0000
,  // measure 2
0000
0000
0100
0000
,  // measure 3
0100
0000
0000
0000
,  // measure 4
0000
0000
0010
0000
,  // measure 5
0110
0000
0000
0000
,  // measure 6
0000
0000
1000
0000
,  // measure 7
0001
0000
0000
0000
,  // measure 8
0000
0000
0010
0000
,  // measure 9
0100
0000
0000
0000
,  // measure 10
0010
0000
0000
0000
,  // measure 11
0001
0000
0000
0000
,  // measure 12
1000
0000
0000
0000
,  // measure 13
0001
0000
0001
0000
,  // measure 14
1000
0000
1000
0000
,  // measure 15
0010
0010
0010
0020
,  // measure 16
0030
0000
0000
0000
,  // measure 17
1001
0000
0001
0000
,  // measure 18
1000
0000
0100
0000
,  // measure 19
0010
0000
0100
0000
,  // measure 20
1000
0000
0000
0000
,  // measure 21
0001
0000
0100
0000
,  // measure 22
1000
0000
0100
0000
,  // measure 23
0001
0000
1000
0000
,  // measure 24
0001
0000
0000
0000
,  // measure 25
0010
0000
0001
0000
,  // measure 26
1000
0000
0100
0000
,  // measure 27
0010
0000
0001
0000
,  // measure 28
1000
0000
0000
0000
,  // measure 29
0001
0000
0100
0000
,  // measure 30
0010
0000
1000
0000
,  // measure 31
1001
0000
0000
0000
,  // measure 32
0110
0000
0000
0000
,  // measure 33
1001
0000
0000
0000
,  // measure 34
0001
0000
0000
0000
,  // measure 35
1000
0000
0100
0000
,  // measure 36
1000
0000
0000
0000
,  // measure 37
0001
0000
0000
0000
,  // measure 38
0100
0000
0000
0000
,  // measure 39
0010
0000
0100
0000
,  // measure 40
0001
0000
0000
0000
,  // measure 41
1001
0000
0001
0000
,  // measure 42
0001
0000
0000
0000
,  // measure 43
0100
0000
0100
0000
,  // measure 44
0100
0000
0000
0000
,  // measure 45
0010
0000
0010
0000
,  // measure 46
0010
0000
0000
0000
,  // measure 47
1000
0000
1000
0000
,  // measure 48
1000
0000
0001
0000
,  // measure 49
1001
0000
1001
0000
,  // measure 50
0110
0000
0110
0000
,  // measure 51
1001
0000
0110
0000
,  // measure 52
2002
0000
0000
3003
,  // measure 53
1001
0000
0001
0000
,  // measure 54
0100
0000
0010
0000
,  // measure 55
0100
0000
0001
0000
,  // measure 56
1000
0000
0000
0000
,  // measure 57
0001
0000
0010
0000
,  // measure 58
0100
0000
0010
0000
,  // measure 59
0001
0000
1000
0000
,  // measure 60
0001
0000
0000
0000
,  // measure 61
1000
0000
0100
0000
,  // measure 62
0010
0000
0001
0000
,  // measure 63
0100
0000
1000
0000
,  // measure 64
0100
0000
0000
0000
,  // measure 65
0010
0000
0100
0000
,  // measure 66
0001
0000
1000
0000
,  // measure 67
0001
0000
1000
0000
,  // measure 68
0100
0100
0100
0100
,  // measure 69
0100
0000
0000
0000
;

//---------------dance-single - ----------------
#NOTES:
     dance-single:
     :
     Challenge:
     9:
     0.694,0.678,0.431,0.623,0.371: // measure 1
0202
0000
0000
0000
0303
0000
0001
0000
1001
0000
0000
1010
0000
0000
2100
0000
,  // measure 2
0000
0001
3001
0000
1000
0100
1000
0010
,  // measure 3
0200
0000
0000
0000
0300
0000
0010
0000
1010
0000
0000
0101
0000
0000
2002
0000
,  // measure 4
0000
0000
3003
0000
1000
0010
0100
0001
,  // measure 5
2002
0000
0000
0000
3003
0000
1000
0000
1010
0000
0000
0110
0000
0000
0102
0000
,  // measure 6
0000
0000
1003
0001
0200
0000
0000
0000
0310
0000
0100
0000
0001
0000
1000
0000
,  // measure 7
0200
0000
0000
0000
0300
0000
0010
0000
0011
0000
0000
1001
0000
0000
0202
0000
,  // measure 8
0000
0000
0000
0303
0001
0100
0010
1000
,  // measure 9
0001
0010
0100
2000
0000
3010
0100
0002
,  // measure 10
0000
0103
1000
0020
0000
0031
1000
0200
,  // measure 11
0000
1300
0100
0002
0000
0013
1000
0002
,  // measure 12
0000
1003
0100
0020
0000
0031
1000
0010
,  // measure 13
0100
1000
0100
1000
0100
0001
0100
0001
,  // measure 14
0010
1000
0010
0001
1000
0001
1000
0001
,  // measure 15
1000
0001
1000
0001
1000
0001
1000
0001
1000
0001
1000
0001
1000
0001
1000
0002
,  // measure 16
0000
0100
0100
0100
0103
0000
1001
0000
,  // measure 17
0101
0000
0000
0001
0000
1000
0100
0000
0001
0000
0100
0000
1000
0000
0010
0000
,  // measure 18
0100
0000
0010
1000
0000
0001
0100
0000
0001
0000
0010
0000
0100
0000
0010
0000
,  // measure 19
0001
0000
0000
1000
0000
0100
1000
0000
0001
0000
0100
0000
1000
0000
0001
0000
,  // measure 20
0010
0000
0100
0010
0000
0010
1000
0000
0001
0000
0100
0000
0001
0000
0010
0000
,  // measure 21
1001
0000
0000
1000
0000
0001
0100
0000
1000
0000
0100
0000
0010
0000
1000
0000
,  // measure 22
0001
0000
0010
0100
0000
0010
1000
0000
0010
0000
0001
0000
1000
0000
0001
0000
,  // measure 23
0100
0000
0000
0010
0000
1000
0001
0000
0010
0000
0100
0000
0010
0000
0001
0000
,  // measure 24
0202
0000
0000
0000
0000
0000
0303
0000
1001
0000
0000
1100
0000
0000
1001
0000
,  // measure 25
0001
0000
0100
0001
0000
0100
0010
0000
1000
0000
0100
0000
0110
0000
0100
0000
,  // measure 26
1000
0000
0001
0100
0000
0001
1000
0000
0100
0000
0010
0001
2000
0000
0000
0000
,  // measure 27
3010
0000
0100
0010
0000
0001
1000
0000
0001
0000
0010
0000
0011
0000
0001
0000
,  // measure 28
1000
0000
0000
1100
0000
0000
2000
0000
3200
0000
0302
0000
0203
0000
2300
0000
,  // measure 29
3001
0000
0100
0001
0000
1000
0100
0000
0010
0000
0100
0000
1000
0000
0001
0000
,  // measure 30
0100
0000
0010
0100
0001
0000
0010
0001
0010
0001
0000
0001
1000
0000
0100
0000
,  // measure 31
2000
0000
0000
3020
0000
0000
0230
0000
0000
2300
0000
0000
3100
0000
0001
0000
,  // measure 32
0000
0000
1000
0001
1000
0001
1000
0000
0001
0000
0010
0000
0220
0000
0330
0000
,  // measure 33
2001
0000
0001
0000
3020
0000
0130
0002
,  // measure 34
0010
1000
0100
2003
,  // measure 35
3200
0000
0001
0000
0320
0000
0130
2000
,  // measure 36
0010
0010
0001
3001
,  // measure 37
1002
0000
1000
0000
0203
0000
0310
2000
,  // measure 38
0100
0010
0001
3200
,  // measure 39
0320
0000
0100
0000
0032
0000
0103
0020
,  // measure 40
0001
0100
1000
0130
,  // measure 41
2002
0000
0000
0000
3003
0000
0001
0000
0101
0000
0000
1001
0000
0000
2200
0000
,  // measure 42
0000
0000
3300
0000
0000
0000
0100
1000
0000
0001
0000
0100
0000
0001
0100
0000
,  // measure 43
0220
0000
0000
0000
0330
0000
0010
0000
1010
0000
0000
1001
0000
0000
0022
0000
,  // measure 44
0000
0000
0033
0000
0000
0000
0001
0100
0000
1000
0000
0100
0000
0001
0100
0001
,  // measure 45
0020
0000
0000
0000
0030
0000
0001
0000
0011
0000
0000
1100
0000
0000
2002
0000
,  // measure 46
0000
0000
3003
0000
0000
0000
0001
0100
0000
0010
0000
0100
0000
0010
1000
0000
,  // measure 47
2002
0000
0000
0000
3003
0000
0001
0000
0011
0000
0000
1100
0000
0000
2002
0000
,  // measure 48
0000
0000
3003
0000
0001
0100
0010
1000
,  // measure 49
0010
1000
0100
0010
1000
0001
0100
0010
,  // measure 50
0001
0100
0010
1000
0001
0010
0100
0001
,  // measure 51
1000
0000
0100
1000
0100
0000
0010
0001
0010
0000
0001
1000
0010
0000
0100
0010
,  // measure 52
0200
0010
0010
0010
0310
0000
1001
0000
,  // measure 53
0201
0000
0000
0000
0310
0000
1000
0000
0100
0000
1000
0001
0000
0000
0201
0000
,  // measure 54
0000
0000
0310
0000
0010
0000
1000
0001
0000
1000
0001
0000
1000
0000
0100
0000
,  // measure 55
0020
0000
0000
0000
0130
0000
1000
0000
0001
0000
0100
0010
0000
0000
2001
0000
,  // measure 56
0000
0000
3100
1000
0100
0000
1000
0001
0100
0000
0010
0000
0100
0000
0010
0000
,  // measure 57
1001
0000
0000
0000
0011
0000
0001
0000
0100
0000
0010
1000
0000
0000
1002
0000
,  // measure 58
0000
0000
0103
0000
0100
0000
0001
1000
0000
0100
1000
0000
0001
0000
0100
0000
,  // measure 59
0020
0000
0000
0000
1030
0000
0100
0000
0010
0000
0100
1000
0000
0000
1002
0000
,  // measure 60
0000
0000
0103
0000
0001
0000
1000
0100
1000
0000
0001
0100
0001
0000
1000
0000
,  // measure 61
1001
0000
0000
0000
0110
0000
0010
0000
1000
0000
0100
0010
0100
0000
0020
0000
,  // measure 62
0000
0000
0031
0000
0100
0000
0010
1000
0100
0000
1000
0000
0001
0000
0010
0000
,  // measure 63
0200
0000
0000
0000
1300
0000
0010
0000
0100
0000
0001
0100
0001
0000
2000
0000
,  // measure 64
0000
0000
3001
0000
1000
0000
0100
1000
0000
0001
0010
0000
0001
0100
0001
0000
,  // measure 65
1000
0000
0000
0000
0101
0000
0100
0000
0010
0000
1000
0100
0010
0000
0200
0000
,  // measure 66
0000
0000
1300
0100
1000
0000
0001
0000
0100
0000
0010
1000
0001
0000
0010
0100
,  // measure 67
0020
0000
0031
1000
0001
0100
1000
0100
,  // measure 68
0010
0100
0010
0100
0010
0000
0200
0000
0000
0001
0000
0301
0000
0000
0001
0000
,  // measure 69
1001
0000
0000
0000
;
