#TITLE:Gimme a Big Beat;
#SUBTITLE:(Hommarju Remix);
#ARTIST:kors k;
#TITLETRANSLIT:;
#SUBTITLETRANSLIT:;
#ARTISTTRANSLIT:;
#CREDIT:;
#BANNER:;
#BACKGROUND:;
#LYRICSPATH:;
#CDTITLE:;
#MUSIC:Gimme a Big Beat (Hommarju Remix).mp3;
#OFFSET:-1.430;
#SAMPLESTART:101.840;
#SAMPLELENGTH:11.290;
#SELECTABLE:YES;
#BPMS:0.000=170.000;
#STOPS:;
#BGCHANGES:;

//---------------dance-single - ----------------
#NOTES:
     dance-single:
     :
     Hard:
     10:
     0.868,0.941,0.333,0.341,0.567:
2002
0000
0000
0000
3003
0000
0001
0000
0100
0000
0000
0001
0000
0000
0200
0000
,
0000
0000
0300
0000
0010
1000
0001
1000
,
0200
0000
0000
0000
0300
0000
1000
0000
0001
0000
0000
0101
0000
0000
2002
0000
,
0000
0000
3003
0000
1000
0001
0100
0010
,
0200
0000
0000
0000
0300
0000
0010
0000
1000
0000
0000
0001
0000
0000
2001
0000
,
0000
0100
3100
0000
1000
0100
0001
0100
,
2000
0000
0000
0000
3000
0000
0001
0000
0100
0000
0000
0001
0000
0000
0202
0000
,
0000
0000
0303
0000
0001
1000
0100
1000
,
0001
0100
0001
0100
0000
0010
1000
0100
,
0000
0010
0100
1000
0000
0100
0010
0001
,
0000
1000
0001
0100
0000
0001
0100
1000
,
0000
0100
1000
0010
0000
1000
0010
0001
,
1000
0100
0000
0100
1000
0000
0001
0000
0100
0001
0000
0001
0100
0000
0010
0000
,
1000
0001
0000
1000
0001
0000
0010
0000
0100
0010
0000
0001
1000
0000
0001
0000
,
1000
0100
1000
0100
0010
0100
0010
0100
1000
0100
0010
0001
0100
0010
1000
0002
,
0000
0100
0100
0100
0103
0000
0110
0000
,
1001
0000
0000
1000
0000
0100
1000
0000
0100
0000
0001
0000
0100
0000
1000
0000
,
0001
0000
0100
0001
0000
1000
0010
0000
0100
0000
0001
0000
0010
0100
0010
0000
,
0001
0000
0000
1000
0000
0001
0100
0000
0010
0000
0001
0000
0010
0000
1000
0000
,
0100
0000
1000
0100
0000
0100
1000
0001
0100
0000
0010
0000
1001
0000
0000
0000
,
0010
0000
0100
0001
0000
0100
0001
0000
1000
0000
0100
0000
0001
0000
0100
0000
,
1000
0000
0010
0100
0000
0100
0010
0000
1000
0100
1000
0000
0001
0000
0010
0000
,
0001
0000
1000
0010
0000
1000
0010
0000
0100
0000
0001
0000
0010
0001
1000
0000
,
1010
0000
0000
0000
0101
0000
0000
0000
0011
0000
0000
1100
0000
0000
1001
0000
,
0001
0000
1000
0100
1000
0100
0010
0000
0001
0000
0100
0000
0001
0000
0010
0000
,
1000
0000
0010
0001
0010
0001
0010
0000
0001
0000
0100
0000
0101
0000
0000
0000
,
1000
0000
0100
0010
0001
1000
0010
0000
0100
0000
0001
0000
1000
0000
0100
0000
,
1000
0000
0001
0100
0010
1000
0010
0000
1000
0001
1000
0000
1001
0000
0000
0000
,
1000
0100
0001
1000
0010
0100
1000
0001
,
0100
0010
1000
0001
0010
0100
0110
0000
,
0001
0000
0010
0001
0000
1000
0100
0000
1000
0010
0000
0100
0001
0000
0202
0000
,
0303
0000
0001
1000
0001
1000
0100
0000
1000
0000
0001
0000
1001
0000
0000
0000
,
0200
0001
0000
0001
0000
0010
0000
0010
,
0000
1000
0000
1000
0000
0010
0000
0301
,
0020
0100
0000
1000
0000
0001
0000
0130
,
2000
0010
0000
0001
0000
0100
0000
3001
,
0020
1000
0000
1000
0000
0100
0000
0100
,
0000
0001
0000
0001
0000
0100
0000
0130
,
0002
0010
0000
1000
0000
0100
0000
1000
,
0000
0200
0000
0000
0000
0000
0303
0101
,
1001
0000
0000
0000
1000
0000
0100
0000
1000
0000
0000
0001
0000
0000
0202
0000
,
0000
0303
0001
0000
1000
0001
0100
1000
,
0200
0000
0000
0000
0310
0000
1000
0000
0001
0000
0000
0010
0000
0000
2200
0000
,
0000
3300
1000
0000
0001
0100
0001
0010
,
2000
0000
0000
0000
3010
0000
0001
0000
1000
0000
0000
0001
0000
0000
0202
0000
,
0000
0303
0001
0000
0001
0100
1000
0100
,
0002
0000
0000
0000
0013
0000
0100
0000
0010
0000
0000
0001
0000
0000
2002
0000
,
0000
3003
1001
0000
0001
0100
0010
1000
,
1010
0000
0010
0000
0000
0100
0000
0000
0010
0000
1000
0000
0000
0001
0000
0000
,
0010
0000
0001
0000
0000
1000
0000
0000
0001
0000
1000
0000
0110
0000
0000
0000
,
0001
0000
0100
0000
0000
0010
1000
0000
0001
0000
0010
0000
0000
0100
1000
0000
,
0001
0000
1000
0000
0000
0010
0100
0000
0010
0000
0100
0000
1001
0000
0000
0000
,
1000
0000
0001
0000
0000
0100
0010
0000
0010
0000
0100
0000
0000
0001
1000
0000
,
1000
0000
0100
0000
0000
0010
0001
0000
1000
0000
0001
0000
1001
0000
0000
0000
,
1000
0000
0100
0000
1000
0100
1000
0000
0001
0000
0100
0000
0001
0100
0001
0000
,
1000
0000
0010
0000
1000
0010
1000
0000
0001
0000
0010
0000
1100
0000
0000
0000
,
1000
0100
0001
0100
1000
0010
0001
0010
,
1000
0100
0001
0010
0001
0100
1000
0001
,
0100
0000
0010
0000
1000
0000
0001
0100
0001
0000
1000
0000
0100
0000
0010
0001
,
0010
0000
0001
0000
0100
0000
0010
1000
0001
0000
0010
0000
0100
0000
0010
0001
,
1000
0000
0010
1000
0010
0000
0100
0001
0100
0000
0001
1000
0001
0000
1000
0100
,
1000
0000
0001
0010
0100
0000
0010
0001
1000
0000
0010
0100
0010
0000
1000
0100
,
1000
0001
1000
0001
0100
0010
1000
0010
0100
0001
0010
0001
1000
0001
1000
0200
,
0000
0001
0001
0010
0310
0000
1001
0000
,
1000
0000
0001
0000
0100
0001
0000
0100
0001
0000
1000
0010
0000
1000
0010
0000
,
0100
0000
0001
0000
0010
0000
0001
0000
0010
0001
0100
0000
1010
0000
0000
0000
,
0100
0000
0010
0000
1000
0000
0100
1000
0001
0000
0100
0000
0001
0000
1000
0000
,
0100
0000
1000
0000
0001
0000
0100
0010
1000
0001
1000
0000
1001
0000
0000
0000
,
0010
0001
1000
0000
0001
1000
0000
0001
0100
0000
0001
1000
0000
0001
0010
0001
,
1000
0000
0010
0000
0100
0000
1000
0000
0100
0010
1000
0000
0101
0000
0000
0000
,
1000
0100
1000
0001
0100
0001
1000
0010
1000
0100
0010
0001
1000
0001
0100
0002
,
0000
0100
0100
0100
0103
0000
0101
0000
,
1001
0000
1000
0000
0100
0000
0010
0001
1000
0000
0001
0100
0001
0000
2000
0000
,
0000
3100
0001
0100
1000
0010
0100
0001
,
1000
0000
0100
0000
0010
0000
0001
0100
0010
0000
1000
0100
1000
0000
0020
0000
,
0000
0130
0010
1000
0001
0010
0100
0010
,
0001
0000
1000
0000
0010
0000
0100
0001
0100
0000
0010
1000
0001
0000
0020
0000
,
0000
0000
0130
0000
0010
0000
0001
0000
1000
0100
1000
0000
0001
0000
0010
0000
,
0100
0000
0010
0000
0001
0000
1000
0010
0100
0000
0001
0010
0100
0000
0020
0000
,
0000
0000
0130
0000
0010
0000
1000
0000
0010
0000
0000
0001
1000
0000
0010
0000
,
0110
0000
0000
0000
0010
0000
1000
0010
1000
0000
0001
0100
0000
0100
0001
0000
,
1000
0000
0100
0000
0010
0000
0100
0000
1000
0100
0001
0000
0100
0000
1000
0000
,
1000
0000
0001
0000
0100
0000
0001
0010
0001
0000
1000
0010
0000
0100
0001
0000
,
0100
0000
0010
0000
1000
0000
0001
0010
0100
0000
0000
0100
1000
0000
0100
0000
,
2200
0000
0000
0000
3300
0000
1000
0000
1001
0000
0000
0011
0000
0000
0202
0000
,
0000
0000
0303
0000
0100
0001
0010
0100
,
1000
0100
0010
0001
0010
0100
1000
0100
1000
0001
0100
0001
1000
0010
1000
0010
,
0000
0000
1000
0001
1000
0001
1000
0000
0001
0000
1000
0000
2002
0000
3003
0000
;

//---------------dance-single - ----------------
#NOTES:
     dance-single:
     :
     Medium:
     8:
     0.661,0.592,0.230,0.293,0.099:
2002
0000
0000
0000
3003
0000
1000
0000
0001
0000
0000
1000
0000
0000
0200
0000
,
0000
0000
0300
0000
0010
0100
0010
0100
,
0020
0000
0000
0000
0030
0000
0001
0000
1000
0000
0000
0001
0000
0000
0200
0000
,
0000
0000
0300
0000
0010
0100
0001
1000
,
0200
0000
0000
0000
0300
0000
1000
0000
0001
0000
0000
0001
0000
0000
0200
0000
,
0000
0010
0310
0000
0010
1000
0001
0010
,
0200
0000
0000
0000
0300
0000
0010
0000
0001
0000
0000
1000
0000
0000
2002
0000
,
0000
0000
3003
0000
1000
0001
1000
0001
,
0100
0010
1000
0010
0000
0100
0001
0100
,
0000
0001
0010
0001
0000
1000
0100
1000
,
1000
0100
0010
0001
0000
1000
0010
0100
,
0000
0001
0010
0100
0000
0010
0001
1000
,
0001
0100
0001
0100
0010
1000
0010
1000
,
0001
0010
0100
1000
0010
0100
0001
1000
,
0200
0000
0000
0000
,
0300
0010
0100
0010
0100
0000
1001
0000
,
0001
0000
0000
0100
0000
0000
0001
0000
1000
0000
0100
0000
1000
0000
0001
0000
,
0100
0000
0000
0010
0000
0000
0100
0000
0010
0000
0001
0000
1000
0000
0000
0000
,
0010
0000
0000
0100
0000
0000
0010
0000
1000
0000
0001
0000
0010
0000
0100
0000
,
1000
0000
1100
0000
0001
1000
1001
0000
,
0001
0000
0000
0100
0000
0000
0001
0000
1000
0000
0100
0000
0010
0000
0001
0000
,
0010
0000
0000
0001
0000
0000
0100
0000
0010
0000
1000
0000
0001
0000
0000
0000
,
1000
0000
0000
0010
0000
0000
0100
0000
1000
0000
0100
0000
0001
0000
0010
0000
,
0100
0000
0000
0000
0011
0000
0000
0000
1000
0000
0000
0001
0000
0000
0100
0000
,
0001
0100
0001
0100
1000
0100
1000
0100
,
0010
0100
0010
0100
0001
1000
0001
0000
,
1000
0100
1000
0100
0001
0100
0001
0100
,
0010
0100
0010
0100
1000
0001
1000
0000
,
0001
0100
0010
1000
0100
0010
0001
1000
,
0100
0010
0100
1000
0001
0010
0100
1000
,
0001
0000
0000
0100
0000
0000
0010
0000
0000
0100
0000
0000
0001
0000
1000
0000
,
0000
0020
0000
0030
0100
0000
1001
0000
,
0000
0001
0000
0100
0000
1000
0000
0100
,
0000
0001
0000
0010
0000
1000
0000
0010
,
0001
1000
0000
0001
0000
0100
0000
0010
,
1000
0100
0000
1000
0000
0001
0000
1001
,
0000
0100
0000
0010
0000
0100
0000
1000
,
0100
0010
0000
0100
0000
1000
0000
0001
,
0100
0010
0000
1000
0000
0001
0000
1000
,
0100
0010
0000
0001
0100
0001
0000
1001
,
2002
0000
0000
0000
3003
0000
1000
0000
0010
0000
0000
0100
0000
0000
0020
0000
,
0000
0030
0100
0000
0010
1000
0010
1000
,
0002
0000
0000
0000
0003
0000
1000
0000
0100
0000
0000
1000
0000
0000
0200
0000
,
0000
0000
0300
0000
1000
0100
0010
0001
,
0200
0000
0000
0000
0300
0000
0010
0000
1000
0000
0000
0001
0000
0000
2002
0000
,
0000
0000
3003
0000
0001
1000
0010
0100
,
0020
0000
0000
0000
0030
0000
1000
0000
1100
0000
0000
1001
0000
0000
0202
0000
,
0000
0000
0303
0000
0001
1000
0100
0010
,
0001
1000
0100
0000
1000
0001
0100
0000
,
0010
0100
0001
0100
0010
0000
1001
0000
,
0001
0010
0100
0000
0010
0001
1000
0000
,
0001
0010
1000
0010
0001
0000
1001
0000
,
0001
0100
0010
0100
0000
0010
1000
0001
,
0000
1000
0100
0010
0001
0000
1001
0000
,
1000
0100
0001
0100
0000
1000
0100
0001
,
0000
0100
1000
0001
0100
0000
0110
0000
,
0010
1000
0001
1000
0100
0010
0001
0000
,
0010
0001
0100
0010
1000
0001
0100
0000
,
0010
1000
0001
0100
1000
0100
0001
1000
,
0100
0010
0001
0010
0100
0010
0001
0000
,
1000
0100
0010
0001
0100
0010
1000
0001
,
1000
0100
0010
0001
0100
0010
1000
0010
,
0100
0001
0100
0010
1000
0100
0010
0200
,
0000
0310
0100
0010
0100
0000
1001
0000
,
0101
0000
0010
1000
0100
0010
0001
0010
,
0001
0000
1000
0100
1000
0001
0100
0010
,
1000
0000
0010
1000
0001
1000
0100
0010
,
0001
0000
1000
0000
0001
0100
0101
0000
,
1001
0000
0001
0010
0100
0010
0001
1000
,
0001
0000
1000
0010
1000
0010
0100
0010
,
1000
0010
0100
0001
1000
0001
1000
0002
,
0000
1003
0100
0010
0001
0000
1001
0000
,
1010
0000
0000
0000
0010
0000
1000
0000
0001
0000
0000
0010
0000
0000
0200
0000
,
0000
0310
0100
0000
0010
0001
1000
0001
,
0100
0000
0000
0000
0010
0000
1000
0000
0001
0000
0000
0100
0000
0000
0102
0000
,
0000
1003
0100
1000
0001
0010
0100
0010
,
0001
0000
0000
0000
1000
0000
0010
0000
0100
0000
0000
0010
0000
0000
2000
0000
,
0000
3100
1000
0000
0001
0100
0010
1000
,
0001
0000
0000
0000
0010
0000
0001
0000
1000
0000
0000
0001
0000
0000
0201
0000
,
0000
0000
0000
0000
0310
0000
0000
0000
0100
0000
0000
0001
1000
0000
0001
0000
,
0101
0000
0000
0000
0010
0000
1000
0000
0100
0000
0000
0100
1000
0000
0002
0000
,
0000
0000
0103
0010
1000
0010
0100
0000
,
0001
0000
0000
0000
0010
0000
0001
0000
0100
0000
0000
0010
1000
0000
0200
0000
,
0000
0000
0310
0000
0100
0010
0001
1000
,
0002
0000
0000
0000
0003
0000
1000
0000
0010
0000
0000
0100
0000
0000
0220
0000
,
0000
0000
0330
0000
0001
1000
0001
0100
,
0001
1000
0010
1000
0001
0010
0001
0100
,
0000
0200
0000
0300
0100
0000
2002
3003
;

//---------------dance-single - ----------------
#NOTES:
     dance-single:
     :
     Easy:
     5:
     0.451,0.488,0.325,0.214,0.052: // measure 1
2002
0000
0000
0000
3003
0000
0000
0000
0001
0000
0000
0001
0000
0000
0001
0000
,  // measure 2
0000
0000
0100
0010
,  // measure 3
0220
0000
0000
0000
0330
0000
0000
0000
1000
0000
0000
1000
0000
0000
1000
0000
,  // measure 4
0000
0000
0001
1000
,  // measure 5
2002
0000
0000
0000
3003
0000
0000
0000
0100
0000
0000
0100
0000
0000
0100
0000
,  // measure 6
0000
0110
0010
1000
,  // measure 7
2002
0000
0000
0000
3003
0000
0000
0000
0010
0000
0000
0010
0000
0000
0010
0000
,  // measure 8
0000
0000
1000
0001
,  // measure 9
0101
0100
0001
1000
,  // measure 10
0100
0010
0001
0100
,  // measure 11
0001
1000
0100
1000
,  // measure 12
0010
0100
0001
1000
,  // measure 13
1001
0001
1001
1000
,  // measure 14
0110
0001
0110
1000
,  // measure 15
2002
0000
0000
0000
,  // measure 16
3003
0000
0000
0110
,  // measure 17
1001
0001
0100
0010
,  // measure 18
0100
0001
0010
0100
,  // measure 19
0001
0100
1000
0001
,  // measure 20
0100
0000
0010
0000
1000
0000
0001
0100
,  // measure 21
0001
1000
0100
0010
,  // measure 22
0001
0100
0010
1000
,  // measure 23
0100
0100
0010
0100
,  // measure 24
2002
3003
0110
1001
,  // measure 25
0110
0010
1000
0001
,  // measure 26
0010
0100
0010
1001
,  // measure 27
0010
0100
0010
1000
,  // measure 28
0001
0100
1001
0110
,  // measure 29
1001
0001
0100
0010
,  // measure 30
1000
0100
0010
0110
,  // measure 31
1001
0000
0000
0110
0000
0000
1001
0000
,  // measure 32
0000
0020
0000
0000
0130
0000
1001
0000
,  // measure 33
0001
0001
0001
0001
,  // measure 34
1000
0100
1000
0100
,  // measure 35
1000
1000
1000
1000
,  // measure 36
0010
0100
0001
0010
,  // measure 37
0100
0100
0100
0100
,  // measure 38
0010
0001
1000
0001
,  // measure 39
0010
0010
1000
1000
,  // measure 40
0001
1000
0001
0110
,  // measure 41
2002
0000
0000
0000
3003
0000
0000
0000
1000
0000
0000
0001
0000
0000
1000
0000
,  // measure 42
0000
0001
0100
0010
,  // measure 43
0220
0000
0000
0000
0330
0000
0000
0000
0010
0000
0000
0100
0000
0000
0010
0000
,  // measure 44
0000
1000
0001
0010
,  // measure 45
2200
0000
0000
0000
3300
0000
0000
0000
0010
0000
0000
0001
0000
0000
0010
0000
,  // measure 46
0000
0001
0100
0010
,  // measure 47
2020
0000
0000
0000
3030
0000
0000
0000
0001
0000
0000
0100
0000
0000
0001
0000
,  // measure 48
0000
0100
0010
1000
,  // measure 49
1001
0000
0010
0000
,  // measure 50
0100
0010
0100
0001
,  // measure 51
1000
0000
0001
0000
,  // measure 52
0010
0001
1000
0100
,  // measure 53
1000
0000
0001
0000
,  // measure 54
0100
0010
1000
0001
,  // measure 55
0010
0000
0100
0000
,  // measure 56
0001
0100
1000
0100
,  // measure 57
0001
0001
1000
1000
,  // measure 58
0100
0100
0010
0010
,  // measure 59
0100
0010
0001
0100
,  // measure 60
0010
1000
0010
0100
,  // measure 61
0001
0100
0001
0100
,  // measure 62
0010
1000
0010
1000
,  // measure 63
0001
1000
0100
0020
,  // measure 64
0030
0100
0100
0000
0100
0000
1001
0000
,  // measure 65
0001
0100
0010
1000
,  // measure 66
0100
0000
0010
0000
0100
0010
0100
0000
,  // measure 67
1000
0010
0100
0001
,  // measure 68
1000
0000
0100
0000
0010
0001
0010
0000
,  // measure 69
0001
0100
0010
1000
,  // measure 70
0100
0000
0010
0000
1000
0100
1000
0000
,  // measure 71
0200
0000
0000
0000
,  // measure 72
0300
1000
0001
0000
0110
0000
1001
0000
,  // measure 73
0110
0000
0000
0000
0001
0000
0000
0000
1000
0000
0000
0100
0000
0000
1000
0000
,  // measure 74
1000
0001
0100
0010
,  // measure 75
1000
0000
0000
0000
0100
0000
0000
0000
0010
0000
0000
0100
0000
0000
0010
0000
,  // measure 76
0010
0001
1000
0001
,  // measure 77
0100
0000
0000
0000
0001
0000
0000
0000
1000
0000
0000
0010
0000
0000
1000
0000
,  // measure 78
1000
0010
0100
0001
,  // measure 79
0010
0000
0000
0000
0100
0000
0000
0000
0010
0000
0000
0001
0000
0000
0010
0000
,  // measure 80
0010
0001
0011
1100
,  // measure 81
1001
0000
0010
0000
0100
0000
0010
0100
,  // measure 82
0010
1000
0100
0010
,  // measure 83
0100
0000
0010
0000
0001
0000
1000
0001
,  // measure 84
1000
0000
0001
0000
0100
0000
0010
1000
,  // measure 85
0001
0000
0000
0000
0000
0000
0100
0000
0100
0000
0000
0100
0000
0000
0200
0000
,  // measure 86
0000
0000
0300
0000
0010
0000
1000
0001
,  // measure 87
1000
0000
0000
0001
0000
0000
1001
0000
,  // measure 88
0000
0200
0000
0300
0100
0000
2002
3003
;

//---------------dance-single - ----------------
#NOTES:
     dance-single:
     :
     Beginner:
     3:
     0.214,0.348,0.103,0.000,0.000: // measure 1
1001
0000
0000
0000
,  // measure 2
0000
0000
0000
0000
,  // measure 3
0100
0000
0000
0000
,  // measure 4
0000
0000
0000
0000
,  // measure 5
0010
0000
0100
0000
,  // measure 6
0001
1001
0000
0000
,  // measure 7
1000
0000
0100
0000
,  // measure 8
0010
0000
0000
0000
,  // measure 9
1000
0000
1000
0000
,  // measure 10
0001
0000
0001
0000
,  // measure 11
0100
0000
0010
0000
,  // measure 12
1000
0000
0001
0000
,  // measure 13
0010
0000
0100
0000
,  // measure 14
0010
0000
0100
0000
,  // measure 15
0010
0010
0010
0010
,  // measure 16
0000
0000
0000
0000
,  // measure 17
1001
0000
1000
0000
,  // measure 18
0100
0000
1000
1000
,  // measure 19
1000
0000
0001
0000
,  // measure 20
0100
0000
0010
0010
,  // measure 21
0010
0000
0100
0000
,  // measure 22
0001
0000
0010
0010
,  // measure 23
0010
0000
0100
0000
,  // measure 24
0110
0000
1000
0100
,  // measure 25
1000
0000
1000
0000
,  // measure 26
0001
0000
0100
0000
,  // measure 27
0001
0000
1000
0000
,  // measure 28
0100
0000
0010
0001
,  // measure 29
0010
0000
0001
0000
,  // measure 30
0100
0000
0010
0000
,  // measure 31
0110
0000
0000
0000
,  // measure 32
0000
0000
0000
0000
,  // measure 33
1000
0000
0100
0000
,  // measure 34
1000
0000
0001
0000
,  // measure 35
0100
0000
0000
0000
,  // measure 36
0010
0000
0000
0000
,  // measure 37
0100
0000
0001
0000
,  // measure 38
1000
0000
0001
0000
,  // measure 39
0010
0000
0000
0000
,  // measure 40
0100
0000
0000
0000
,  // measure 41
1001
0000
0001
0000
,  // measure 42
0100
0000
0000
0000
,  // measure 43
0010
0000
1000
0000
,  // measure 44
0001
0000
0000
0000
,  // measure 45
1000
0000
0100
0000
,  // measure 46
0010
0000
0000
0000
,  // measure 47
0001
0000
1000
0000
,  // measure 48
0100
0000
0000
0000
,  // measure 49
1000
0000
1000
0000
,  // measure 50
0100
0000
0100
0000
,  // measure 51
0010
0000
0010
0000
,  // measure 52
0001
0000
0001
0000
,  // measure 53
1000
0000
0010
0000
,  // measure 54
0100
0000
0001
0000
,  // measure 55
1000
0000
0100
0000
,  // measure 56
0010
0000
0001
0000
,  // measure 57
1000
0100
1000
0000
,  // measure 58
0001
0010
0001
0000
,  // measure 59
1000
0001
1000
0000
,  // measure 60
0001
0100
0001
0000
,  // measure 61
0100
0100
0100
0100
,  // measure 62
0010
0010
0010
0010
,  // measure 63
0110
0000
0000
0000
,  // measure 64
0000
0000
0000
1001
,  // measure 65
1001
0000
0001
0100
,  // measure 66
0001
0000
1000
0000
,  // measure 67
0100
0000
0010
0001
,  // measure 68
0010
0000
0001
0000
,  // measure 69
1000
0000
0010
1000
,  // measure 70
0001
0000
1000
0000
,  // measure 71
1001
0000
0000
0000
,  // measure 72
0000
0000
0000
0000
,  // measure 73
1001
0000
0001
0100
,  // measure 74
0001
0000
1000
0000
,  // measure 75
0100
0000
1000
0100
,  // measure 76
0010
0000
0100
0000
,  // measure 77
1000
0000
0001
0100
,  // measure 78
0010
0000
0100
0000
,  // measure 79
0010
0000
1000
0010
,  // measure 80
1000
0000
0001
0000
,  // measure 81
1000
0001
1000
0001
,  // measure 82
1000
0000
0001
0000
,  // measure 83
0100
0010
0100
0010
,  // measure 84
1000
0000
0001
0000
,  // measure 85
1000
0000
0001
1000
,  // measure 86
0001
0000
0100
0000
,  // measure 87
0110
0000
0000
0000
,  // measure 88
0000
0000
0000
1001
;
