#TITLE:F/E/D/R;
#SUBTITLE:(I Don't Care);
#ARTIST:DJ Noriken;
#TITLETRANSLIT:;
#SUBTITLETRANSLIT:;
#ARTISTTRANSLIT:;
#CREDIT:;
#BANNER:FEDR(I Don't Care).png;
#BACKGROUND:FEDR(I Don't Care)-bg.PNG;
#LYRICSPATH:;
#CDTITLE:;
#MUSIC:FEDR(I Don't Care).mp3;
#OFFSET:-6.870;
#SAMPLESTART:87.810;
#SAMPLELENGTH:12.340;
#SELECTABLE:YES;
#BPMS:0.000=87.500,24.000=175.000,152.000=87.500,168.000=175.000;
#STOPS:;
#BGCHANGES:;

//---------------dance-single - ----------------
#NOTES:
     dance-single:
     :
     Hard:
     8:
     0.586,0.601,0.330,0.243,0.130:
2000
0000
0000
0000
0001
0000
0000
0002
0000
0000
0000
0000
3003
0000
0001
0000
,
0200
0000
0000
0000
0310
0000
0100
0001
1000
0000
0000
0001
0000
0000
1000
0000
,
0010
0100
0202
0000
0303
1000
1100
0000
,
0001
1000
0110
0000
1000
0100
0011
0001
,
0100
0010
2020
0000
3030
0100
1001
0010
,
1000
0000
0100
0000
0010
0000
0001
0010
0002
0000
0000
0000
0000
0000
1003
0000
,
0001
0000
0100
0000
0001
2000
0000
3100
,
1000
0001
0010
0001
0000
0100
0001
0100
,
0000
0000
0020
0000
0000
1030
0000
0001
,
0010
0001
1000
0100
0000
1000
0001
0000
,
1001
0000
1000
0000
0100
0002
0000
0103
,
1000
0100
0010
0001
0000
0010
0001
1000
,
0000
0000
0002
0000
0000
0103
0000
0010
,
1000
0001
1000
0100
0000
0000
1001
0000
,
0010
0000
1000
0000
0001
0000
0010
0001
,
0100
0000
0010
0000
1000
0000
0100
1000
,
1100
0000
0010
0000
0001
0000
1000
0010
,
0100
0010
1000
0100
,
0010
0001
0010
0001
1000
0001
1000
0000
,
0001
0100
0001
0100
0010
1000
0001
0000
,
1000
0100
0000
0000
1000
0100
0000
0000
0010
0000
0001
0000
0100
0000
0010
0000
,
0220
0000
0330
1001
,
0101
0000
0000
0000
0010
0000
1000
0000
0001
0000
0000
1000
0000
0000
0100
0000
,
0010
0000
0010
0000
0100
0000
1000
0000
0001
0000
0000
0100
0000
0000
0010
0000
,
1000
0000
0000
0000
0100
0000
1000
0000
0001
0000
0000
0100
0000
0000
0001
0000
,
1000
1000
1000
0001
0100
0000
1001
0000
,
0110
0000
0000
0000
0001
0000
1000
0000
0010
0000
0000
1000
0000
0000
0001
0000
,
0010
0000
0010
0000
0001
0000
0100
0000
0010
0000
0000
0200
0000
0000
0301
0000
,
0101
1001
1100
1010
,
0101
0000
0000
0000
1001
0000
0000
0000
1000
0001
1000
0001
1000
0000
0000
0000
,
0001
0000
0000
0010
0001
0000
1000
0000
0100
0000
0010
0000
0001
0000
0000
0000
,
0100
0000
0000
0001
1000
0000
0001
0000
0100
0000
0010
0000
1000
0000
0000
0000
,
0001
0000
0000
0010
0001
0000
0100
0000
0001
0000
1000
0000
0001
0000
0010
0000
,
0100
1000
0100
0010
0001
1000
0001
0000
,
1000
0010
1000
0010
0100
0001
0100
0001
,
1000
0100
0010
0001
0100
0010
1000
0100
,
1000
0100
0010
0001
0100
0010
1000
0001
,
0200
0000
0300
1001
,
1002
0000
0000
0000
0023
0000
0000
0230
0000
0000
0000
0000
0000
0000
0310
0000
,
0002
0000
0000
0000
0203
0000
0000
0320
0000
0000
0000
0000
0000
0000
1030
0000
,
0001
0000
1000
0000
0100
0000
1000
0100
0010
0000
0100
0000
1000
0000
0001
0000
,
0100
0000
0010
0000
0100
0000
0001
0100
1000
0000
0100
0000
0010
0000
1001
0000
,
0101
0000
1000
0000
0001
0100
0001
0100
,
0010
1000
0010
1000
0010
0000
0110
0000
,
1001
0000
0010
0000
1000
0100
1000
0100
,
0010
0001
0010
0001
1000
0000
0001
0000
,
1000
0100
0010
0001
0010
0100
1000
0000
,
0001
0100
0010
1000
0010
0100
0001
0000
,
1000
0100
0000
0000
0001
0100
0000
0000
1000
0000
0100
0000
0010
0000
0001
0000
,
2002
0000
0000
0000
3003
0000
0000
0000
0001
1000
0001
1000
0001
0000
0000
0000
,
1001
0000
0101
0000
0010
1000
0010
1000
,
0001
0010
0100
2000
0000
3100
0010
0001
,
0100
0000
0110
0000
0010
1000
0000
0001
,
1000
0001
0010
0100
1000
0100
0001
0100
,
1000
0000
0101
0000
0001
0010
0000
0001
,
0010
0001
1000
0200
0000
0310
0100
1000
,
0001
0000
1010
0000
0100
0010
1000
0001
,
1001
0000
0000
0000
0110
0000
0000
0000
1000
0001
1000
0001
1000
0000
0000
0000
,
1001
0000
0011
0000
1000
0100
1000
0001
,
0100
0010
0100
0001
0000
0010
0001
1000
,
0100
0000
0010
0000
0100
1000
0001
0100
,
0010
0000
1000
0001
0000
0100
0001
1000
,
0100
1000
0100
0010
1000
0010
0001
0000
,
1000
0010
0100
1000
0100
0001
1000
0000
,
1000
0001
0000
0000
0001
1000
0000
0000
1000
0000
0001
0000
1000
0000
0001
0000
,
2002
0000
0000
0000
3003
0000
0000
0000
1000
0001
1000
0001
1000
0000
0000
0000
,
0110
0000
0000
0000
;

//---------------dance-single - ----------------
#NOTES:
     dance-single:
     :
     Medium:
     6:
     0.493,0.515,0.416,0.217,0.017:
1000
0000
0000
0000
0001
0000
0000
2002
0000
0000
0000
0000
3003
0000
0100
0000
,
0010
0000
0000
0000
0100
0000
0000
0220
0000
0000
0000
0000
0330
0000
0010
0000
,
1000
0001
0020
0000
0000
0100
0130
0000
,
0010
0001
2000
0000
0010
0010
3010
0000
,
1001
0000
0201
0000
0000
0010
0310
0000
,
0010
1000
0001
1000
0200
0000
0000
0300
,
1001
0000
1001
0000
0000
0001
0000
0100
,
0001
0100
0001
0200
0000
0000
0310
0000
,
0000
0000
0002
0000
0000
1003
0000
0000
,
1000
0100
0010
0001
0000
0000
0011
0000
,
1001
0000
1100
0000
0000
0010
0000
0001
,
1000
0100
1000
0200
0000
0000
0310
0000
,
0000
0000
2000
0000
0000
3001
0000
0000
,
0220
0000
0330
0110
,
0001
0100
0001
1000
,
0100
0010
0001
0100
,
0010
1000
0100
1000
,
0001
0010
0001
0100
,
0010
0100
0010
0100
0010
0100
0010
0000
,
1000
0001
1000
0001
1000
0001
1000
0000
,
0101
0000
1100
0000
0001
1000
0001
0000
,
0220
0000
0330
0110
,
1001
0000
0001
0000
1000
0000
0010
1000
,
0001
0000
0100
0000
0010
0000
1000
0010
,
0100
0000
0001
0000
1000
0000
0100
1000
,
0100
0000
0010
0100
0010
0000
1001
0000
,
0101
0000
0010
1000
0001
0000
0100
0001
,
1000
0000
0100
0010
0100
0000
1001
0000
,
0101
0101
1100
1100
,
1010
1010
1001
0110
,
1001
0000
0001
0000
0100
0001
0100
0001
,
0100
0000
0010
0000
1000
0001
1000
0100
,
0010
0000
0100
0000
0010
0001
1000
0001
,
0100
0000
0010
1000
0001
0000
1001
0000
,
0010
1000
0100
0000
1000
0001
0100
0000
,
0001
0010
0100
0000
0010
0001
1000
0000
,
0001
1000
0001
1000
0001
1000
0100
0000
,
2002
0000
3003
1001
,
0002
0000
0000
0000
1000
0000
0000
1003
0000
0000
0000
0000
0000
0000
0100
0000
,
0200
0000
0000
0000
0010
0000
0000
0310
0000
0000
0000
0000
0000
0000
0100
0000
,
0001
1000
0001
1000
0100
0010
0100
0010
,
0001
1000
0001
1000
0010
0100
0010
0000
,
0101
0000
0001
0000
0100
0000
0010
1000
,
0010
1000
0100
0110
,
1001
0000
0001
0000
0100
0000
0010
1000
,
0001
0010
0100
0110
,
0010
0100
0010
0100
0010
0100
1000
0000
,
1000
0001
1000
0001
1000
0001
0100
0000
,
1010
0000
0101
0000
0001
1000
0001
0000
,
0220
0000
0330
1001
,
0101
0000
0010
0000
1000
0100
0000
1000
,
0100
0000
0010
0001
1000
0000
0001
0000
,
0100
0000
0010
0000
0100
0001
0000
0100
,
0010
0000
1000
0001
0010
0000
0100
0000
,
0110
0000
1000
0000
0001
0100
0001
0100
,
0001
0000
1000
0100
1000
0000
0010
0000
,
0100
0000
1000
0000
0001
1000
0001
0000
,
1001
0110
2002
3003
,
0101
0000
0010
0000
1000
0100
1000
0100
,
1000
0000
0001
0000
0100
0000
0010
1000
,
0001
0000
0010
0000
0100
0010
0001
0010
,
0001
0000
1000
0000
0001
0100
0001
0000
,
1000
0100
1000
0100
1000
0100
1000
0000
,
0001
0100
0001
0100
0001
0100
0001
0000
,
1010
0000
0011
0000
1000
0100
0010
0001
,
0200
0000
0000
0000
0010
0010
0310
0000
,
1001
0000
0000
0000
;

//---------------dance-single - ----------------
#NOTES:
     dance-single:
     :
     Easy:
     4:
     0.393,0.487,0.573,0.330,0.000: // measure 1
1000
0000
0000
0000
,  // measure 2
0000
0000
0000
0000
,  // measure 3
0100
1001
0000
0110
,  // measure 4
0010
0110
0100
1001
,  // measure 5
1000
1001
0000
0110
,  // measure 6
1000
1001
0220
0330
,  // measure 7
2002
0000
0000
0000
,  // measure 8
0000
0000
0000
0000
,  // measure 9
0000
0000
0000
0000
,  // measure 10
3003
0000
0000
0110
,  // measure 11
1001
0001
0100
0001
,  // measure 12
1000
0100
0010
0001
,  // measure 13
0100
0001
1000
0010
,  // measure 14
0220
0000
0330
0110
,  // measure 15
1001
0001
1000
1000
,  // measure 16
0010
0100
0010
0100
,  // measure 17
0110
0010
0100
0100
,  // measure 18
0001
1000
0100
0010
,  // measure 19
1001
1000
2002
3003
,  // measure 20
0110
0100
0220
0330
,  // measure 21
1001
1001
0110
0110
,  // measure 22
2002
0000
3003
1001
,  // measure 23
0001
0100
0001
0100
,  // measure 24
1000
0100
0001
1000
,  // measure 25
0100
1000
0100
1000
,  // measure 26
0001
0010
1000
0110
,  // measure 27
1001
0001
0100
0010
,  // measure 28
1000
0001
0200
0300
,  // measure 29
1001
1001
0110
0110
,  // measure 30
1001
1001
2002
3003
,  // measure 31
1000
0100
1000
0001
,  // measure 32
0100
0001
0010
0010
,  // measure 33
0010
0100
0001
0100
,  // measure 34
1000
0010
0100
0100
,  // measure 35
0100
0010
1000
0001
,  // measure 36
0100
0010
1000
0100
,  // measure 37
0010
0001
1000
0001
,  // measure 38
2002
0000
3003
1001
,  // measure 39
0220
0000
0330
0000
,  // measure 40
2000
0000
3000
0000
,  // measure 41
0100
0010
0001
1000
,  // measure 42
0010
0100
0220
0330
,  // measure 43
2001
0001
0001
0001
,  // measure 44
0010
0010
3010
0110
,  // measure 45
1002
0100
0100
0100
,  // measure 46
0010
0010
0013
0110
,  // measure 47
1001
1000
2002
3003
,  // measure 48
0110
0010
0220
0330
,  // measure 49
1001
0100
1001
0010
,  // measure 50
2002
0000
3003
1001
,  // measure 51
1001
0100
0001
0010
,  // measure 52
0100
0010
0001
1000
,  // measure 53
0100
1000
0010
0100
,  // measure 54
0001
0001
1000
1000
,  // measure 55
1001
0001
0100
0010
,  // measure 56
1000
0010
0100
0001
,  // measure 57
0010
0100
0010
0100
,  // measure 58
1001
0110
2002
3003
,  // measure 59
1000
0100
1000
0010
,  // measure 60
0100
0001
0010
0000
,  // measure 61
0001
0100
0001
1000
,  // measure 62
0100
0010
0001
0000
,  // measure 63
1001
1000
2002
3003
,  // measure 64
1001
0001
2002
3003
,  // measure 65
1001
0110
1001
0110
,  // measure 66
2002
0000
3003
0110
,  // measure 67
1001
0000
0000
0000
;

//---------------dance-single - ----------------
#NOTES:
     dance-single:
     :
     Beginner:
     1:
     0.160,0.258,0.139,0.069,0.000: // measure 1
0100
0000
0000
0000
,  // measure 2
0000
0000
0000
0000
,  // measure 3
0010
0000
0000
0000
,  // measure 4
0100
0000
0000
0000
,  // measure 5
1001
0000
0100
0000
,  // measure 6
0010
0000
1001
0000
,  // measure 7
2002
0000
0000
0000
,  // measure 8
0000
0000
0000
0000
,  // measure 9
0000
0000
0000
0000
,  // measure 10
3003
0000
0000
0000
,  // measure 11
0220
0000
0000
0000
,  // measure 12
0000
0000
0000
0000
,  // measure 13
0000
0000
0000
0000
,  // measure 14
0330
0000
0000
0000
,  // measure 15
1000
0000
1000
0000
,  // measure 16
0100
0000
0100
0000
,  // measure 17
0010
0000
0010
0000
,  // measure 18
0001
0000
0001
0000
,  // measure 19
1000
0000
0010
0000
,  // measure 20
0100
0000
0001
0000
,  // measure 21
1000
0000
0001
0000
,  // measure 22
1001
0000
0000
0000
,  // measure 23
0001
0000
0100
0000
,  // measure 24
0001
0000
1000
0000
,  // measure 25
0100
0000
1000
0000
,  // measure 26
1001
0000
0000
0100
,  // measure 27
0100
0000
0010
0000
,  // measure 28
0100
0000
1000
0000
,  // measure 29
0001
0001
0001
0001
,  // measure 30
0001
0001
0001
0000
,  // measure 31
1001
0000
0000
0000
,  // measure 32
1000
0000
0010
0000
,  // measure 33
0100
0000
0000
0000
,  // measure 34
0010
0000
1000
0000
,  // measure 35
0001
0000
1000
0000
,  // measure 36
0100
0000
0010
0000
,  // measure 37
0100
0000
0000
0000
,  // measure 38
0110
0000
0000
0000
,  // measure 39
1001
0000
0000
0000
,  // measure 40
0001
0000
0000
0000
,  // measure 41
0100
0000
0000
0000
,  // measure 42
0010
0000
0000
0000
,  // measure 43
2002
0000
0000
0000
,  // measure 44
3003
0000
0000
0000
,  // measure 45
0220
0000
0000
0000
,  // measure 46
0330
0000
0000
0000
,  // measure 47
1000
1000
1000
0000
,  // measure 48
0001
0001
0001
0000
,  // measure 49
0100
0000
0010
0000
,  // measure 50
1001
0000
0000
0000
,  // measure 51
1000
0000
0100
0000
,  // measure 52
1000
0000
0001
0000
,  // measure 53
0100
0000
0001
0000
,  // measure 54
0100
0000
0010
0000
,  // measure 55
0110
0000
0100
0000
,  // measure 56
0001
0000
1000
0000
,  // measure 57
0100
0000
0010
0000
,  // measure 58
0010
0010
0010
0000
,  // measure 59
1001
0000
0001
0000
,  // measure 60
0100
0000
0001
0000
,  // measure 61
1000
0000
0100
0000
,  // measure 62
0010
0000
0100
0000
,  // measure 63
1000
1000
1000
0000
,  // measure 64
0001
0001
0001
0000
,  // measure 65
0100
0000
0010
0000
,  // measure 66
1001
0000
0000
0000
,  // measure 67
0110
0000
0000
0000
;
