#TITLE:Exchange Place;
#SUBTITLE:;
#ARTIST:Dirty Androids;
#TITLETRANSLIT:;
#SUBTITLETRANSLIT:;
#ARTISTTRANSLIT:;
#CREDIT:;
#BANNER:;
#BACKGROUND:;
#LYRICSPATH:;
#CDTITLE:;
#MUSIC:Exchange Place.mp3;
#OFFSET:-6.780;
#SAMPLESTART:98.040;
#SAMPLELENGTH:13.520;
#SELECTABLE:YES;
#BPMS:0.000=142.000;
#STOPS:;
#BGCHANGES:;

//---------------dance-single - ----------------
#NOTES:
     dance-single:
     :
     Hard:
     7:
     0.533,0.523,0.472,0.400,0.228:
1000
0100
1100
1000
,
0001
0100
0101
0001
,
2000
0000
3100
0000
1000
0100
0010
0001
,
0101
1100
2002
3003
,
0220
0000
0000
0000
0330
0000
0000
0000
0000
0000
1010
0000
0000
0101
0000
0000
,
2002
0000
0000
0000
0000
0000
0000
0000
3003
0000
1001
0000
0000
0200
0000
0000
,
0020
0000
0000
0000
0330
0000
0000
0000
0000
0000
0110
0000
0000
1010
0000
0000
,
2002
0000
0000
0000
3003
0000
1000
0000
0100
0000
0000
0010
0000
0000
0001
0000
,
2002
0000
0000
0000
3003
0000
0000
0000
0000
0000
1000
0001
0000
1000
0000
0000
,
1100
0000
0000
1010
0000
0000
0101
0000
0000
0000
2002
0000
0000
0000
3003
0000
,
0220
0000
0000
0000
0330
0000
0110
0000
0000
0000
0010
0000
0000
1000
0000
0000
,
1001
0000
0000
0000
0110
0000
0000
0000
1001
0000
0000
1000
0000
0000
0001
0000
,
0100
0000
0000
0000
0101
0000
0000
0000
0001
0000
1000
0000
0000
0100
0000
0000
,
0010
0000
0000
0000
1001
0000
0000
0000
1000
0000
0010
0000
0000
1000
0001
1000
,
0001
0000
0000
0100
0000
0000
0002
0000
0000
0000
1003
0000
0000
0100
0000
0000
,
1100
0000
0000
0000
1000
0000
0001
0000
0010
0000
0000
0001
0000
0000
1000
0000
,
0001
0000
0000
0000
0101
0000
0000
0000
0100
0000
0010
1000
0000
0001
0000
0000
,
1001
0000
0000
1001
0000
0000
1001
0000
0000
0000
1000
0000
0100
0000
1000
0000
,
0001
0000
0000
0001
0100
0000
0010
0000
1000
0000
0000
1000
0100
0000
0010
0000
,
0011
1100
2002
3003
,
0220
0000
0000
0000
,
0000
0000
0330
1001
,
0101
0000
0000
0000
0010
0000
1000
0000
0100
0000
0000
1000
0000
0000
0100
0000
,
1000
0000
0001
0000
0000
0100
0000
0000
0001
0000
0000
0010
0000
0000
0001
0000
,
1000
0000
0100
0000
0000
0010
0000
0000
0001
0000
0000
1000
0000
0000
0001
0000
,
1000
0000
0010
0000
1000
0000
0001
0000
0100
0000
0000
0001
0000
0000
1000
0000
,
0200
0000
1300
0010
0200
0000
0301
0010
,
0200
0000
0000
0000
0310
0000
0001
0000
0200
0000
0000
0301
0000
0000
0100
0000
,
0020
0000
1030
0100
0020
0000
0130
1000
,
0010
0000
0100
0000
0100
0000
0010
0000
1000
0000
0000
0001
0000
0000
1000
0000
,
1001
0000
0000
0000
0001
0000
0100
0000
0001
0000
1000
0100
0000
0000
0010
0000
,
0001
0000
0000
0000
0100
0000
0010
0000
0100
0000
0000
0001
1000
0000
0100
0000
,
1000
0000
0000
0000
0001
0000
0010
0000
0001
0000
1000
0100
0000
0000
0010
0000
,
0001
0000
1000
0000
0001
0000
0100
0000
0001
0000
0000
1000
0000
0000
0200
0000
,
0000
0000
0000
0000
0310
0000
0001
0000
1000
0000
0000
0001
0000
0000
0100
0000
,
0010
0000
1000
0000
0100
0000
1000
0000
0100
0000
0000
0010
0000
0000
0001
0000
,
1000
0100
0010
0001
1000
0010
0100
0001
,
0101
0000
0000
0000
1100
0000
0000
0000
1000
0001
0000
1000
0001
0000
1000
0000
,
0100
0000
0100
0000
0100
0000
0000
0000
0010
0000
0000
0001
0000
0000
1000
0000
,
0010
0000
0010
0000
0010
0000
0100
0000
0001
0000
0000
0001
1000
0000
0000
0000
,
0100
0000
0100
0000
0100
0000
1000
0000
0010
0000
0000
0100
0000
0000
0001
0000
,
1000
1000
1000
0001
0200
0000
0310
0000
,
0010
0000
1000
0000
0100
0000
0010
0000
0001
0000
0000
0001
0000
0000
0001
0000
,
1000
0000
0001
0000
0100
0000
0010
0000
1000
0000
0000
0100
0020
0000
0000
0000
,
0230
0010
0310
0000
0002
0000
1003
0000
,
0101
0000
0000
1010
0000
0000
1001
0000
0000
1000
0001
1000
,
0001
0000
0101
0000
,
1000
0000
0000
0000
0000
0000
0000
0000
1100
0000
0000
0000
0000
0000
0001
1000
,
0001
0000
0011
0000
,
0100
0000
0000
1000
0001
0000
0100
0010
,
0100
0000
0001
0000
1001
0000
1000
0100
,
0010
0100
1001
0100
,
0010
0100
0010
0100
0001
1000
0001
1000
,
1100
0101
2002
3003
,
0110
0000
0000
0000
0001
0000
1000
0200
0000
0000
1300
0000
0000
0001
0000
0000
,
0100
0000
0010
0000
0100
0000
0001
0020
0000
0000
0031
0000
0000
1000
0000
0000
,
0010
0000
0000
0000
0100
0000
0001
2000
0000
0000
3100
0000
0000
1000
0000
0000
,
1100
0000
0000
0000
1001
0000
0000
0000
0101
0000
0000
0001
0100
0000
0010
0000
,
1000
0000
0100
0000
1000
0000
0001
0200
0000
0000
0301
0000
0100
0000
0010
0000
,
1000
0000
0000
1000
0000
0000
2000
0000
0000
0000
3001
0000
0100
0000
0001
0000
,
0200
0000
0000
0000
0301
0000
0000
0001
0010
0000
0100
0000
0000
1001
0000
0000
,
0110
1010
2002
3003
,
2000
0000
0000
0000
0010
0000
0000
0001
,
3002
0000
0000
0100
0103
0001
0000
0000
,
0200
0000
0000
0000
0010
0000
0000
0001
,
0301
0000
0000
0001
0000
0000
0100
0000
0001
0000
0000
1000
0000
0000
0100
0000
,
0020
0000
0000
0000
0001
0000
0000
0100
,
0230
0000
0000
1000
1300
0001
0000
0000
,
1002
0000
0000
0000
0200
0000
0000
0303
;

//---------------dance-single - ----------------
#NOTES:
     dance-single:
     :
     Challenge:
     9:
     0.663,0.633,0.527,0.376,0.499:
0001
0100
0010
0000
0100
0000
0010
0000
,
1000
0000
0001
0000
1000
0100
0010
0001
,
0100
0000
0100
0010
0000
0010
1000
0000
1000
0001
0000
0001
,
0010
1100
2002
3003
,
0202
0000
0000
0000
0303
0000
0000
0000
0000
0000
1010
0000
0000
1001
0000
0000
,
2200
0000
0000
0000
0000
0000
0000
0000
3300
0000
1001
0000
0000
0001
0100
0001
,
0200
0000
0000
0000
0301
0000
0000
0001
1000
0000
1100
0000
0000
1001
0000
0000
,
0202
0000
0000
0000
0303
0000
0010
1000
0010
0000
0000
1000
0000
0000
0001
0000
,
0022
0000
0000
0000
0033
0000
0000
0000
0000
0000
1000
0001
0000
1001
0000
0000
,
0110
0000
0000
0110
0000
0000
0110
0000
0000
0000
2002
0000
3003
0000
0001
0100
,
0001
0000
0000
0000
1001
0000
0000
1000
0100
0000
0010
0000
0000
0001
0000
0000
,
1100
0000
0000
0000
1001
0000
0000
0000
0101
0000
0000
0110
0000
0000
0101
0000
,
0001
0000
0000
0000
1100
0000
0000
1000
0100
0000
0010
0000
0000
1001
0000
0000
,
0101
0000
0000
0000
1001
0000
0000
0001
0100
0000
0010
0000
1000
0001
1000
0001
,
1000
0000
0000
1001
0000
0000
2002
0000
3003
0000
1100
0000
0000
0011
0000
0000
,
0202
0000
0000
0000
0303
0000
0010
1000
0100
0000
0000
0010
0000
0000
0001
0000
,
0011
0000
0000
0000
1100
0000
0000
1000
0001
0000
0100
0010
0000
0110
0000
0000
,
1010
0000
0000
1010
0000
0000
1001
0000
0000
0000
0001
0000
0010
0000
0100
0000
,
0010
0000
0001
1000
0001
0000
0100
0000
0010
0000
1000
0001
1000
0000
0010
0000
,
1010
0101
2002
3003
,
0220
0000
0000
0330
,
0010
0000
0000
0100
0010
0100
0010
0100
0000
0010
0100
0000
1001
0000
0000
0000
,
1000
0000
0100
0000
1000
0000
0001
0100
0001
0000
0000
1000
0000
0000
0100
0000
,
0010
0000
0001
0000
1000
0000
0010
0000
0100
0000
0000
0010
0000
0000
0100
0000
,
0001
0000
1000
0000
0100
0010
0100
0000
0010
0000
0000
0001
0000
0000
1000
0000
,
0001
0000
0100
0000
0001
0000
1000
0100
1000
0000
0000
0100
0000
0000
1000
0000
,
1020
0000
0000
0000
0130
0000
0001
0000
0020
0000
0000
0000
0130
0000
0100
1000
,
0020
0000
0000
0000
0130
0000
0001
0000
1000
0000
0000
0101
0000
0000
1000
0000
,
0200
0000
0000
0000
1300
0000
0010
0000
0200
0000
0000
0000
0310
0000
1000
0001
,
1000
0000
0001
0100
0000
0010
1000
0000
0101
0000
0000
1001
0000
0000
1100
0000
,
0001
0000
0100
0000
0001
0000
1000
0100
0010
0000
0001
0100
0000
0001
0100
0000
,
0010
0000
1000
0000
0001
0000
1000
0010
0100
0000
0000
0101
0000
0000
0001
0000
,
1000
0000
0100
0000
1000
0000
0001
0010
0100
0000
0010
0001
0000
0010
0001
0000
,
1000
0000
0001
0000
0100
0000
0010
0000
1010
0000
0000
0101
0000
0000
1002
0000
,
0000
0000
0000
0000
0103
0000
0100
0000
0010
0000
1000
0001
0000
1000
0001
0000
,
1000
0000
0100
0000
1000
0000
0001
0100
0001
0000
0000
1000
0000
0000
0001
0000
,
1000
0100
0010
0100
1000
0010
0100
0001
,
1000
0000
0000
0000
0100
0000
0000
0000
0010
0000
0000
0000
0001
0000
0000
0000
0100
0000
0000
0000
0010
0000
0000
0000
1000
0000
0000
0001
0000
0000
0000
0000
0000
1000
0000
0000
0001
0000
0000
0000
0000
0000
0100
0000
0000
0010
0000
0000
,
1000
0001
1000
0001
1000
0000
0100
0000
0010
0000
0000
0010
0000
0000
0010
0000
,
0001
0100
0001
0000
0100
0000
0010
0000
0100
0000
0000
0010
2000
0000
0000
0000
,
3001
0010
0001
0010
0001
0000
1000
0000
0100
0000
0000
1000
0000
0000
0010
0000
,
0100
0010
0100
0000
0001
0000
1000
0100
0010
0000
0002
0000
0103
0000
0000
0000
,
1000
0001
1000
0100
1000
0000
0001
0010
0001
0000
0000
0101
0000
0000
1001
0000
,
1000
0010
0100
0000
0001
0000
0010
0001
0100
0000
0010
0000
2000
0000
0000
0000
,
3200
0000
0000
0000
1300
0000
0010
0100
0002
0000
0000
0000
1003
0000
0100
0010
,
0001
0000
0000
0000
0000
0000
1000
0000
0000
0100
0000
0000
0000
0000
0000
0010
0000
0000
0001
0000
0000
0000
0000
0000
1000
0000
0000
0010
0000
0000
0000
0000
0000
0100
0000
0000
0001
0000
0000
0000
1000
0000
0000
0000
0001
0000
0000
0000
,
0200
0000
0010
0000
,
0302
0000
0000
0000
0000
0000
0000
0000
1003
0000
0000
0000
0000
0000
1000
0100
,
0010
0000
0000
0001
0000
0000
1000
0000
0001
0000
0100
0000
0000
0000
0000
0001
,
0100
0020
0000
0000
2000
0000
3030
0000
,
1010
0000
0000
0000
1001
0000
0000
0000
0001
0000
0010
0000
0100
0000
0010
0001
,
1000
0000
1001
0000
0001
0100
0010
1000
,
0001
0100
1000
0100
0001
0100
0010
1000
,
0001
1000
0100
0010
0001
1000
0020
0000
0000
0130
0000
0000
,
1010
0000
1000
0000
0100
0000
0010
0001
0100
0000
0010
0000
1000
0010
0000
1000
,
0001
0000
0010
0000
0001
0000
0100
0010
0100
0000
0001
0000
1000
0100
1000
0001
,
0100
0000
0010
0000
0100
0001
1000
0000
0100
0000
0010
0000
0001
0010
0000
0001
,
0100
0000
0010
0000
1010
0000
1000
0000
0100
0000
0010
0001
0000
0000
1001
0000
,
1000
0000
0010
0000
1000
0000
0001
0100
0010
0000
1000
0000
0001
1000
0000
0001
,
0010
0000
0001
1000
0000
0000
0010
0000
0100
0000
0010
0000
1000
0000
0001
0100
,
0010
0000
0000
0000
1001
0000
0000
1000
0100
0000
0011
0000
0000
1100
0000
0000
,
1010
0000
0000
0000
0101
0000
0010
1000
0100
0000
0000
1100
0000
0000
1000
0100
,
0002
0000
0203
0000
,
2300
0000
0000
0001
3001
1000
0000
0000
,
0002
0000
0000
0000
0203
0000
0000
0010
,
0310
0000
0000
0100
0000
0000
0010
0000
1000
0000
0000
1000
0000
0000
1000
0000
,
0002
0000
0000
0000
0000
0000
0000
0000
0023
0000
0000
0000
0030
0000
0001
0010
,
0002
0000
0000
1000
1003
0001
0000
0000
,
0210
0000
0000
0000
0002
0000
0000
0303
;

//---------------dance-single - ----------------
#NOTES:
     dance-single:
     :
     Medium:
     6:
     0.430,0.469,0.240,0.432,0.084:
0001
1000
1001
0001
,
0100
0010
0110
0100
,
0002
0023
0230
2300
,
3001
0110
2002
3003
,
0202
0000
0000
0000
0303
0000
0000
0000
0000
0000
0100
0000
0000
0100
0000
0000
,
0200
0000
0000
0000
0300
0000
0000
0000
0000
0000
0010
0000
0000
0010
0000
0000
,
0020
0000
0000
0000
0030
0000
0000
0000
0000
0000
1000
0000
0000
1000
0000
0000
,
2000
0000
0000
0000
3000
0000
0000
0000
0001
0000
0000
0001
0000
0000
0001
0000
,
0002
0000
0000
0000
0003
0000
0000
0000
0000
0000
0100
0000
0000
0010
0000
0000
,
0100
0000
0000
0100
0000
0000
0100
0000
0000
0000
2002
0000
3003
0000
0000
0000
,
2002
0000
0000
0000
0000
0000
3003
0000
0000
0000
1000
0000
0000
0001
0000
0000
,
1001
0000
0000
0000
1001
0000
0000
0000
0001
0000
0000
1000
0000
0000
0100
0000
,
0100
0000
0000
0000
0110
0000
0000
0000
0010
0000
0001
0000
0000
0001
0000
0000
,
0001
0000
0000
0000
1001
0000
0000
0000
1000
0000
0010
0000
0000
0010
0000
0000
,
0010
0000
0000
0100
0000
0000
0020
0000
0000
0000
1030
0000
0000
0001
0000
0000
,
2002
0000
0000
0000
3003
0000
0000
0000
1000
0000
0000
0001
0000
0000
0100
0000
,
0100
0000
0101
0000
0001
1000
0001
0000
,
0100
0000
0110
0000
0010
1000
0100
0010
,
0100
0000
0110
0000
0010
0001
1000
0001
,
0100
0110
2002
3003
,
0200
0000
0000
0000
,
0300
0000
0100
1001
,
0001
0100
0000
0001
0100
0000
0001
0000
,
1000
0100
0010
0000
0100
0000
0010
0000
,
0001
1000
0000
0001
0100
0000
0010
0000
,
1000
0001
0100
0000
0010
0100
0001
1000
,
0100
0000
1000
0100
1000
0000
0001
0100
,
0001
0000
1000
0010
1000
0000
0001
0000
,
0010
0000
0001
0100
0001
0000
1000
0010
,
0100
0000
0001
0000
0001
0000
0000
0000
1000
0000
0000
0001
0000
0000
1000
0000
,
0001
0000
0100
0001
1000
0000
0001
0010
,
0100
0000
0000
0000
0010
0000
0001
0000
1000
0000
0000
1000
0000
0000
1000
0000
,
0001
0000
0100
0010
1000
0000
0100
0010
,
0001
0000
0000
0000
1000
0000
0001
0000
1000
0000
0000
0001
0000
0000
0200
0000
,
0000
0000
0310
0100
0010
0000
1000
0001
,
0100
0000
0000
0000
0001
0000
0010
0000
0100
0000
0000
0010
0000
0000
0100
0000
,
0010
0000
0001
1000
0001
0000
1000
0100
,
2000
0010
0002
3003
,
0001
0100
0001
0000
1000
0000
0100
0000
,
1000
0100
1000
0000
0001
0100
0010
0000
,
0001
0100
0001
0000
1000
0000
0100
0000
,
0010
0001
0100
0000
0010
0000
1001
0000
,
1000
0100
0001
0000
0100
0000
1000
0000
,
0001
0100
1000
0000
0100
0000
0010
0000
,
0102
1003
2100
3001
,
0120
0001
0100
1030
,
1002
0000
0203
0000
,
0320
0000
2030
0000
,
3200
0000
0010
0000
,
2300
0000
3200
0000
,
0310
0000
0100
0000
0010
0001
1000
0000
,
0010
0000
0100
0000
0010
1000
0001
0000
,
1000
0001
1000
0001
1000
0001
1000
0001
,
0200
0302
2000
3003
,
1001
0000
0001
0100
0001
0000
1000
0000
,
0100
0000
0000
0000
0010
0000
0001
0000
0100
0000
0001
0000
0000
0100
0000
0000
,
0001
0000
1000
0100
0010
0000
0001
0000
,
0110
0000
0000
0000
1001
0000
0000
0000
1000
0000
0000
0001
0000
0000
1000
0000
,
0001
0000
0100
0001
0100
0000
0010
0000
,
1000
0000
0000
0100
0000
0000
1000
0000
0100
0000
0000
0000
0010
0000
0000
0000
,
2002
0000
0000
0000
3003
0000
0000
0000
0000
0000
0010
0000
0000
0100
0000
0000
,
0110
1001
0220
0330
,
0020
0000
2030
0000
,
3002
0000
0023
0000
,
0230
0000
0001
0000
,
0320
0000
0032
0000
,
2003
0000
3020
0000
,
0230
0000
0000
0000
0302
0100
0000
0000
,
2000
0000
0000
0000
,
3003
0000
0000
0000
;

//---------------dance-single - ----------------
#NOTES:
     dance-single:
     :
     Easy:
     5:
     0.291,0.386,0.160,0.160,0.024: // measure 1
1000
0001
0100
0001
,  // measure 2
1000
0001
0100
0001
,  // measure 3
0010
0010
0100
0100
,  // measure 4
1001
0110
2002
3003
,  // measure 5
1001
0000
0000
0000
0000
0000
0000
0000
0000
0000
0001
0000
0000
0001
0000
0000
,  // measure 6
0001
0000
0000
0000
0000
0000
0000
0000
0000
0000
1000
0000
0000
1000
0000
0000
,  // measure 7
1000
0000
0000
0000
0000
0000
0000
0000
0000
0000
0001
0000
0000
0001
0000
0000
,  // measure 8
0001
0000
0100
0010
,  // measure 9
0110
0000
0000
0000
0000
0000
0000
0000
0000
0000
0100
0000
0000
0100
0000
0000
,  // measure 10
0100
0000
0000
0100
0000
0000
0100
0000
0000
0000
0000
0000
0000
0000
0000
0000
,  // measure 11
1001
0000
0000
0000
0000
0000
0000
0000
0000
0000
0100
0000
0000
0100
0000
0000
,  // measure 12
0100
0010
1000
0001
,  // measure 13
1001
0000
0001
0010
,  // measure 14
0100
0010
0001
1000
,  // measure 15
0010
0000
0100
0010
,  // measure 16
1000
1000
0001
0001
,  // measure 17
0100
0000
0001
1000
,  // measure 18
0100
0010
0001
0100
,  // measure 19
0010
0000
1000
0001
,  // measure 20
1001
0110
2002
3003
,  // measure 21
0220
0000
0000
0000
,  // measure 22
0000
0000
0330
1001
,  // measure 23
1000
0100
0001
0100
,  // measure 24
1000
0001
1000
0001
,  // measure 25
1000
0010
0001
0010
,  // measure 26
1000
1000
0100
0100
,  // measure 27
0010
0000
0001
0100
,  // measure 28
0010
0000
0100
0010
,  // measure 29
1000
0001
0100
0001
,  // measure 30
0010
0100
0010
0001
,  // measure 31
1001
1000
0100
1000
,  // measure 32
0010
0100
0010
0010
,  // measure 33
0010
1000
0100
0010
,  // measure 34
0001
0100
0001
0002
,  // measure 35
0003
1001
1000
0100
,  // measure 36
1000
0010
0100
0001
,  // measure 37
0100
0000
0010
1000
,  // measure 38
0001
1000
1001
0000
,  // measure 39
0100
0100
0001
1000
,  // measure 40
0100
0100
1000
0000
,  // measure 41
0010
0010
1000
0001
,  // measure 42
0010
0010
0001
0000
,  // measure 43
1000
0100
0010
0001
,  // measure 44
0100
0010
1000
0000
,  // measure 45
0001
0100
0001
1000
,  // measure 46
0110
0110
2002
3003
,  // measure 47
0002
0000
1000
0000
,  // measure 48
2003
0000
0001
0000
,  // measure 49
0002
0000
0000
0000
,  // measure 50
3003
0000
0001
0000
,  // measure 51
0100
0000
0010
0000
,  // measure 52
0100
0000
0010
0000
,  // measure 53
1000
0000
0100
0000
,  // measure 54
1000
0001
2002
3003
,  // measure 55
1000
0001
0100
0100
,  // measure 56
0100
0010
1000
1000
,  // measure 57
1000
0001
0010
0100
,  // measure 58
0010
0001
1000
1000
,  // measure 59
1000
0001
0100
0100
,  // measure 60
0100
0010
1000
0100
,  // measure 61
0010
0100
0010
0010
,  // measure 62
0001
1000
0001
0100
,  // measure 63
0210
0000
0010
0000
,  // measure 64
0001
0000
0001
0000
,  // measure 65
0320
0000
0000
0000
,  // measure 66
2030
0000
3002
0000
,  // measure 67
2003
0000
0010
0000
,  // measure 68
0001
0000
0010
0000
,  // measure 69
0002
0000
0000
0000
,  // measure 70
3003
0000
0000
0000
;

//---------------dance-single - ----------------
#NOTES:
     dance-single:
     :
     Beginner:
     2:
     0.146,0.245,0.096,0.000,0.000: // measure 1
1000
0000
0000
0000
,  // measure 2
0100
0000
0000
0000
,  // measure 3
1000
0000
0000
0000
,  // measure 4
0001
0001
0001
0000
,  // measure 5
1001
0000
0000
0000
,  // measure 6
0110
0000
0000
0000
,  // measure 7
0001
0000
0000
0000
,  // measure 8
1000
0000
0001
0000
,  // measure 9
1000
0000
0000
0000
,  // measure 10
0010
0000
0000
0000
,  // measure 11
0100
0000
0000
0000
,  // measure 12
0010
0010
0010
0010
,  // measure 13
0010
0000
0000
0000
,  // measure 14
1001
0000
1000
0000
,  // measure 15
1001
0000
0000
0000
,  // measure 16
0001
0000
1000
0000
,  // measure 17
0100
0000
0000
0000
,  // measure 18
0010
0000
0100
0000
,  // measure 19
0110
0000
0000
0000
,  // measure 20
0100
0100
0100
0000
,  // measure 21
1001
0000
0000
0000
,  // measure 22
0000
0000
0000
0000
,  // measure 23
1000
0000
0001
0000
,  // measure 24
0100
0000
0001
0000
,  // measure 25
1000
0000
0100
0000
,  // measure 26
0010
0000
0000
0000
,  // measure 27
0100
0000
0010
0000
,  // measure 28
0100
0000
1000
0000
,  // measure 29
0001
0000
0100
0000
,  // measure 30
0010
0000
1000
1000
,  // measure 31
1000
0000
0001
0000
,  // measure 32
1000
0000
0100
0000
,  // measure 33
0010
0000
0001
0000
,  // measure 34
1000
0000
0001
0001
,  // measure 35
0000
0000
0000
0000
,  // measure 36
1000
0000
0100
0000
,  // measure 37
1000
0000
0001
0000
,  // measure 38
1001
0000
0000
0000
,  // measure 39
1000
0000
0100
0000
,  // measure 40
1000
0000
0000
0000
,  // measure 41
0001
0000
0100
0000
,  // measure 42
0001
0000
0000
0000
,  // measure 43
1000
0000
0001
0000
,  // measure 44
1000
0000
0000
0000
,  // measure 45
0010
0000
0100
0000
,  // measure 46
0110
0110
0110
0000
,  // measure 47
1000
0000
0000
0000
,  // measure 48
1000
0000
0100
0000
,  // measure 49
0010
0000
0000
0000
,  // measure 50
0001
0000
0000
0000
,  // measure 51
0001
0000
0100
0000
,  // measure 52
0001
0000
1000
0000
,  // measure 53
0100
0000
0000
0000
,  // measure 54
1001
0000
0000
0000
,  // measure 55
1001
0000
0001
0001
,  // measure 56
0001
0000
1000
1000
,  // measure 57
1000
0000
0000
0000
,  // measure 58
0001
0000
1000
0000
,  // measure 59
0010
0000
0100
0100
,  // measure 60
0100
0000
0010
0010
,  // measure 61
0010
0000
1000
0000
,  // measure 62
0001
0001
0001
0000
,  // measure 63
1000
0000
0000
0000
,  // measure 64
0100
0000
1000
0000
,  // measure 65
0001
0000
0000
0000
,  // measure 66
0100
0000
0000
0000
,  // measure 67
0001
0000
0000
0000
,  // measure 68
1000
0000
0001
0000
,  // measure 69
1000
0000
0000
0000
;
