#TITLE:Eros and Apollo;
#SUBTITLE:;
#ARTIST:Studio Killers;
#TITLETRANSLIT:;
#SUBTITLETRANSLIT:;
#ARTISTTRANSLIT:;
#CREDIT:;
#BANNER:Eros and Apollo.png;
#BACKGROUND:Eros and Apollo-bg.PNG;
#LYRICSPATH:;
#CDTITLE:;
#MUSIC:Eros and Apollo.mp3;
#OFFSET:-0.020;
#SAMPLESTART:39.520;
#SAMPLELENGTH:15.780;
#SELECTABLE:YES;
#DISPLAYBPM:121.000;
#BPMS:0.000=121.490;
#STOPS:;
#BGCHANGES:0.000=Eros and Apollo.avi=1.000=1=1=0,
248.000=Eros and Apollo.avi=1.000=1=0=1,
99999=-nosongbg-=1.000=0=0=0 // don't automatically add -songbackground-
;

//---------------dance-single - ----------------
#NOTES:
     dance-single:
     :
     Hard:
     7:
     0.414,0.416,0.225,0.184,0.076: // measure 1
0000
0000
0000
0000
,  // measure 2
0000
0000
0000
0000
,  // measure 3
0000
0000
0000
0000
,  // measure 4
0000
0000
0000
0000
0000
0110
0110
0000
,  // measure 5
1001
0000
0001
0100
0001
0000
1000
0200
,  // measure 6
0000
0310
0100
1000
0010
0000
0100
0010
,  // measure 7
1000
0100
0001
0010
,  // measure 8
1000
0000
0001
0000
1000
0100
0010
0001
,  // measure 9
0100
0000
0001
0010
0100
0000
0010
0002
,  // measure 10
0000
0103
1000
0100
0010
0000
1000
0010
,  // measure 11
0100
1000
0010
0001
,  // measure 12
1000
0000
0001
0100
0010
0100
0100
0010
,  // measure 13
1000
0100
0010
0100
0001
0100
0010
0100
,  // measure 14
1000
0000
0001
0000
0100
0010
1000
0001
,  // measure 15
0010
0000
1001
0000
0100
0010
1000
1100
,  // measure 16
0000
0100
0010
0000
0001
0100
0001
0100
,  // measure 17
0010
0000
1000
0001
0100
0000
0010
0200
,  // measure 18
0000
1300
0100
0001
0010
0000
0100
0010
,  // measure 19
0001
0000
1000
0100
1000
0001
0000
0101
,  // measure 20
0000
0220
0000
0330
,  // measure 21
1001
0000
0001
0100
0001
1000
0100
0010
,  // measure 22
0002
0010
1000
0103
,  // measure 23
0001
0100
0001
0000
1000
0100
0010
0100
,  // measure 24
1000
0001
1000
0000
0010
1000
0001
0000
,  // measure 25
0011
0000
0001
0100
1000
0000
1000
0010
,  // measure 26
0001
0000
0001
0100
1000
0000
1001
0000
,  // measure 27
0001
0010
0100
0010
0001
0000
1000
0100
,  // measure 28
0010
0000
0100
0000
1000
1001
1001
0000
,  // measure 29
0101
0000
0010
1000
0001
1000
0100
0010
,  // measure 30
0200
0001
0010
1300
,  // measure 31
1000
0001
0100
0000
0010
1000
0100
0010
,  // measure 32
0100
0010
0001
0000
0100
0001
1000
0000
,  // measure 33
1001
0000
1000
0010
0001
0000
0001
0100
,  // measure 34
1000
0000
1000
0010
0001
0000
0011
0000
,  // measure 35
0001
0100
1000
0100
0001
0000
0011
0000
,  // measure 36
1000
0001
0000
0100
0001
0101
0101
0000
,  // measure 37
1000
0000
0000
0001
0000
0000
0100
0000
0001
0000
0000
1000
0000
0000
0100
0000
,  // measure 38
0000
1000
0000
0000
0001
0000
0000
0100
0001
0000
0000
1000
0000
0000
0100
0000
,  // measure 39
0010
0000
0000
0100
0000
0000
1000
0000
0001
0000
0000
0100
0000
0000
0010
0000
,  // measure 40
0000
1000
0000
0000
0001
0000
0000
0010
0001
0000
0000
0100
0000
0000
0010
0000
,  // measure 41
1000
0000
0000
0100
0000
0000
0001
0000
1000
0000
0000
0010
0000
0000
0001
0000
,  // measure 42
0000
1000
0000
0000
0001
0000
0000
1000
0010
0000
0000
0100
0000
0000
0001
0000
,  // measure 43
1000
0000
0000
0010
0000
0000
0001
0000
1000
0000
0000
0100
0000
0000
0001
0000
,  // measure 44
0000
0001
0000
0000
0001
0000
0000
1000
0100
0000
1100
0000
1100
0000
0000
0000
,  // measure 45
2002
0000
0000
3003
,  // measure 46
0020
0000
0000
0000
0000
0000
0031
0100
,  // measure 47
0002
0023
2030
3020
,  // measure 48
0031
1000
0200
0000
0000
0000
0000
0000
,  // measure 49
0000
0000
0000
0300
,  // measure 50
2000
0000
3020
0000
,  // measure 51
0032
0000
0203
0000
,  // measure 52
1300
0000
0010
0001
0010
0000
0001
0000
,  // measure 53
1000
0001
0000
1000
0001
1001
1001
0000
,  // measure 54
1100
0000
0001
0010
1000
0010
0001
0100
,  // measure 55
0020
0032
0203
2300
,  // measure 56
3010
0001
1000
0000
0001
0100
0001
0000
,  // measure 57
1000
0100
1000
0001
0100
0010
0010
0000
,  // measure 58
1001
0000
0001
0100
1000
0000
1000
0010
,  // measure 59
0100
0000
0100
1000
0001
0000
1000
0001
,  // measure 60
1000
1000
0100
0010
0001
0000
1000
0100
,  // measure 61
1000
0010
0000
0100
0010
0110
0110
0000
,  // measure 62
1001
0000
0000
0000
;

//---------------dance-single - ----------------
#NOTES:
     dance-single:
     :
     Medium:
     4:
     0.346,0.367,0.144,0.313,0.000:
0000
0000
0000
0000
,
0000
0000
0000
0000
,
0000
0000
0000
0000
,
0000
0000
0000
0000
0000
0100
0100
0000
,
1001
0000
0001
0000
0100
0000
0010
1000
,
0001
0000
0010
0000
1000
0000
0010
0002
,
0000
0010
1000
0100
,
1000
0010
1003
0000
,
1000
0000
0100
1000
0001
0000
0100
0000
,
0010
0000
0001
0000
0010
0000
1000
0200
,
0000
0001
0010
1000
,
0001
0000
1300
0000
0010
0100
0010
0000
,
1001
0001
0100
1000
,
0001
0000
0010
0000
1000
0000
1000
0001
,
1000
0000
1001
0000
0000
0101
0000
0101
,
0000
2002
3003
1000
,
0100
0000
1000
0000
0001
0000
0100
0010
,
0100
0000
0010
1000
0001
0000
1000
0100
,
2000
0000
0001
0000
0000
0100
0000
0100
,
0000
0020
0000
3030
,
1001
0000
0001
0000
0100
0000
0010
1000
,
0002
0023
0230
2300
,
3001
0100
0001
0000
1000
0000
0010
0000
,
1000
0100
0010
0001
,
0101
0100
0110
0010
,
1010
1000
1001
0001
,
1000
0100
0010
0100
,
1000
0000
0100
0000
0010
0010
0010
0000
,
1001
0000
1000
0000
0100
0000
0010
0001
,
0200
0320
2030
3002
,
1003
0100
1000
0000
0001
0000
0100
0000
,
0010
1000
0001
0010
,
0200
0310
0020
0031
,
0002
1003
2000
3010
,
1000
0000
0001
0100
0001
0000
1000
0000
,
2002
0000
3003
0000
0001
1000
0001
0000
,
1001
0000
1000
0100
0010
0000
0100
0000
,
1000
0000
0001
0100
0010
0000
1000
0001
,
0100
0000
0001
0010
0100
0000
0010
0000
,
0001
0000
1000
0100
0001
0000
0100
0010
,
0001
0000
0100
0010
1000
0000
0001
0000
,
1000
0000
0001
0100
1000
0000
0100
0010
,
1000
0000
0001
0010
0100
0000
0010
0000
,
0001
0000
1000
0001
1000
0001
1000
0000
,
2002
0000
0000
3003
,
0002
0000
0000
0000
0000
0000
1003
0100
,
2000
3200
0320
0032
,
1003
0010
0200
0000
0000
0000
0000
0000
,
0000
0000
0000
0300
,
0020
0000
2030
0000
,
3002
0000
2003
0000
,
3000
0000
0001
1000
0200
0000
0000
0000
,
0300
1000
0000
0100
1000
0001
1000
0000
,
1001
0000
0001
0000
0100
0000
0010
1000
,
0002
2003
3200
0320
,
0031
0100
0010
0000
0100
0000
0001
0000
,
1000
0000
0100
0000
1000
0001
0100
0000
,
0010
0000
1000
0100
0010
0000
0100
0010
,
0001
0000
0010
0001
1000
0000
0001
0000
,
0100
0000
0010
1000
0001
0000
2002
0000
,
3003
0000
0001
1000
0100
0100
0100
0000
,
1001
0000
0000
0000
;

//---------------dance-single - ----------------
#NOTES:
     dance-single:
     :
     Easy:
     2:
     0.175,0.196,0.040,0.040,0.000:
0000
0000
0000
0000
,
0000
0000
0000
0000
,
0000
0000
0000
0000
,
0000
0000
0000
0000
,
1001
0000
0001
0100
,
0001
0000
1000
0000
,
0100
0000
0100
0000
,
0010
0000
0010
0000
,
0001
0000
1000
0001
,
1000
0000
0001
0000
,
0100
0000
0100
0000
,
0010
0000
0010
0010
,
0010
0000
1000
0000
,
0100
0000
1000
0001
,
1000
0000
0001
0000
,
0100
0000
0010
1000
,
0001
0000
1000
0100
,
0010
0100
1000
0001
,
0100
0000
0001
0000
,
2002
0000
0000
3003
,
1001
0000
0001
0000
,
0100
0001
0100
0010
,
1000
0000
0001
0000
,
1000
0100
1000
0000
,
0001
0000
0010
0000
,
0100
0000
0010
0000
,
0001
0000
1000
0001
,
1000
0000
0001
0001
,
0001
0000
1000
0000
,
0010
1000
0001
0100
,
0001
0000
1000
0000
,
0100
1000
0001
0000
,
0100
0000
1000
0000
,
0100
0000
0001
0000
,
1000
0001
1000
0000
,
0001
0010
0100
0000
,
0010
0000
0001
0000
,
1000
0100
1000
0100
,
1000
0000
0001
0000
,
0100
0001
0100
0001
,
0100
0000
0010
0000
,
1000
0001
1000
0001
,
1000
0000
0001
0000
,
0010
0100
0010
0100
,
0020
0000
0000
0030
,
0001
0000
0000
0000
,
1000
0001
1000
0001
,
1000
0000
0001
0000
,
0100
0000
0000
0000
,
0010
0000
1000
0000
,
0001
0000
0100
0000
,
0001
0000
0000
0000
,
2002
0000
0000
3003
,
1001
0000
0001
0000
,
0100
0001
0100
0001
,
1000
0000
0001
0000
,
1000
0100
1000
0000
,
0001
0000
0010
0000
,
0100
0000
0010
0000
,
0001
1000
0001
0000
,
0100
0010
1000
0001
,
0100
0000
0000
0000
;

//---------------dance-single - ----------------
#NOTES:
     dance-single:
     :
     Beginner:
     1:
     0.118,0.171,0.056,0.000,0.000:
0000
0000
0000
0000
,
0000
0000
0000
0000
,
0000
0000
0000
0000
,
0000
0000
0000
0000
,
1001
0000
0000
0000
,
0001
0000
0100
0000
,
0001
0000
0000
0000
,
1000
0000
0000
0000
,
0100
0000
0000
0000
,
1000
0000
0100
0000
,
1000
0000
0000
0000
,
0010
0000
0100
0100
,
0100
0000
0000
0000
,
0010
0000
1000
0000
,
0001
0000
0000
0000
,
1000
0000
0100
0000
,
0010
0000
0000
0000
,
0100
0000
1000
0000
,
0001
0000
0000
0000
,
1001
0000
0000
0000
,
1001
0000
0001
0000
,
0100
0000
0001
0000
,
1000
0000
0000
0000
,
0100
0000
0000
0000
,
1000
0000
0100
0000
,
0010
0000
0001
0000
,
0100
0000
0010
0000
,
0100
0000
0000
0000
,
0010
0000
1000
0000
,
0001
0000
1000
0000
,
0100
0000
0010
0000
,
0001
0000
0000
0000
,
1000
0000
0010
0000
,
1000
0000
0100
0000
,
0010
0000
0001
0000
,
1000
1000
1000
0000
,
1001
0000
0001
0000
,
0100
0000
0001
0000
,
1000
0000
0100
0000
,
1000
0000
0001
0000
,
0010
0000
0100
0000
,
0010
0000
0001
0000
,
1000
0000
0010
0000
,
0100
0000
0010
0000
,
0110
0000
0000
0000
,
0001
0000
0000
0000
,
1000
0000
0100
0000
,
1000
0000
0000
0000
,
0001
0000
0000
0000
,
1000
0000
0010
0000
,
0100
0000
0001
0000
,
1000
0000
0000
0000
,
0001
0000
0000
0000
,
1001
0000
0000
0000
,
1000
0000
0010
0000
,
1000
0000
0000
0000
,
0001
0000
0010
0000
,
0100
0000
0010
0000
,
0001
0000
1000
0000
,
0100
0000
1000
0000
,
0001
0001
0001
0000
,
1001
0000
0000
0000
;
