#TITLE:EXE;
#SUBTITLE:;
#ARTIST:Mr.T;
#TITLETRANSLIT:;
#SUBTITLETRANSLIT:;
#ARTISTTRANSLIT:;
#CREDIT:;
#BANNER:;
#BACKGROUND:;
#LYRICSPATH:;
#CDTITLE:;
#MUSIC:EXE.mp3;
#OFFSET:-3.050;
#SAMPLESTART:24.320;
#SAMPLELENGTH:12.150;
#SELECTABLE:YES;
#BPMS:0.000=158.000;
#STOPS:;
#BGCHANGES:;

//---------------dance-single - ----------------
#NOTES:
     dance-single:
     :
     Hard:
     9:
     0.695,0.732,0.109,0.319,0.469: // measure 1
0000
0000
0000
0000
,  // measure 2
0000
0000
0000
0000
,  // measure 3
0000
1001
0000
0101
,  // measure 4
0000
1010
0000
1100
,  // measure 5
0000
1001
0000
0110
,  // measure 6
2002
0000
0000
3003
,  // measure 7
0001
0100
0000
0001
0000
0000
0100
0000
0000
0001
0000
0010
0000
0000
0100
0000
,  // measure 8
0000
0010
0000
0001
0000
0000
1000
0000
0000
0100
0000
1000
0000
0000
0100
0000
,  // measure 9
1000
0100
0010
0000
0100
1000
0000
1000
,  // measure 10
0010
0100
0001
0100
0000
1001
0000
0010
,  // measure 11
1000
0100
0000
1000
0000
0000
0001
0000
0000
0100
0000
0001
0000
0000
0100
0000
,  // measure 12
0000
0010
0000
1000
0000
0000
0001
0000
0000
0010
0000
0001
0000
0000
1000
0000
,  // measure 13
1000
0010
0100
0000
0010
0100
0000
0100
,  // measure 14
0001
0000
0002
2000
0000
0000
3003
0000
,  // measure 15
0010
0100
0010
0000
1000
0000
0100
0000
0010
0000
0000
0000
0100
0000
0000
0000
,  // measure 16
0010
0000
0000
0000
0001
0000
1000
0010
1000
0000
0001
0000
0100
0000
0010
0000
,  // measure 17
1000
0100
1000
0000
0100
0000
0010
0000
0001
0000
0000
0000
1000
0000
0000
0000
,  // measure 18
0010
0000
0000
0000
1000
0000
0001
0100
0001
0000
0010
0000
0100
0000
0010
0000
,  // measure 19
0001
0010
0001
0000
0010
0000
0001
1000
0001
0000
0000
0000
0010
0000
0000
0000
,  // measure 20
0100
0000
0000
0000
0010
0000
0001
0100
0001
0000
0100
0000
0010
0000
1000
0000
,  // measure 21
0001
0100
0001
0000
0000
0001
1000
0000
0000
1000
0100
0000
0000
0100
1000
0000
,  // measure 22
0000
1000
0010
0000
0000
0100
0001
0100
0010
0100
0000
0010
0000
1000
0001
0000
,  // measure 23
1000
0100
0010
0000
0100
0000
1000
0000
2000
0000
0000
0000
3001
0000
0000
0000
,  // measure 24
0001
0000
0010
0000
0001
0000
1000
0010
0100
0000
0001
0000
0010
0000
0100
0000
,  // measure 25
0010
0001
1000
0000
0100
0000
1000
0000
2000
0000
0000
0000
3100
0000
0000
0000
,  // measure 26
0010
0000
0001
0000
0010
0000
0001
1000
0100
0000
0010
0000
0001
0000
0100
0000
,  // measure 27
0010
1000
0010
0000
0000
0000
0100
0001
0200
0000
0000
0000
0310
0000
0000
0000
,  // measure 28
0100
0000
0001
0000
0010
0000
0100
1000
0100
0000
0010
0000
0100
0000
1000
0000
,  // measure 29
1000
0100
0010
0000
0000
0100
0001
0000
0000
0100
0010
0000
0000
0100
1000
0000
,  // measure 30
0000
0100
0010
0000
0000
0010
0001
1000
0100
1000
0000
0001
0000
0100
0010
0000
,  // measure 31
2002
0000
3003
0200
,  // measure 32
0320
0000
0000
1000
0000
0000
0230
0000
,  // measure 33
0302
0000
0000
0010
0000
0000
2003
0000
,  // measure 34
3200
0000
0000
0001
0000
0000
0320
0000
,  // measure 35
0032
0000
0000
0203
0000
0000
2300
0000
,  // measure 36
3020
0000
0000
0032
0000
0000
2003
0000
,  // measure 37
3200
0000
0000
0320
0000
0000
0032
0000
,  // measure 38
1003
0100
1000
0001
0200
0000
0300
0000
,  // measure 39
0001
0000
1000
0100
1000
0000
0001
0100
0001
0000
1000
0100
1000
0000
0001
0000
,  // measure 40
0100
0010
1000
0010
0100
0001
0010
0100
,  // measure 41
1000
0000
0100
1000
0100
0000
0010
0001
0010
0000
0001
1000
0001
0000
1000
0000
,  // measure 42
0001
0000
0100
0000
0010
1000
0010
1000
0200
0000
0000
0000
0310
0000
0100
0000
,  // measure 43
1000
0000
0100
0000
0010
0000
0001
0100
0001
0000
0100
0000
1000
0000
0100
0000
,  // measure 44
0010
1000
0001
0000
1000
0000
0001
0010
0100
0000
0010
0000
0001
0000
1000
0000
,  // measure 45
0001
0100
1000
0100
0010
1000
0100
0010
,  // measure 46
0011
0000
0000
0000
1000
0001
1000
0002
2000
0000
0000
0000
3003
0000
0000
0000
,  // measure 47
0001
0100
0001
0000
0000
0000
1000
0100
2000
0000
0000
0000
0000
0000
0000
0000
,  // measure 48
0000
0000
0000
0000
3000
0000
0001
0100
0010
0000
1000
0000
0100
0000
0010
0000
,  // measure 49
0001
0010
0001
0000
1000
0000
0100
1000
0100
0000
1000
0000
0010
0000
0100
0000
,  // measure 50
0001
0000
0010
0000
0100
0000
0010
0001
1000
0000
0001
0000
0100
0000
0010
0000
,  // measure 51
1000
0010
0100
0000
0001
0000
0100
0010
1000
0000
0100
0000
1000
0000
0001
0000
,  // measure 52
0010
0000
0100
0000
0010
0000
0001
0100
0001
0000
0100
0000
0010
0000
1000
0000
,  // measure 53
0001
1000
0010
0000
0000
0100
0001
0000
0000
1000
0100
0000
0000
0010
0001
0000
,  // measure 54
0000
1000
0001
0000
0000
0100
0010
1000
0010
1000
0000
0001
0000
1000
0100
0000
,  // measure 55
0010
0001
0010
0000
0001
0000
0100
0001
0100
0000
0010
0000
1000
0001
1000
0001
,  // measure 56
2000
0000
0000
0000
3010
0000
0100
0001
0100
0000
0010
0000
1000
0000
0100
0000
,  // measure 57
1000
0100
1000
0000
0001
0000
0010
0001
0010
0000
0001
0000
1000
0001
1000
0001
,  // measure 58
0200
0000
0000
0000
0310
0000
0100
0010
1000
0000
0100
0000
0010
0000
0001
0000
,  // measure 59
1000
0001
1000
0000
0001
0000
0100
0010
0100
0000
0001
0100
0001
1000
0100
1000
,  // measure 60
0002
0000
0000
0000
0013
0000
0001
0010
0001
0000
1000
0000
0100
0000
1000
0000
,  // measure 61
0001
0100
0001
0000
0100
0000
0000
0000
0010
0000
1000
0000
0100
0000
0000
0000
,  // measure 62
2002
0000
0000
0000
,  // measure 63
3003
0000
1001
0001
0100
1000
0100
1000
,  // measure 64
0100
0001
0010
0001
0010
1000
0010
1000
,  // measure 65
0010
0001
1000
0100
0010
0001
1000
0010
,  // measure 66
0100
1000
0100
0010
1000
0001
0010
0001
,  // measure 67
1000
0100
0001
0100
1000
0010
1000
0010
,  // measure 68
0100
1000
0001
1000
0100
0001
0010
0100
,  // measure 69
0010
0001
1000
0100
0001
0100
1000
0001
,  // measure 70
0100
0000
0010
0000
1000
0000
0001
0000
1000
0001
1000
0001
1000
0001
1000
0001
;

//---------------dance-single - ----------------
#NOTES:
     dance-single:
     :
     Medium:
     6:
     0.481,0.445,0.173,0.173,0.000: // measure 1
0000
0000
0000
0000
,  // measure 2
0000
0000
0000
0000
,  // measure 3
0000
1001
0000
0101
,  // measure 4
0000
1001
0000
1100
,  // measure 5
0000
1001
0000
0110
,  // measure 6
0220
0000
0000
0330
,  // measure 7
0010
1000
0001
0000
0010
0001
0010
0000
,  // measure 8
0001
1000
0100
0000
1000
0100
1000
0000
,  // measure 9
0001
0000
0100
0000
0010
1000
0000
0001
,  // measure 10
0100
0000
0001
0010
0000
0100
1000
0100
,  // measure 11
1000
0000
0001
0000
0010
0001
0100
0000
,  // measure 12
0010
1000
0100
0000
1000
0100
1000
0001
,  // measure 13
0010
0000
0100
0000
0010
0001
0000
1000
,  // measure 14
0100
0000
0200
2000
0000
0000
3300
0000
,  // measure 15
1000
0001
1000
0001
0100
0000
0010
0000
,  // measure 16
0100
0000
0001
0000
0010
0001
0100
0000
,  // measure 17
0010
0100
0010
0100
0001
0000
1000
0000
,  // measure 18
0100
0000
0010
0000
0100
0010
0001
0000
,  // measure 19
1000
0001
0100
0001
1000
0000
0001
0000
,  // measure 20
0100
0000
0010
0000
1000
0100
1000
0000
,  // measure 21
0001
0100
0000
1000
0000
0100
0000
0001
,  // measure 22
0000
0010
0000
1000
0000
0010
0000
0001
,  // measure 23
0100
0010
0100
0001
0100
0000
0110
0000
,  // measure 24
0010
0000
1000
0000
0001
1000
0001
0000
,  // measure 25
1000
0100
0010
0100
1000
0000
1001
0000
,  // measure 26
0001
0000
0100
0000
0010
1000
0010
0000
,  // measure 27
0100
0001
1000
0001
1000
0000
0011
0000
,  // measure 28
1000
0000
0100
0000
1000
0001
0010
0000
,  // measure 29
0100
0010
0000
0001
0000
0100
0000
1000
,  // measure 30
0000
0100
0000
0001
0000
1000
0000
0001
,  // measure 31
0020
0000
0000
0001
0000
0000
0130
0000
,  // measure 32
0002
0000
0000
0010
0000
0000
0103
0000
,  // measure 33
2000
0000
0000
0010
0000
0000
3001
0000
,  // measure 34
0200
0000
0000
0010
0000
0000
0301
0000
,  // measure 35
1000
0100
0010
0100
0000
0010
0001
0010
,  // measure 36
0000
0001
0100
0001
0000
1000
0010
0100
,  // measure 37
0000
0010
1000
0001
0000
1000
0100
0010
,  // measure 38
0001
0011
2002
3003
,  // measure 39
0000
1000
0010
1000
0001
0100
0001
0000
,  // measure 40
1000
0000
0100
0000
0010
0001
1000
0000
,  // measure 41
0000
1000
0100
1000
0001
0010
0001
0000
,  // measure 42
1000
0000
0100
0010
0200
0000
1300
0000
,  // measure 43
0001
0000
0100
0010
0100
0000
0001
0000
,  // measure 44
1000
0100
0010
0001
0010
0000
0001
0000
,  // measure 45
0100
0000
0010
1000
0001
0000
0010
0001
,  // measure 46
0100
0000
0010
0100
0020
0000
1030
0000
,  // measure 47
0001
0200
0000
0000
0000
0000
0000
0000
,  // measure 48
0000
0000
0300
0001
0100
0001
1000
0000
,  // measure 49
0100
0010
0100
0000
0010
0000
1001
0000
,  // measure 50
0001
0000
0100
0000
0010
1000
0001
0000
,  // measure 51
1000
0100
0010
0100
2000
0000
3010
0000
,  // measure 52
0100
0000
0010
0000
0100
0001
0100
0000
,  // measure 53
0001
0010
0000
0100
0000
0001
0000
0100
,  // measure 54
0000
1000
0000
0001
0000
1000
0000
0010
,  // measure 55
1000
0001
0000
0001
0200
0000
0010
0010
,  // measure 56
0310
0000
1000
0000
0001
0010
0001
0000
,  // measure 57
1000
0100
0000
0100
2000
0000
0001
0001
,  // measure 58
3001
0000
0100
0000
0010
0100
0010
0000
,  // measure 59
0001
0010
0000
0100
2000
0000
3010
1000
,  // measure 60
0001
0000
0100
0010
0100
0010
1000
0000
,  // measure 61
0001
0010
0001
0000
1000
0000
0110
0000
,  // measure 62
2002
0000
0000
0000
,  // measure 63
3003
0000
0110
0000
0100
0001
1000
0000
,  // measure 64
0001
0000
1000
0100
0010
0100
1000
0000
,  // measure 65
0001
0000
0100
0000
0010
1000
0010
0000
,  // measure 66
0100
0000
0001
0010
0001
1000
0100
0000
,  // measure 67
1000
0000
1001
0000
0001
0010
0100
0000
,  // measure 68
0010
0000
0001
0100
0010
0100
0001
0000
,  // measure 69
1000
0000
0110
0000
0001
0010
0100
0000
,  // measure 70
0110
0000
0001
1000
0001
1000
0001
0100
;

//---------------dance-single - ----------------
#NOTES:
     dance-single:
     :
     Easy:
     3:
     0.280,0.287,0.127,0.164,0.000: // measure 1
0000
0000
0000
0000
,  // measure 2
0000
0000
0000
0000
,  // measure 3
0000
1000
0000
0001
,  // measure 4
0000
0100
0000
0010
,  // measure 5
0000
1000
0000
0001
,  // measure 6
2002
0000
0000
3003
,  // measure 7
1001
0000
0001
0100
,  // measure 8
0001
0000
1000
0100
,  // measure 9
0010
0000
0100
0010
,  // measure 10
0100
1000
0001
1000
,  // measure 11
1001
0000
0001
0100
,  // measure 12
0001
0000
1000
0010
,  // measure 13
0100
0000
0010
1000
,  // measure 14
2002
0000
0000
3003
,  // measure 15
1001
0000
0001
0000
,  // measure 16
1000
0100
0010
0001
,  // measure 17
0100
0000
0010
0000
,  // measure 18
0100
0010
0100
0001
,  // measure 19
1000
0000
0001
0000
,  // measure 20
1000
0100
1000
0001
,  // measure 21
0200
0000
0000
0000
,  // measure 22
0000
0000
0000
0300
,  // measure 23
0110
0000
1000
0001
,  // measure 24
0010
0001
1000
0000
,  // measure 25
1001
0000
0010
0001
,  // measure 26
0100
0010
1000
0000
,  // measure 27
0110
0000
0010
1000
,  // measure 28
0001
1000
0100
0010
,  // measure 29
0200
0000
0000
0000
,  // measure 30
0300
0000
0000
0000
,  // measure 31
1002
0000
0000
0000
,  // measure 32
0203
0000
0000
0000
,  // measure 33
0320
0000
0000
0000
,  // measure 34
2030
0000
0000
0000
,  // measure 35
3001
0001
0000
1000
,  // measure 36
0000
0100
0000
0010
,  // measure 37
0000
0100
0000
0010
,  // measure 38
0220
0000
0000
0330
,  // measure 39
0001
0001
1000
1000
,  // measure 40
0001
1000
0001
0000
,  // measure 41
0100
0100
0010
0010
,  // measure 42
1000
0001
0010
0000
,  // measure 43
0100
0010
0001
1000
,  // measure 44
0100
0000
1000
0010
,  // measure 45
0100
0000
0001
0100
,  // measure 46
0001
0100
0020
0030
,  // measure 47
2002
0000
0000
0000
,  // measure 48
3003
0000
0001
1000
,  // measure 49
0001
1000
0100
0000
,  // measure 50
1000
0100
1000
0001
,  // measure 51
0100
0010
0100
0000
,  // measure 52
0010
1000
0001
1000
,  // measure 53
0100
0000
1000
0000
,  // measure 54
0100
0010
0100
0010
,  // measure 55
0110
0000
0010
0010
,  // measure 56
0001
0000
1000
0001
,  // measure 57
0100
0010
1000
1000
,  // measure 58
0100
0000
1000
0100
,  // measure 59
0010
0001
0100
0010
,  // measure 60
1001
0000
0100
0010
,  // measure 61
2000
0000
0010
0010
,  // measure 62
0002
0000
0000
0000
,  // measure 63
3003
1001
0001
0100
,  // measure 64
0001
0000
1000
0100
,  // measure 65
1000
0100
0010
0001
,  // measure 66
0100
0000
0010
0100
,  // measure 67
0010
1000
0001
1000
,  // measure 68
0100
0000
1000
0100
,  // measure 69
0010
0001
0100
0010
,  // measure 70
1000
0100
0100
0200
,  // measure 71
0300
0000
0000
0000
;

//---------------dance-single - ----------------
#NOTES:
     dance-single:
     :
     Beginner:
     1:
     0.167,0.191,0.082,0.055,0.000: // measure 1
0000
0000
0000
0000
,  // measure 2
0000
0000
0000
0000
,  // measure 3
0000
0100
0000
0100
,  // measure 4
0000
0100
0000
0100
,  // measure 5
0000
0100
0000
0100
,  // measure 6
0200
0000
0000
0300
,  // measure 7
1001
0000
0001
0000
,  // measure 8
0100
0000
0001
0000
,  // measure 9
1000
0000
0100
0000
,  // measure 10
0010
0000
0100
0000
,  // measure 11
0010
0000
0100
0000
,  // measure 12
0010
0000
0001
0000
,  // measure 13
1000
0000
0100
0000
,  // measure 14
1001
0000
0000
0000
,  // measure 15
0110
0000
0000
0000
,  // measure 16
0001
0000
1000
0000
,  // measure 17
0100
0000
0000
0000
,  // measure 18
1000
0000
0001
0000
,  // measure 19
0100
0000
0000
0000
,  // measure 20
0001
0000
1000
0000
,  // measure 21
0100
0000
0010
0000
,  // measure 22
0001
0000
0100
0000
,  // measure 23
0110
0000
0000
0000
,  // measure 24
0010
0000
0100
0000
,  // measure 25
0001
0000
0000
0000
,  // measure 26
0010
0000
0100
0000
,  // measure 27
1000
0000
0000
0000
,  // measure 28
0001
0000
1000
0000
,  // measure 29
0100
0000
1000
0000
,  // measure 30
0001
0000
0000
0000
,  // measure 31
1001
0000
0000
0000
,  // measure 32
1000
0000
0000
0000
,  // measure 33
0100
0000
0000
0000
,  // measure 34
0010
0000
0000
0000
,  // measure 35
0000
0001
0000
0001
,  // measure 36
0000
1000
0000
1000
,  // measure 37
0000
0010
0000
0100
,  // measure 38
0200
0000
0000
0300
,  // measure 39
0110
0000
0000
0000
,  // measure 40
0010
0000
1000
0000
,  // measure 41
0001
0000
0000
0000
,  // measure 42
1000
0000
0100
0000
,  // measure 43
0010
0000
0010
0000
,  // measure 44
0100
0000
1000
0000
,  // measure 45
0001
0000
0100
0000
,  // measure 46
0010
0000
0000
0000
,  // measure 47
2002
0000
0000
0000
,  // measure 48
3003
0000
0000
0000
,  // measure 49
0001
0000
1000
0000
,  // measure 50
0001
0000
1000
0000
,  // measure 51
0100
0000
0010
0000
,  // measure 52
0100
0000
1000
0000
,  // measure 53
0001
0000
0000
0000
,  // measure 54
1000
0000
0000
0000
,  // measure 55
1001
0000
0001
0001
,  // measure 56
0001
0000
0000
0000
,  // measure 57
0100
0000
0010
0010
,  // measure 58
0010
0000
0000
0000
,  // measure 59
1000
0000
0100
0100
,  // measure 60
0100
0000
0000
0000
,  // measure 61
1000
0000
0100
0000
,  // measure 62
0010
0000
0002
0000
,  // measure 63
0003
1001
0000
1000
,  // measure 64
0000
0100
0000
1000
,  // measure 65
0000
0001
0000
0100
,  // measure 66
0000
0001
0000
1000
,  // measure 67
0000
0010
0000
0100
,  // measure 68
0000
0001
0000
1000
,  // measure 69
0000
0100
0000
0010
,  // measure 70
0020
0000
0000
0000
,  // measure 71
0030
0000
0000
0000
;
