#TITLE:EURO-ROMANCE;
#SUBTITLE:;
#ARTIST:K-MASERA;
#TITLETRANSLIT:;
#SUBTITLETRANSLIT:;
#ARTISTTRANSLIT:;
#CREDIT:;
#BANNER:EURO-ROMANCE.PNG;
#BACKGROUND:EURO-ROMANCE-bg.PNG;
#LYRICSPATH:;
#CDTITLE:;
#MUSIC:EURO-ROMANCE.mp3;
#OFFSET:-1.880;
#SAMPLESTART:54.070;
#SAMPLELENGTH:11.920;
#SELECTABLE:YES;
#DISPLAYBPM:161.000;
#BPMS:0.000=161.000,308.000=143.000,310.000=123.000,311.000=100.000;
#STOPS:;
#BGCHANGES:;

//---------------dance-single - ----------------
#NOTES:
     dance-single:
     :
     Hard:
     8:
     0.528,0.543,0.208,0.287,0.080:
0000
0000
0000
0000
,
0000
0000
0000
0000
,
0000
0000
0000
0000
,
0000
0000
0000
0000
,
1000
0100
1000
0200
0000
0010
0000
1000
,
0000
0010
0000
1300
0000
1000
0001
0100
,
0001
0000
0101
0000
0010
1000
0002
0000
,
0000
0100
0000
1003
,
0020
0001
0000
0130
,
0000
0000
0010
0000
0100
0000
0000
0010
0000
0000
0001
0000
1000
0000
0001
0100
,
0001
0000
0001
0000
1000
0000
0100
1000
,
0001
0000
0011
0000
1000
0000
0010
1000
,
0002
0010
1000
0100
,
1003
0001
0100
0010
,
1000
0100
0010
0000
0100
0000
1000
0100
,
0010
0001
0100
0000
0001
0000
0010
0001
,
0100
0000
0001
1000
0000
0001
1000
0000
,
0001
0100
0001
1000
0100
0010
0001
1000
,
0010
0000
0101
0000
0010
0000
1000
0100
,
0010
0000
0100
0000
1000
0000
0001
0100
,
0020
1000
0100
1000
,
0130
0000
0001
0000
1000
0001
1000
0000
,
0001
0010
0100
0000
0010
0000
0001
0010
,
0100
0010
0001
0000
1000
0000
0100
0010
,
0001
0000
1000
0000
0010
0100
0010
0000
,
1000
0100
0010
0001
0100
0010
1000
0000
,
0001
0000
0100
0000
0001
0000
0100
0000
0001
0000
0000
0001
0100
0000
0020
0000
,
0000
0100
0000
1000
0000
0200
0330
0000
,
1000
0000
0100
0000
1000
0000
0100
0000
1000
0000
0000
1000
0100
0000
0020
0000
,
0000
0001
0000
0100
0000
0002
0033
0000
,
0001
0000
1000
0000
0001
1000
0001
1000
0001
0000
0000
0001
1000
0000
0020
0000
,
0000
0100
0000
1000
0000
0130
0010
1000
,
0000
0000
0001
0101
0000
0100
0010
0200
,
0000
1000
0010
0301
,
0000
0001
0000
0000
1000
0000
0000
0100
2000
0000
0000
0000
3001
0000
0001
0000
,
1000
0100
0010
0001
0000
1001
0000
1000
,
0010
0100
0001
0010
0000
0011
0000
0100
,
1000
0001
0000
1000
0001
0100
0000
0001
,
2000
0010
0000
0010
0000
0001
0000
3001
,
0001
0100
0010
1000
0000
0101
0000
0100
,
0001
0100
0010
1000
0000
1100
0000
1000
,
0100
0010
0000
0001
0100
0010
0000
1000
,
0010
0000
1000
0000
0001
0000
0000
0100
0000
0000
0001
0000
1000
0000
0001
0000
,
1000
0100
0010
0100
0000
1001
0000
0100
,
0001
0100
0010
0100
0000
1001
0000
1000
,
0100
0001
0100
1000
0100
0001
0100
0100
,
2000
0010
0000
0010
0000
0001
0000
3001
,
1000
0100
1000
0010
0000
0101
0000
0100
,
0001
0010
0001
0100
0000
1010
0000
1000
,
0100
0010
0100
0000
0010
0001
1000
0000
,
0001
0100
0000
0000
0001
0000
0000
0001
2000
0000
0000
0000
3001
0000
0000
0000
,
1002
0000
0203
0000
,
0320
0000
0230
0000
,
0302
0000
0010
0000
,
1003
0100
1000
0100
0010
0001
0010
0001
,
2000
0000
3020
1000
,
0230
0000
0302
0000
,
2000
0000
0000
0000
,
3003
0000
0000
0000
,
1001
0100
1001
0010
,
2000
0000
0000
0000
3002
0000
0000
0000
1003
0000
0001
1000
0001
0000
1000
0000
,
0100
0010
0001
0100
0000
0101
0000
0010
,
1000
0100
0010
0001
0000
1100
0000
1000
,
0100
0020
0000
0031
0100
0020
0000
1030
,
0002
0100
0000
1000
0000
0100
0000
1003
,
0100
0010
0001
0100
0000
0101
0000
0001
,
1000
0010
1000
0100
0000
1100
0000
1000
,
0010
0200
0000
0301
0100
0002
0000
1003
,
0100
0000
0000
0000
1000
0000
0000
1000
0100
0000
0000
1001
0000
0000
0001
0000
,
0100
0001
0010
0100
0000
0011
0010
0001
,
0100
0010
0100
0010
0000
1010
0000
1000
,
0100
0001
0100
0001
0100
1000
0010
1000
,
0010
0100
0001
0010
0001
0010
0002
0000
,
0103
0010
0100
0010
0000
0110
0000
1000
,
0001
1000
0100
0010
0000
0110
0000
0010
,
0001
0000
1000
0000
0000
0100
0000
0000
1000
0000
0000
0010
0000
0000
1000
0001
,
1000
0001
0000
0000
0001
0000
1000
0001
0000
0000
1000
0000
0002
0000
0000
0000
,
1003
0100
0010
0001
0000
0110
0100
2002
,
0000
0000
0000
0000
,
0000
0000
0000
0000
,
3003
0000
0000
0000
;

//---------------dance-single - ----------------
#NOTES:
     dance-single:
     :
     Medium:
     5:
     0.430,0.447,0.104,0.351,0.012: // measure 1
0000
0000
0000
0000
,  // measure 2
0000
0000
0000
0000
,  // measure 3
0000
0000
0000
0000
,  // measure 4
0000
0000
0000
0000
,  // measure 5
1000
0100
1000
0200
0000
0010
0000
0010
,  // measure 6
0000
1000
0000
1000
0000
0310
0000
0010
,  // measure 7
0100
0000
0010
0000
0001
1000
0002
0000
,  // measure 8
0000
0100
0000
1003
,  // measure 9
2000
0010
0000
0002
,  // measure 10
3003
0000
0000
0000
1001
0000
0000
0001
0000
0000
1000
0000
0001
0000
0000
0000
,  // measure 11
0100
0000
0010
0000
0100
0000
0001
1000
,  // measure 12
0100
0000
0010
0000
0100
0000
1000
0001
,  // measure 13
2000
0010
0001
3100
,  // measure 14
1000
0001
0100
0101
,  // measure 15
2002
0000
3003
0000
1000
0000
0100
1000
,  // measure 16
0020
0000
0030
0000
0010
0000
0100
0001
,  // measure 17
0010
0000
0001
1000
0100
0000
0010
0000
,  // measure 18
0001
0100
0001
0000
1000
0000
0001
1000
,  // measure 19
0001
0000
0100
0000
0010
0000
0100
0001
,  // measure 20
0100
0000
0001
0000
1000
0000
0001
1000
,  // measure 21
0200
0010
1000
0010
,  // measure 22
1300
0001
0100
0101
,  // measure 23
0220
0000
0330
0000
0010
0000
1000
0001
,  // measure 24
2000
0000
3000
0000
0100
0000
0010
0001
,  // measure 25
1000
0001
0100
0010
,  // measure 26
1000
0100
1000
0001
1000
0000
0001
0000
,  // measure 27
0100
0010
0100
0010
0200
0000
0010
0310
,  // measure 28
0000
0100
0000
0001
0000
1000
0000
0000
,  // measure 29
0001
1000
0001
1000
0002
0000
0010
0013
,  // measure 30
0000
0001
0000
1000
0000
0100
0000
0000
,  // measure 31
1000
0010
0100
0001
0200
0000
0010
0310
,  // measure 32
0000
0100
0000
0001
0000
1000
0100
0010
,  // measure 33
0000
0000
0100
1000
0000
1000
0010
0200
,  // measure 34
0000
0010
0010
0002
,  // measure 35
0000
0000
0000
0303
,  // measure 36
0001
0000
1000
0100
0000
0100
1000
0000
,  // measure 37
0001
0000
1000
0010
0000
0010
1000
0000
,  // measure 38
0001
1000
0100
0010
,  // measure 39
0200
0010
0000
0010
0000
0010
0000
0010
,  // measure 40
0310
0000
0001
1000
0000
0001
1000
0000
,  // measure 41
0001
0000
0100
0010
0000
0100
0010
0000
,  // measure 42
1000
0010
0100
0001
,  // measure 43
1000
0000
0000
0000
0001
0000
0000
1000
0000
0000
0001
0000
1000
0000
0000
0000
,  // measure 44
0001
0100
0001
0200
0000
0000
0310
0000
,  // measure 45
0100
0001
0100
0002
0000
0000
1003
0000
,  // measure 46
0001
0010
0100
1000
,  // measure 47
0002
1000
0000
1000
0000
1000
0000
1000
,  // measure 48
1003
0001
1000
0200
0000
0000
0310
0000
,  // measure 49
0001
0100
0001
0200
0000
0000
0310
0000
,  // measure 50
0100
0010
1000
0001
,  // measure 51
1000
0001
2002
3003
,  // measure 52
2000
0000
3200
0000
,  // measure 53
0320
0000
0032
0000
,  // measure 54
2000
0000
3003
0000
,  // measure 55
1000
0010
0100
0000
0001
0010
0100
0000
,  // measure 56
0020
0000
0032
0000
,  // measure 57
2003
0000
3020
0000
,  // measure 58
0200
0000
0000
0000
,  // measure 59
0330
0000
0000
0000
,  // measure 60
0101
0001
1001
1000
,  // measure 61
2002
0000
3003
0000
1000
0001
1000
0001
,  // measure 62
0100
0000
0001
1000
0000
0001
1000
0000
,  // measure 63
0100
0000
0001
1000
0000
0001
1000
0000
,  // measure 64
0001
0000
0010
0000
0100
0010
0001
0000
,  // measure 65
2000
0100
0000
0100
0000
0001
0000
3001
,  // measure 66
1000
0000
0010
0100
0000
0010
0100
0000
,  // measure 67
0001
0000
0010
0100
0000
0010
0100
0000
,  // measure 68
0010
0001
1000
0001
,  // measure 69
1000
0000
0010
0000
1000
0000
0000
0000
0001
0000
0000
0100
0000
0000
0001
0000
,  // measure 70
1000
0100
0010
0002
0000
0000
1003
0000
,  // measure 71
0001
0100
0010
2000
0000
0000
3001
0000
,  // measure 72
1000
0000
0001
0000
0100
0010
0100
0000
,  // measure 73
0001
1000
0100
0000
0110
0000
1001
0000
,  // measure 74
0001
0100
0001
0020
0000
0000
0130
0000
,  // measure 75
0010
0001
1000
0002
0000
0000
0103
0000
,  // measure 76
0010
1000
0100
0010
,  // measure 77
0001
1000
0100
1000
,  // measure 78
0001
0100
0010
1000
0000
0110
0000
2002
,  // measure 79
0000
0000
0000
0000
,  // measure 80
0000
0000
0000
0000
,  // measure 81
3003
0000
0000
0000
;

//---------------dance-single - ----------------
#NOTES:
     dance-single:
     :
     Easy:
     3:
     0.251,0.319,0.112,0.231,0.000: // measure 1
0000
0000
0000
0000
,  // measure 2
0000
0000
0000
0000
,  // measure 3
0000
0000
0000
0000
,  // measure 4
0000
0000
0000
0000
,  // measure 5
0001
0000
1000
0000
,  // measure 6
0100
0000
0010
0001
,  // measure 7
2000
0000
0010
0000
,  // measure 8
0002
0000
3003
0000
,  // measure 9
0220
0000
0000
0000
,  // measure 10
0330
0000
0000
0000
,  // measure 11
0110
0000
0100
0010
,  // measure 12
0100
0000
0010
1000
,  // measure 13
0001
1000
0100
0010
,  // measure 14
0001
0000
1000
0010
,  // measure 15
2000
0000
3100
0000
,  // measure 16
0002
0000
0103
0001
,  // measure 17
1000
0000
0100
0000
,  // measure 18
0010
0001
1000
0001
,  // measure 19
1001
0000
0100
0000
,  // measure 20
0010
0000
0100
0010
,  // measure 21
1000
0100
0010
0001
,  // measure 22
0010
0000
0001
1000
,  // measure 23
0200
0000
0310
0001
,  // measure 24
0200
0000
0310
1000
,  // measure 25
0001
0000
1001
0000
,  // measure 26
1000
0100
0010
0001
,  // measure 27
0100
0100
0200
0000
,  // measure 28
0300
0000
0110
0000
,  // measure 29
0010
0010
0020
0000
,  // measure 30
0030
0000
0110
0000
,  // measure 31
1000
0001
2000
0000
,  // measure 32
0000
0000
0000
0000
,  // measure 33
3000
0000
0001
0010
,  // measure 34
0200
0010
0010
0020
,  // measure 35
0000
0000
0000
0330
,  // measure 36
0010
0001
1000
0000
,  // measure 37
0001
1000
0010
0100
,  // measure 38
0001
0000
0100
0000
,  // measure 39
0010
0000
1000
0000
,  // measure 40
0100
1000
0100
0000
,  // measure 41
0010
0001
1000
0001
,  // measure 42
0100
0000
0001
0000
,  // measure 43
2002
0000
0000
3003
,  // measure 44
0001
0100
0001
0000
,  // measure 45
1000
0100
1000
0001
,  // measure 46
0010
0000
0100
0000
,  // measure 47
0010
0000
0001
0000
,  // measure 48
1000
0010
1000
0000
,  // measure 49
0001
0100
0010
1000
,  // measure 50
0100
0000
1000
0000
,  // measure 51
0001
0000
1000
0001
,  // measure 52
1002
0000
0010
0000
,  // measure 53
1000
0000
0100
0000
,  // measure 54
2000
0000
0000
0000
,  // measure 55
3003
0000
0000
0000
,  // measure 56
2001
0000
0010
0000
,  // measure 57
0001
0000
0100
0000
,  // measure 58
0002
0000
0000
0000
,  // measure 59
3003
0000
0000
0000
,  // measure 60
1001
0000
0110
0000
,  // measure 61
1000
0001
2002
3003
,  // measure 62
1000
0100
1000
0000
,  // measure 63
0001
0100
0010
1000
,  // measure 64
0200
0000
0010
0000
,  // measure 65
1000
0000
0310
0000
,  // measure 66
0010
0001
1000
0000
,  // measure 67
0001
0100
0010
1000
,  // measure 68
0002
0000
0010
0000
,  // measure 69
2000
0000
3003
0000
,  // measure 70
1000
0100
0010
0000
,  // measure 71
0001
0010
0100
0010
,  // measure 72
0002
0000
0010
0000
,  // measure 73
1000
0000
0103
0000
,  // measure 74
0001
0100
0010
0000
,  // measure 75
1000
0010
0100
0001
,  // measure 76
2000
0000
0010
0000
,  // measure 77
0002
0000
3003
0000
,  // measure 78
1001
0000
0000
0000
0000
0000
0000
2002
,  // measure 79
0000
0000
0000
0000
,  // measure 80
0000
0000
0000
0000
,  // measure 81
3003
0000
0000
0000
;

//---------------dance-single - ----------------
#NOTES:
     dance-single:
     :
     Beginner:
     1:
     0.140,0.186,0.064,0.032,0.000: // measure 1
0000
0000
0000
0000
,  // measure 2
0000
0000
0000
0000
,  // measure 3
0000
0000
0000
0000
,  // measure 4
0000
0000
0000
0000
,  // measure 5
1000
0000
0000
0000
,  // measure 6
0001
0000
1000
0000
,  // measure 7
0001
0000
0000
0000
,  // measure 8
0000
0000
0000
0000
,  // measure 9
2002
0000
0000
0000
,  // measure 10
3003
0000
0000
0000
,  // measure 11
1000
0000
0000
0000
,  // measure 12
0100
0000
1000
0000
,  // measure 13
0001
0000
0000
0000
,  // measure 14
0100
0000
0010
0000
,  // measure 15
0100
0000
0000
0000
,  // measure 16
0001
0000
0000
0000
,  // measure 17
1000
0000
0100
0000
,  // measure 18
1000
0000
0001
0000
,  // measure 19
1001
0000
0000
0000
,  // measure 20
1000
0000
0010
0000
,  // measure 21
1000
0000
0000
0000
,  // measure 22
0001
0000
0010
0000
,  // measure 23
0100
0000
0000
0000
,  // measure 24
0010
0000
0000
0000
,  // measure 25
0001
0000
1000
0000
,  // measure 26
0001
0000
0100
0000
,  // measure 27
0010
0010
0010
0000
,  // measure 28
0000
0000
0000
0000
,  // measure 29
0001
0001
0001
0000
,  // measure 30
0000
0000
0000
0000
,  // measure 31
0100
0100
0100
0000
,  // measure 32
0000
0000
0000
0000
,  // measure 33
0000
0000
1000
0000
,  // measure 34
0001
0001
0001
0001
,  // measure 35
0000
0000
0000
0000
,  // measure 36
1000
0000
0100
0000
,  // measure 37
1000
0000
0001
0000
,  // measure 38
0100
0000
0000
0000
,  // measure 39
0010
0000
0000
0000
,  // measure 40
0100
0000
0010
0000
,  // measure 41
0100
0000
0001
0000
,  // measure 42
1000
0000
0000
0000
,  // measure 43
0100
0000
0000
0000
,  // measure 44
0010
0000
0001
0000
,  // measure 45
1000
0000
0100
0000
,  // measure 46
1000
0000
0000
0000
,  // measure 47
0001
0000
0000
0000
,  // measure 48
0100
0000
0001
0000
,  // measure 49
0100
0000
0010
0000
,  // measure 50
1000
0000
0000
0000
,  // measure 51
0001
0000
1000
0000
,  // measure 52
1001
0000
0001
0000
,  // measure 53
0001
0000
0001
0000
,  // measure 54
0100
0000
0000
0000
,  // measure 55
0000
0000
0000
0000
,  // measure 56
0010
0000
1000
0000
,  // measure 57
1000
0000
1000
0000
,  // measure 58
1000
0000
0000
0000
,  // measure 59
0000
0000
0000
0000
,  // measure 60
0110
0000
1001
0000
,  // measure 61
0110
0000
1001
0000
,  // measure 62
0001
0000
0000
0000
,  // measure 63
0100
0000
0001
0000
,  // measure 64
1000
0000
1000
0000
,  // measure 65
0100
0000
0010
0000
,  // measure 66
0001
0000
0000
0000
,  // measure 67
1000
0000
0010
0000
,  // measure 68
0100
0000
0100
0000
,  // measure 69
0010
0000
1000
0000
,  // measure 70
0001
0000
0000
0000
,  // measure 71
1000
0000
0100
0000
,  // measure 72
1000
0000
0001
0000
,  // measure 73
0100
0000
0010
0000
,  // measure 74
1000
0000
0000
0000
,  // measure 75
0010
0000
1000
0000
,  // measure 76
0001
0000
0100
0000
,  // measure 77
0010
0000
1000
0000
,  // measure 78
2002
0000
0000
0000
0000
0000
0000
3003
;
