#TITLE:Dragon Blade;
#SUBTITLE:-The Arrange-;
#ARTIST:あさき & RENO;
#TITLETRANSLIT:;
#SUBTITLETRANSLIT:;
#ARTISTTRANSLIT:Asaki & RENO;
#CREDIT:;
#BANNER:;
#BACKGROUND:;
#LYRICSPATH:;
#CDTITLE:;
#MUSIC:Dragon Blade -The Arrange-.mp3;
#OFFSET:-0.020;
#SAMPLESTART:22.170;
#SAMPLELENGTH:16.610;
#SELECTABLE:YES;
#BPMS:0.000=260.000;
#STOPS:;
#BGCHANGES:;

//---------------dance-single - ----------------
#NOTES:
     dance-single:
     :
     Hard:
     10:
     0.984,0.906,0.435,0.328,0.033: // measure 1
0000
0000
0000
0000
,  // measure 2
0000
0000
0000
0000
,  // measure 3
0000
0000
0000
0000
,  // measure 4
0000
0000
0000
0000
,  // measure 5
0000
1000
0001
1000
0000
0001
0100
0000
,  // measure 6
1000
0000
0100
0001
0000
0001
1000
0000
,  // measure 7
0001
0010
0000
0100
0000
0010
0001
1000
,  // measure 8
0010
0100
0001
1000
0200
0000
0300
0110
,  // measure 9
0000
0010
0001
0010
0001
0100
0001
0100
,  // measure 10
0001
1000
0010
1000
0010
0100
0001
2000
,  // measure 11
0000
3100
0010
0100
1000
0010
0100
0020
,  // measure 12
0000
0130
0001
0100
0001
0010
0100
0020
,  // measure 13
0000
0031
0100
0010
1000
0100
0010
0001
,  // measure 14
1000
0100
0010
0001
1000
0010
0100
0002
,  // measure 15
0000
0103
0010
0100
0001
0010
0100
0020
,  // measure 16
0000
0130
0010
0001
1000
0001
1000
0001
,  // measure 17
0100
0010
0100
0010
0000
1000
0001
0000
,  // measure 18
1001
0000
0001
0010
0000
0100
1000
0000
,  // measure 19
0001
1000
0000
0110
0000
0001
1000
0002
,  // measure 20
0000
0100
0103
0000
0010
0010
0000
1001
,  // measure 21
0000
1000
0100
1000
0000
0001
0100
0000
,  // measure 22
1001
0000
1000
0010
0000
0100
0001
0000
,  // measure 23
1000
0100
0001
0100
1000
0100
0001
0100
,  // measure 24
1000
0010
0100
0001
2002
0000
3003
0000
,  // measure 25
1000
0100
0010
0100
0010
0001
1000
0001
,  // measure 26
0000
1000
0001
0000
0100
0010
0100
0000
,  // measure 27
0010
1000
0010
0100
0001
0010
0100
0010
,  // measure 28
0001
1000
0001
0000
0101
0000
0010
0000
,  // measure 29
1000
0100
1000
0000
0001
0100
0001
0000
,  // measure 30
1000
0010
0100
0000
0001
0010
0100
0000
,  // measure 31
0001
0011
0000
1100
0000
1010
0000
0100
,  // measure 32
0001
0101
0000
2002
0000
0000
3003
0000
,  // measure 33
1000
0100
1000
0100
0010
0100
0010
0100
,  // measure 34
0000
0010
0001
0000
1000
0001
1000
0000
,  // measure 35
0001
0100
0010
0100
0001
1000
0100
0010
,  // measure 36
0001
0100
0010
0100
0001
0000
0100
0101
,  // measure 37
0000
0001
0100
0000
0010
1000
0100
1100
,  // measure 38
0000
1000
0001
0000
0100
0010
1000
1010
,  // measure 39
0000
1000
0100
0001
0100
0010
0001
1000
,  // measure 40
0001
0100
1000
0100
0010
1000
0001
1000
,  // measure 41
2002
0000
3003
0000
1000
0001
0000
1001
,  // measure 42
0000
1100
0000
0011
0000
1000
0010
0100
,  // measure 43
0101
0000
0010
0110
0000
1000
1002
0000
,  // measure 44
0010
0000
0000
1000
0000
0000
0103
0000
,  // measure 45
0101
0000
0001
0010
0100
1000
0100
0010
,  // measure 46
0001
0000
0001
0100
0010
1000
0010
0100
,  // measure 47
0001
0000
0001
0010
0001
1000
0100
1000
,  // measure 48
0100
0000
1000
0010
1000
0001
0100
0001
,  // measure 49
0202
0000
0303
0000
1000
0100
0010
0001
,  // measure 50
0000
0110
0000
1001
0000
1000
0010
0100
,  // measure 51
0010
0000
0000
0110
0000
0000
1000
0001
,  // measure 52
1001
0000
1000
0000
0001
0100
0001
0000
,  // measure 53
1000
0000
0100
0001
0100
0000
0100
1000
,  // measure 54
0100
0000
0100
0010
0100
0000
0010
0001
,  // measure 55
1000
0100
0000
0100
0010
0000
0010
0001
,  // measure 56
0000
1000
0001
0100
0010
1000
0100
0010
,  // measure 57
0100
0010
0000
1001
0000
1000
0100
0020
,  // measure 58
0000
0030
0010
0001
1000
0010
0100
0010
,  // measure 59
0100
0200
0000
0000
0310
0000
0100
0000
,  // measure 60
0001
0000
0100
0000
0010
1000
0000
0000
,  // measure 61
0001
0002
0000
0000
0013
0000
0100
0000
,  // measure 62
1100
0101
2002
3003
,  // measure 63
1000
2000
0000
0000
3010
0020
0000
0000
,  // measure 64
0130
0200
0000
0000
0301
0002
0000
0000
,  // measure 65
1003
0100
0010
0001
,  // measure 66
1000
0100
0010
0001
1000
2002
3003
0000
,  // measure 67
1000
0100
0010
0100
1000
0001
0100
0010
,  // measure 68
0100
0001
1000
0100
0010
0100
0010
0001
,  // measure 69
1000
0010
0100
0010
0100
0001
1000
0010
,  // measure 70
0100
0001
0010
0100
0010
0001
1000
0000
,  // measure 71
0001
0100
0001
0100
0010
0100
0010
0100
,  // measure 72
1000
0100
1000
0100
0010
0100
0001
0100
,  // measure 73
0001
0010
0100
1000
0100
0010
0100
0001
,  // measure 74
0100
0010
0001
1000
0001
0100
0010
0100
,  // measure 75
0020
0000
1030
0010
,  // measure 76
1000
0100
0010
0002
0000
0100
0103
0000
,  // measure 77
0001
0000
0100
0000
0010
1000
0001
0010
,  // measure 78
0100
0000
1000
0001
0000
1000
0001
0000
,  // measure 79
1000
0000
0100
0000
1000
0010
0100
0000
,  // measure 80
0010
0100
0001
2000
0000
0100
3100
0000
,  // measure 81
1000
0100
1000
0100
0010
0001
0010
0001
,  // measure 82
1000
0010
0100
0001
1000
0001
1000
0000
,  // measure 83
0001
0100
0001
0100
0000
0000
0001
1000
,  // measure 84
0000
0000
0100
1000
0100
1000
0000
0000
,  // measure 85
0001
1000
0001
1000
0000
0000
0010
0100
,  // measure 86
0000
0000
0001
0010
0001
0010
0000
0000
,  // measure 87
0100
1000
0100
1000
0000
0000
0001
1000
,  // measure 88
0000
0000
0001
0100
0001
0100
0000
0000
,  // measure 89
0010
1000
0010
1000
0000
0000
0001
1000
,  // measure 90
0000
0000
0000
0000
0000
0000
0000
1001
,  // measure 91
0000
1000
0100
0000
0010
0001
0010
0000
,  // measure 92
0001
0100
0001
0000
1000
0010
0100
0010
,  // measure 93
0000
1000
1001
0000
0101
0000
0000
1010
,  // measure 94
0000
1000
0200
0020
0330
0000
0000
0000
,  // measure 95
1000
0100
0010
0100
1000
0100
0010
0100
,  // measure 96
0000
1000
0001
0000
1000
0001
0000
0001
,  // measure 97
0100
0010
0100
0001
0100
0010
0100
0001
,  // measure 98
1000
0100
0010
0000
1001
0000
1001
0000
,  // measure 99
1000
0010
0100
0001
0010
0100
0010
0001
,  // measure 100
1000
0100
0010
0100
1000
0001
0100
0010
,  // measure 101
0100
0010
0000
0110
0000
1001
0000
1000
,  // measure 102
0100
0110
0000
2002
0000
0000
3003
0000
,  // measure 103
1000
0100
1000
0001
0100
0010
0100
0001
,  // measure 104
1000
0100
0010
0000
0100
1000
0000
1000
,  // measure 105
0010
0100
0001
0100
1000
0100
0001
0010
,  // measure 106
0100
0010
0001
1000
0100
0000
1000
1001
,  // measure 107
0000
0001
0100
0000
0010
1000
0100
1100
,  // measure 108
0000
1000
0100
0000
0010
0001
0100
0101
,  // measure 109
0000
0001
0100
0010
0100
0001
1000
0100
,  // measure 110
0010
0000
0010
0000
0010
0000
0100
0000
0100
0000
0100
0000
,  // measure 111
0010
0000
0010
0000
0001
0000
1000
0000
1000
0000
0002
0000
,  // measure 112
0000
0000
0000
0003
,  // measure 113
2002
0000
0000
3003
,  // measure 114
1000
0100
0010
0001
0100
0010
1001
0000
,  // measure 115
1000
0100
1000
0100
0010
0100
0010
0001
,  // measure 116
1000
0001
0100
0010
0100
0001
1000
0100
,  // measure 117
1000
0000
0001
0000
1000
0010
0000
0100
,  // measure 118
0001
0000
0001
0010
0000
0100
1000
0100
,  // measure 119
0010
0100
1000
0001
0100
1000
0100
0001
,  // measure 120
1001
0000
0000
0101
0000
0000
1010
0000
,  // measure 121
2001
0000
0000
0000
3100
1000
0100
1000
,  // measure 122
0010
0100
0001
0100
1000
0100
0010
0100
,  // measure 123
0001
0010
0001
1000
0100
0010
0100
1000
,  // measure 124
0001
1000
0100
0010
0100
1000
0001
0100
,  // measure 125
0010
1000
0100
0000
0010
0001
1000
0000
,  // measure 126
0010
1000
0100
0000
1000
0100
0010
0000
,  // measure 127
0001
0100
0001
0100
1000
0100
1000
0100
,  // measure 128
0001
0010
0001
0010
1000
0010
1000
0010
,  // measure 129
0001
0100
1000
0100
0001
0010
1000
0010
,  // measure 130
0022
0000
0000
0000
,  // measure 131
0033
0000
0000
0000
;

//---------------dance-single - ----------------
#NOTES:
     dance-single:
     :
     Medium:
     9:
     0.704,0.746,0.164,0.189,0.033:
0000
0000
0000
0000
,
0000
0000
0000
0000
,
0000
0000
0000
0000
,
0000
0000
0000
0000
,
0000
1000
0100
1000
0000
0001
0100
0000
,
0001
0000
1000
0100
0000
0100
1000
0000
,
0001
0100
0000
0001
0000
0100
0001
0000
,
1100
1001
0202
0303
,
0001
0100
1000
0100
,
0001
0000
1000
0000
0100
0000
0010
0002
,
0000
0000
0103
0000
0010
0000
1000
0200
,
0000
0000
1300
0000
0010
1000
0010
0000
,
0100
1000
0100
0001
,
0010
0000
1000
0000
0010
0000
0001
2000
,
0000
0000
3001
0000
1000
0000
0100
0020
,
0000
0031
1000
0001
,
1000
0000
0100
1000
0100
0000
0000
0000
,
1000
0000
2002
3003
,
0001
0000
0202
0303
,
1000
0100
1001
0000
,
0010
1000
0001
1000
0000
0001
0010
0000
,
0001
0000
1000
0010
0000
0100
0001
0000
,
1000
0100
0001
1000
,
0010
0100
0220
0330
,
0001
0100
0001
0000
1000
0010
1000
0000
,
0001
0100
0010
1000
,
0001
0010
0001
0000
1000
0100
1000
0000
,
0001
0010
0100
1000
,
0010
0100
0010
0000
1000
0001
1000
0000
,
0100
0010
0100
0000
1000
0001
1000
0000
,
0010
1000
0000
1000
0000
1000
0000
0100
,
0010
0001
0000
0001
0000
0001
0000
0000
,
0100
1000
0100
0000
0010
0001
0010
0000
,
0001
0100
0010
1000
,
0001
0100
0001
0000
1000
0010
1000
0000
,
0001
0010
0100
1000
,
0010
0100
0010
0000
1000
0000
0100
0010
,
0000
0001
1000
0000
0001
0000
0100
0000
,
0010
1000
0010
0000
1000
0000
1000
0000
,
0001
0100
0001
0000
0100
0000
0100
0000
,
0010
0000
0010
0000
1000
0001
1000
0001
,
0000
0100
0000
0100
0000
0000
0100
0000
,
0010
0000
1000
0100
0000
0100
0010
0000
,
0000
0001
0100
0001
,
0010
0000
0001
1000
0001
0000
0100
0000
,
0010
0000
1000
0001
1000
0000
0100
0000
,
0010
0000
1000
0001
1000
0000
0100
0000
,
0010
0000
0001
1000
0001
0000
0100
0000
,
0010
0000
1000
0000
0001
0100
0000
0010
,
0000
0100
0000
0001
0000
1000
0000
0010
,
0100
0000
0000
0100
0000
0000
0100
0000
,
0010
1000
0001
0100
,
0010
0000
1000
0100
1000
0000
0001
1000
,
0001
0000
0010
0001
0010
0000
0100
0000
,
0010
0001
0000
0001
1000
0000
1000
0010
,
0000
0010
0100
0000
0001
0000
1000
0000
,
0001
1000
0000
0010
0000
0100
0001
1000
,
0000
0100
0010
0100
,
1000
0001
0000
0000
0100
0000
0010
0000
,
1000
0000
0001
0000
0010
0100
0000
0000
,
1000
0001
0000
0000
0100
0000
0010
0000
,
1000
0001
0100
0000
,
0010
0100
0000
0000
0001
1000
0000
0000
,
0010
0100
0000
0000
0001
1000
0000
0000
,
0001
0001
1000
1000
,
0010
0100
0010
0000
0100
0000
0000
0000
,
0010
1000
0100
1000
,
0010
1000
0010
0001
,
0010
1000
0001
0100
,
0010
1000
0010
0000
0001
0000
0001
0000
,
0010
0001
0100
0001
,
0010
0001
0010
1000
,
0010
0001
1000
0100
,
0010
0001
0010
0000
1000
0000
1000
0000
,
0010
0100
0001
1000
,
0100
0000
0010
0001
0000
0001
0010
0000
,
0001
1000
0010
0100
,
0001
0000
1000
0100
0000
0100
1000
0000
,
0010
0100
0001
1000
,
0100
0000
0010
0001
0000
0001
0010
0000
,
0001
1000
0010
0100
,
0001
0100
0001
0000
1000
0010
1000
0000
,
0001
0100
0001
0100
0000
0000
0001
1000
,
0000
0000
0100
1000
0100
1000
0000
0000
,
0001
1000
0001
1000
0000
0000
0010
0100
,
0000
0000
0001
0010
0001
0010
0000
0000
,
0100
1000
0100
1000
0000
0000
0001
1000
,
0000
0000
0001
0100
0001
0100
0000
0000
,
0010
1000
0010
1000
0000
0000
0001
1000
,
0000
0000
0000
0000
0000
0000
0000
1001
,
0000
1000
0100
0000
0001
0000
0100
0000
,
1000
0000
0010
0000
0100
0000
0001
1000
,
0000
0000
1100
0000
1001
0000
0000
0101
,
0000
1000
0002
2000
3003
0000
0000
0000
,
0001
0100
0001
0000
1000
0010
1000
0000
,
0000
0101
0000
0000
0001
1000
0000
0000
,
0001
0010
0001
0000
1000
0100
1000
0000
,
0001
0010
1001
1000
,
0010
0100
0010
0000
1000
0001
1000
0000
,
0100
0010
0100
0000
1000
0001
1000
0000
,
0010
1000
0000
1000
0000
1000
0000
0100
,
0010
0001
0000
0001
0000
0001
0000
0000
,
0100
1000
0100
0000
0010
0001
0010
0000
,
0001
0100
0010
1000
,
0001
0100
0001
0000
1000
0010
1000
0000
,
0001
0010
0100
1000
,
0010
0100
0010
0000
1000
0000
0100
0010
,
0000
0001
1000
0000
0001
0000
0100
0000
,
0010
1000
0010
0000
1000
0000
1000
0000
,
0001
0000
0100
0000
0001
0000
1000
0000
0010
0000
1000
0000
,
0001
0000
1000
0000
0001
0000
0010
0000
0100
0000
0020
0000
,
0000
0000
0000
0030
,
2002
0000
0000
3003
,
0220
0000
0000
0330
,
1000
0100
1000
0010
,
0100
0000
0001
0000
0010
0001
0010
0001
,
2000
0000
3001
0100
,
1000
0100
0001
1000
,
0100
0010
0100
0000
0001
1000
0001
0000
,
1100
0000
0000
0110
0000
0000
0011
0000
,
1002
0000
1003
0010
,
0001
0100
1000
0010
,
0001
1000
0100
0010
,
0001
1000
0001
0000
0100
0010
0100
0010
,
0100
0001
1000
0100
,
0010
0100
1000
0001
,
0100
0001
1000
0000
1000
0001
0100
0000
,
0001
1000
0010
0000
1000
0001
0010
0000
,
0001
0100
0001
0000
1000
0100
1000
0000
,
2002
0000
0000
0000
,
3003
0000
0000
0000
;

//---------------dance-single - ----------------
#NOTES:
     dance-single:
     :
     Easy:
     7:
     0.530,0.586,0.303,0.312,0.000:
0000
0000
0000
0000
,
0000
0000
0000
0000
,
0000
0000
0000
0000
,
0000
0000
0000
0000
,
1000
0000
0100
0000
,
1000
0000
0001
0000
,
0100
0010
0100
0010
,
1000
0000
0001
0000
1000
0000
0000
1001
,
0000
0001
0100
0000
,
0001
0000
0100
0000
0001
0000
0000
1001
,
0000
0000
1000
0000
0100
0000
0000
0110
,
0000
0000
0010
0000
0001
0000
0000
1001
,
0000
1000
0010
1000
,
0001
0000
0100
0000
0001
0000
0000
1100
,
0000
0000
1000
0000
0001
0000
0000
0101
,
0000
0100
0010
1000
,
0002
0000
0100
0000
,
1000
0000
0100
0000
,
1003
0000
0001
0000
,
1000
0000
0110
0000
,
0001
0100
0001
0000
,
1000
0010
0100
0000
,
0010
0100
0001
1000
,
0100
0010
0100
0000
,
0010
0010
0001
0001
,
1000
0001
1000
0000
,
0001
0100
0010
1000
,
0100
1000
0001
0000
,
1000
0100
1000
0000
,
0001
0100
0001
0000
,
1000
0010
0100
0001
,
0010
0100
0010
0001
,
1000
1000
0100
0100
,
0010
0001
1000
0000
,
0001
0100
0010
1000
,
0001
0000
0100
0000
0010
0000
0000
0110
,
0000
0000
0100
0000
0010
0000
0000
1001
,
0000
0000
1000
0000
0001
0000
0000
1001
,
0000
1000
0100
0010
,
0001
0100
1000
0100
,
0020
0000
0000
0000
,
1030
0100
0010
0001
,
1000
0000
0000
1100
0000
0000
2002
0000
,
0000
0000
3003
0000
,
1000
0100
0010
0001
,
1000
0010
0100
0001
,
1000
0100
1000
0001
,
0100
0001
1000
0010
,
0220
0000
0330
0000
,
0010
1000
0001
0010
,
0011
0000
0000
1100
0000
0000
2002
0000
,
0000
0000
3003
0000
,
1000
0010
1000
0001
,
1000
0001
0100
0001
,
1000
0000
0000
0100
0000
0000
1000
0000
,
0000
0001
0000
0000
1001
0000
0110
0000
,
2002
0000
0000
0000
,
3003
0000
1000
0001
,
2000
0002
0000
0000
0000
0000
0000
0000
,
3003
0000
0000
0000
0010
0100
0000
0000
,
0020
0200
0000
0000
0000
0000
0330
0000
,
0100
0010
1001
0000
,
1000
0100
0000
0000
0010
0001
0000
0000
,
0001
0100
0000
0000
0010
2000
0000
0000
,
3001
0100
0001
1000
,
0100
0010
1001
0000
,
0001
0100
0001
0100
,
0010
1000
0010
1000
,
0001
1000
0100
0010
,
0001
0100
0010
0010
,
0010
0100
0001
1000
,
0001
0100
0001
0010
,
0100
0010
0001
1000
,
0100
1000
0001
0100
,
0020
0000
0030
0000
,
1000
0000
0000
0100
0000
0000
1000
0000
,
0001
0100
0010
1000
,
0100
0000
0000
0010
0000
0000
0100
0000
,
1000
0100
0010
0001
,
1000
0000
0000
0001
0000
0000
0100
0000
,
0020
0000
1030
0001
,
0200
0000
0310
0000
,
1000
1000
0000
0001
,
0000
0100
0100
0000
,
0010
0010
0000
0100
,
0000
0001
1000
0000
,
0001
0010
0000
0100
,
0000
0010
0001
0000
,
1000
0000
0010
0000
0000
0000
0100
0010
,
0000
0000
0000
0000
0000
0000
0000
1002
,
0000
0100
0000
0100
,
0000
1000
0000
1003
,
0000
0000
0001
0000
0100
0000
0000
0010
,
0000
0000
0200
0020
0330
0000
0000
0000
,
2002
0000
0000
3003
,
0000
1001
0000
0000
1001
0000
0000
0000
,
0220
0000
0000
0330
,
0100
0010
2002
3003
,
1000
0100
0010
0100
,
1000
0100
0010
0001
,
0100
0100
0010
0010
,
1000
0001
1001
0000
,
0100
0100
0010
0010
,
1000
0100
0010
0001
,
0100
0001
1000
0010
,
0100
0000
0001
0000
1000
0000
0000
1100
,
0000
0000
1000
0000
0001
0000
0000
0101
,
0000
0000
0100
0000
0010
0000
0000
0110
,
0000
0010
1000
0001
,
1000
0000
1100
0000
,
0001
0000
2002
0000
,
0000
0000
3003
0000
,
0220
0000
0000
0330
,
2002
0000
0000
3003
,
1000
0100
1000
0001
,
0100
0010
1000
0100
,
0200
0000
0310
0001
,
1000
0001
0100
0000
,
0010
1000
0100
1000
,
0001
0000
0000
1000
0000
0000
0001
0000
,
0202
0000
0000
0303
,
0010
1000
0100
0010
,
0100
0100
0010
0001
,
1000
0001
0100
0010
,
1000
0010
0100
0000
,
0001
0010
0100
0000
,
0010
0001
1000
0100
,
0010
0100
1000
0001
,
0100
0010
1000
0001
,
2002
0000
0000
0000
,
3003
0000
0000
0000
;

//---------------dance-single - ----------------
#NOTES:
     dance-single:
     :
     Beginner:
     3:
     0.259,0.423,0.254,0.230,0.000:
0000
0000
0000
0000
,
0000
0000
0000
0000
,
0000
0000
0000
0000
,
0000
0000
0000
0000
,
1000
0000
0000
0000
,
0001
0000
0000
0000
,
0100
0000
0010
0000
,
1000
0000
0001
0000
,
1001
0000
1000
0000
,
0001
0000
0100
0000
,
0110
0000
0000
0000
,
1001
0000
0000
0000
,
1000
0000
0100
0000
,
0010
0000
0001
0000
,
1001
0000
0000
0000
,
0110
0000
0000
0000
,
0010
0000
0000
0000
,
1000
0000
0000
0000
,
0001
0000
1000
0000
,
0001
0000
1000
0000
,
0100
0000
0000
0000
,
0010
0000
0000
0000
,
0100
0000
0010
0000
,
2002
0000
3003
0000
,
0001
0000
0100
0000
,
0001
0000
0001
0000
,
1000
0000
0100
0000
,
1000
0000
0000
0000
,
0001
0000
0000
0000
,
0100
0000
0000
0000
,
0010
0000
0100
0000
,
2002
0000
3003
0000
,
1000
0000
0100
0000
,
1000
0000
0001
0000
,
0100
0000
0010
0000
,
0100
0000
0000
0000
,
0010
0000
0000
0000
,
1000
0000
0000
0000
,
0001
0000
0000
0000
,
1000
0000
0001
0000
,
2002
0000
0000
0000
,
3003
0000
0000
0000
,
0220
0000
0000
0330
,
0000
0000
0000
0000
,
1000
0000
0000
0000
,
0001
0000
0000
0000
,
0100
0000
0000
0000
,
0010
0000
0000
0000
,
2002
0000
0000
0000
,
3003
0000
0000
0000
,
0220
0000
0000
0330
,
0000
0000
0000
0000
,
1000
0000
0100
0000
,
1000
0000
0001
0000
,
0100
0000
0100
0000
,
0010
0000
0100
0000
,
2002
0000
0000
0000
,
3003
0000
0000
0000
,
0220
0000
0000
0000
,
0330
0000
0110
0000
,
2002
0000
0000
0000
,
3003
0000
1001
0000
,
0001
0000
0100
0000
,
0010
0000
0110
0000
,
1001
0000
0100
0000
,
0010
0000
0110
0000
,
1001
0000
0100
0000
,
1000
0000
0100
0000
,
0010
0000
0001
0000
,
0100
0000
0100
0000
,
0100
0000
0010
0000
,
1000
0000
0001
0000
,
1000
0000
0100
0000
,
0010
0000
0100
0000
,
2002
0000
3003
0000
,
0001
0000
0100
0000
,
0001
0000
0000
0000
,
1000
0000
0100
0000
,
0010
0000
0000
0000
,
0100
0000
1000
0000
,
0001
0000
0100
0000
,
0010
0000
0000
0000
,
2002
0000
0000
0000
,
0000
0000
0000
0000
,
0000
0000
0000
0000
,
3003
0000
0000
0000
,
0220
0000
0000
0000
,
0000
0000
0000
0000
,
0000
0000
0000
0000
,
0330
0000
0000
0000
,
0000
0000
0000
0000
,
0000
0000
0000
0000
,
0000
0000
0000
0000
,
0000
0000
0000
0000
,
2002
0000
0000
0000
,
0000
0000
3003
0000
,
0110
0000
0000
0000
,
1000
0000
0001
0000
,
1000
0000
1000
0000
,
0100
0000
1000
0000
,
1001
0000
0000
0000
,
0110
0000
0000
0000
,
0010
0000
0100
0000
,
0001
0000
1000
0000
,
0100
0000
0010
0000
,
0100
0000
0100
0000
,
0100
0000
0000
0000
,
0010
0000
0000
0000
,
0001
0000
0000
0000
,
1001
0000
0000
0000
,
0110
0000
2002
0000
,
0000
0000
3003
0000
,
1001
0000
0000
0000
,
0000
0000
0000
0000
,
1000
0000
0100
0000
,
0010
0000
0001
0000
,
0100
0000
0000
0000
,
0010
0000
0000
0000
,
1000
0000
0010
0000
,
1000
0000
0001
0000
,
0100
0000
0000
0000
,
0001
0000
0000
0000
,
1000
0000
0100
0000
,
0010
0000
0001
0000
,
1000
0000
0000
0000
,
0001
0000
0000
0000
,
1000
0000
1000
0000
,
0100
0000
0100
0000
,
0010
0000
0010
0000
,
0001
0000
0000
0000
;
