#TITLE:Don't Stop 'Til You Get Enough;
#SUBTITLE:;
#ARTIST:Michael Jackson;
#TITLETRANSLIT:;
#SUBTITLETRANSLIT:;
#ARTISTTRANSLIT:;
#CREDIT:;
#BANNER:;
#BACKGROUND:;
#LYRICSPATH:;
#CDTITLE:;
#MUSIC:Don't Stop 'Til You Get Enough.mp3;
#OFFSET:-8.650;
#SAMPLESTART:56.830;
#SAMPLELENGTH:15.860;
#SELECTABLE:YES;
#DISPLAYBPM:119.000;
#BPMS:0.000=118.700,8.000=119.000,16.000=118.560,24.000=119.200,32.000=119.000,48.000=118.560,56.000=119.000,60.000=119.100,64.000=119.000,72.000=118.000,76.000=120.000,80.000=118.000,88.000=119.000,92.000=120.000,96.000=119.440,100.000=119.000,104.000=120.000,112.000=118.000,116.000=119.000,124.000=118.000,132.000=120.000,136.000=118.000,140.000=121.000,144.000=118.000,152.000=119.000,164.000=122.000,168.000=119.000;
#STOPS:;
#BGCHANGES:;

//---------------dance-single - ----------------
#NOTES:
     dance-single:
     :
     Hard:
     7:
     0.457,0.401,0.209,0.200,0.241:
1000
0000
0000
1000
0100
0000
1000
0000
0001
0000
0000
0000
0101
0000
0000
0000
,
0010
0000
0000
1000
0001
0000
0010
0000
0100
0000
0010
0000
0001
0000
1000
0000
,
0001
0000
0000
0100
0000
0000
0020
0000
0100
0000
0000
0000
1030
0000
0000
0000
,
1000
0100
0001
0100
1000
0001
1000
0000
,
0001
0000
0000
0010
0100
0000
0010
0000
0001
0000
0000
0000
1100
0000
0000
0000
,
1000
0000
0000
0010
0100
0000
1000
0000
0100
0000
0010
0000
1000
0000
0001
0000
,
0020
0000
0000
0100
0000
0000
0031
0000
1000
0000
0000
0000
1001
0000
0000
0000
,
0001
0000
0100
0000
1000
0000
0100
0000
0001
1000
0000
0000
1001
0000
0000
0000
,
0001
0000
0000
0010
0001
0000
1000
0000
0100
0000
0000
0000
1100
0000
0000
0000
,
1000
0000
0000
0010
1000
0000
0001
0000
0100
0000
0001
0000
1000
0000
0100
0000
,
0010
0000
0000
0100
0000
0000
1000
0000
0001
0000
0100
0000
0010
0000
0000
0000
,
1000
0000
0100
0000
0010
0000
0001
0000
0100
0010
0000
1000
0000
0000
0001
0000
,
0100
0000
0000
0001
0100
0000
0000
0000
0010
0000
1000
0000
0001
0000
0000
0000
,
1000
0100
0010
0100
1000
0001
0100
0010
,
1000
0000
0000
0100
0000
0000
1000
0000
0001
0000
0001
0000
0101
0000
0000
0000
,
1000
0010
0100
1000
0100
0001
1000
0000
,
0001
0000
0000
1000
0100
0000
0000
0000
1000
0000
0000
0001
0100
0000
0000
0000
,
0001
0000
0000
0010
0000
0000
0001
0000
0100
0000
0001
0000
1000
0000
0100
0000
,
1000
0000
0000
0001
0000
0000
0100
0000
0100
0000
0010
0000
1000
0000
0000
0000
,
0001
0100
0100
0010
1000
0001
0010
0100
,
0010
0000
0000
0012
0000
0000
0000
0000
1003
0000
0000
0000
0010
0000
0100
0000
,
0001
0000
0000
0100
0000
0000
0010
0000
1000
0000
0100
0000
0010
0000
0100
0000
,
0000
0011
0000
0101
0000
1002
0000
0000
,
0103
0000
0010
1000
0001
1000
0100
0010
,
0001
0000
0101
0000
0010
1000
0010
0000
,
1000
0000
0001
0000
0100
0000
0001
0100
0001
0000
1000
0000
0100
0000
0010
0000
,
0001
0000
1100
0000
0001
0100
0001
0000
,
1000
0000
0010
0000
1000
0000
0001
0100
0001
0000
1000
0000
0100
0000
1000
0000
,
0100
0000
0010
0100
0010
0001
1000
0000
,
0001
0000
0100
0000
0010
0000
1000
0100
1000
0000
0001
0000
0100
0000
0000
0000
,
0001
0000
1100
0000
1000
0010
0100
0000
,
2002
0000
3003
1001
,
1000
0100
0000
2000
0000
0000
3000
0000
0001
0100
0000
0002
0000
0000
0003
0000
,
0001
0010
0000
0002
0000
0000
0003
0000
1000
0000
0010
0000
1010
0000
0000
0000
,
0001
1000
0000
0200
0000
0000
0300
0000
1000
0001
0000
0200
0000
0000
0300
0000
,
0001
1000
0000
0020
0000
0000
0030
0000
1000
0000
0001
0000
0011
0000
0000
0000
,
0001
0200
0000
1300
0000
0000
0000
0000
1000
0200
0000
0301
0000
0000
0000
0000
,
0001
0020
0000
1030
0000
0000
0000
0000
1000
0000
0010
0000
0001
0000
0000
0000
,
0001
0100
0000
0110
0000
0000
0000
0000
1000
0100
0000
0110
0000
0000
0000
0000
,
0001
1000
0000
2002
0000
0000
3003
0000
0000
0000
0000
0000
1001
0000
0000
0000
,
0001
0000
0100
0000
0010
0000
1000
0000
0100
0000
0010
0002
0000
0000
0000
0000
,
1003
0000
0000
0010
0000
0000
1000
0000
0100
0000
0010
0000
0001
0000
1000
0000
,
0001
0000
1000
0000
0100
0000
1000
0000
0001
0000
1000
0200
0000
0000
0000
0000
,
1300
0100
0010
0001
0100
0010
1001
0000
,
0201
0000
0310
0000
0010
1000
0001
0000
,
1000
0000
0100
0000
0010
0000
0100
0010
0100
0000
0010
0000
0001
0000
0000
0000
,
2000
0000
0000
3010
0000
0000
0000
0000
0010
0000
0100
0000
0001
0000
0000
0000
,
1000
0000
0001
0000
1000
0000
0001
0100
0001
0000
1000
0000
0100
0000
0010
0000
,
0200
0000
0000
0000
,
0300
0000
0000
0000
;

//---------------dance-single - ----------------
#NOTES:
     dance-single:
     :
     Medium:
     5:
     0.359,0.334,0.200,0.218,0.027: // measure 1
1001
0000
0001
0100
0002
0000
0003
0000
,  // measure 2
1000
0000
0001
0100
0010
0000
1000
0000
,  // measure 3
0001
0000
0000
0100
0000
0000
0202
0000
0000
0000
0000
0000
0303
0000
0000
0000
,  // measure 4
0001
0000
1000
0000
0100
1000
0001
0000
,  // measure 5
0001
0000
0100
0010
2000
0000
3000
0000
,  // measure 6
0010
0000
1000
0010
1000
0000
0001
0000
,  // measure 7
1000
0000
0000
0100
0000
0000
2200
0000
0000
0000
0000
0000
3300
0000
0000
0000
,  // measure 8
1000
0000
0001
0000
0100
0010
0100
0000
,  // measure 9
1010
0000
1000
0001
0020
0000
0130
0000
,  // measure 10
0010
0000
0001
1000
0001
0100
0010
0000
,  // measure 11
1000
0000
0000
0010
0000
0000
0200
0000
0000
0000
0000
0000
0301
0000
0000
0000
,  // measure 12
1000
0100
1000
0000
0001
0100
0001
0100
,  // measure 13
0010
0000
1001
0000
1000
0100
0010
0000
,  // measure 14
0100
0000
1001
0000
0001
0100
0010
0000
,  // measure 15
1000
0000
0000
0001
0000
0000
0200
0000
0000
0000
0000
0000
0310
0000
0000
0000
,  // measure 16
0010
0100
0010
0000
1000
0000
1001
0000
,  // measure 17
0001
0000
0101
0000
0010
1000
0100
0000
,  // measure 18
1000
0000
0001
0000
0100
0010
0100
0010
,  // measure 19
0100
0000
0000
0001
0000
0000
2000
0000
0000
0000
0000
0000
3001
0000
0000
0000
,  // measure 20
1000
0100
1000
0001
0010
0000
0001
0000
,  // measure 21
0100
0000
1010
0000
0100
0001
0010
0000
,  // measure 22
0001
1000
0100
1000
0001
0000
0100
0010
,  // measure 23
0000
1010
0000
1001
0000
0202
0000
0303
,  // measure 24
0001
0000
1000
0000
0100
1000
0100
0000
,  // measure 25
2002
0000
3003
0000
0001
0100
0001
0000
,  // measure 26
1000
0100
0010
0001
0100
0000
0001
0000
,  // measure 27
0202
0000
0303
0000
0010
1000
0010
0000
,  // measure 28
1000
0100
1000
0001
0100
0000
0010
0000
,  // measure 29
0100
0000
0010
0000
1000
0010
1000
0000
,  // measure 30
0001
0000
0010
0000
0100
0010
0001
0100
,  // measure 31
0001
0000
0100
0000
0010
1000
0010
0000
,  // measure 32
2002
0000
3003
0110
,  // measure 33
1001
0001
0100
1000
,  // measure 34
0001
0000
0010
0000
1000
0001
1000
0000
,  // measure 35
0001
0010
0100
0001
,  // measure 36
0010
0000
0100
0000
0001
0010
0001
0000
,  // measure 37
1000
0010
0001
1000
,  // measure 38
0010
0000
0001
0000
1000
0001
0100
0000
,  // measure 39
0010
1000
0001
1000
,  // measure 40
1001
0000
0000
2002
0000
0000
3003
0000
0000
0000
0000
0000
1001
0000
0000
0000
,  // measure 41
1000
0010
1000
0000
0001
0100
0001
0000
,  // measure 42
1000
0100
0010
0001
,  // measure 43
1000
0010
1000
0000
0001
0100
0010
0000
,  // measure 44
1000
0000
0001
0000
0010
0100
0010
0000
,  // measure 45
2002
0000
3003
0000
1000
0010
0100
0000
,  // measure 46
0001
1000
0100
0010
0100
0000
0001
0000
,  // measure 47
1000
0000
0001
0000
0100
0001
0100
0000
,  // measure 48
0001
0000
1000
0100
1000
0100
1000
0000
,  // measure 49
2002
0000
0000
0000
,  // measure 50
3003
0000
0000
0000
;

//---------------dance-single - ----------------
#NOTES:
     dance-single:
     :
     Easy:
     3:
     0.252,0.267,0.127,0.227,0.000: // measure 1
0001
1000
0200
0300
,  // measure 2
1000
0001
0100
0010
,  // measure 3
0100
0010
0200
0300
,  // measure 4
0010
1000
0001
0010
,  // measure 5
0100
0010
0002
0003
,  // measure 6
1000
0100
0010
0001
,  // measure 7
0100
0010
0200
0300
,  // measure 8
0010
1000
2002
3003
,  // measure 9
0010
1000
0100
1000
,  // measure 10
0010
0100
0001
0000
,  // measure 11
1000
0100
0010
0000
,  // measure 12
0100
0010
0001
0000
,  // measure 13
1000
0001
0100
0001
,  // measure 14
0010
0001
0100
0000
,  // measure 15
0010
1000
0001
0000
,  // measure 16
0010
0001
2002
3003
,  // measure 17
0220
0330
0010
1000
,  // measure 18
0001
0010
0100
0000
,  // measure 19
2002
3003
0001
0100
,  // measure 20
0001
1000
0100
0010
,  // measure 21
0220
0330
0010
0001
,  // measure 22
1000
0001
0100
0010
,  // measure 23
0220
0330
0100
0010
,  // measure 24
1000
0001
1000
0000
,  // measure 25
1001
0000
0001
0100
,  // measure 26
0001
0001
0001
1000
,  // measure 27
0100
0000
1000
0100
,  // measure 28
0010
0010
0010
0100
,  // measure 29
1000
0000
0001
0100
,  // measure 30
0010
0010
0010
1000
,  // measure 31
0001
0000
1000
0001
,  // measure 32
2002
0000
3003
1001
,  // measure 33
0001
0000
0100
0000
,  // measure 34
0001
0000
1000
0100
,  // measure 35
1000
0000
0001
0000
,  // measure 36
0010
0000
0100
0010
,  // measure 37
0001
0000
0100
0000
,  // measure 38
0010
1000
0001
0100
,  // measure 39
0010
0000
0100
0000
,  // measure 40
0220
0330
0000
1001
,  // measure 41
0001
0100
0001
0001
,  // measure 42
1000
0100
0010
0100
,  // measure 43
1000
0100
1000
1000
,  // measure 44
0001
0100
0020
0030
,  // measure 45
2002
3003
0001
0100
,  // measure 46
1000
0100
0001
1000
,  // measure 47
1001
0000
0001
0010
,  // measure 48
1000
0010
0001
1000
,  // measure 49
2002
0000
0000
0000
,  // measure 50
3003
0000
0000
0000
;

//---------------dance-single - ----------------
#NOTES:
     dance-single:
     :
     Beginner:
     1:
     0.116,0.153,0.091,0.000,0.000: // measure 1
1001
0000
0000
0000
,  // measure 2
0001
0000
0000
0000
,  // measure 3
0100
0000
0010
0000
,  // measure 4
1000
0000
0001
0000
,  // measure 5
0010
0000
0000
0000
,  // measure 6
0100
0000
0000
0000
,  // measure 7
0010
0000
0001
0000
,  // measure 8
1000
0000
0001
0000
,  // measure 9
0100
0000
0000
0000
,  // measure 10
0001
0000
0000
0000
,  // measure 11
1000
0000
0100
0000
,  // measure 12
1000
0000
0001
0000
,  // measure 13
0100
0000
0000
0000
,  // measure 14
0010
0000
0000
0000
,  // measure 15
1000
0000
0001
0000
,  // measure 16
1000
0000
1000
0000
,  // measure 17
1001
0000
0000
0000
,  // measure 18
0001
0000
1000
0000
,  // measure 19
0001
0000
0000
0000
,  // measure 20
1000
0000
0100
0000
,  // measure 21
0010
0000
0000
0000
,  // measure 22
0100
0000
1000
0000
,  // measure 23
0001
0000
0000
0000
,  // measure 24
0100
0000
0001
0000
,  // measure 25
1001
0000
0000
0000
,  // measure 26
0010
0010
0010
0000
,  // measure 27
1001
0000
0000
0000
,  // measure 28
0100
0100
0100
0000
,  // measure 29
0110
0000
0000
0000
,  // measure 30
1000
1000
1000
0000
,  // measure 31
0110
0000
0000
0000
,  // measure 32
1001
0000
0000
0000
,  // measure 33
0001
0000
0001
0000
,  // measure 34
1000
0000
1000
0000
,  // measure 35
0010
0000
0010
0000
,  // measure 36
0100
0000
0100
0000
,  // measure 37
0001
0000
0100
0000
,  // measure 38
0010
0000
1000
0000
,  // measure 39
0100
0000
0010
0000
,  // measure 40
1001
0000
0000
0100
,  // measure 41
0100
0000
0000
0000
,  // measure 42
0010
0000
0000
0000
,  // measure 43
0001
0000
0100
0000
,  // measure 44
0001
0000
1000
0000
,  // measure 45
0010
0000
0000
0000
,  // measure 46
1001
0000
1000
0000
,  // measure 47
0100
0000
0000
0000
,  // measure 48
0110
0000
0010
0000
,  // measure 49
0001
0000
0000
0000
;
