#TITLE:December Breeze;
#SUBTITLE:;
#ARTIST:dj silverberg;
#TITLETRANSLIT:;
#SUBTITLETRANSLIT:;
#ARTISTTRANSLIT:;
#CREDIT:;
#BANNER:;
#BACKGROUND:;
#LYRICSPATH:;
#CDTITLE:;
#MUSIC:December Breeze.mp3;
#OFFSET:-6.940;
#SAMPLESTART:51.770;
#SAMPLELENGTH:10.540;
#SELECTABLE:YES;
#BPMS:0.000=182.000;
#STOPS:;
#BGCHANGES:;

//---------------dance-single - ----------------
#NOTES:
     dance-single:
     :
     Hard:
     9:
     0.750,0.683,0.213,0.185,0.180:
0001
0100
0001
1000
0000
0100
1000
0000
,
0001
0010
0100
0010
0000
0001
1000
0001
,
0100
0010
1000
0010
0000
0100
0001
0000
,
1000
0000
0100
0000
0010
0000
0100
0000
1000
0000
0000
0001
0000
0000
0100
0000
,
0010
0100
0001
0100
0000
0010
1000
0000
,
0001
0010
0100
0010
0000
0001
1000
0000
,
0001
0100
0010
1000
0000
0100
0010
0100
,
0010
0001
1000
0000
0010
1000
0001
0000
,
1000
0001
0100
0200
0000
0310
1000
0100
,
0010
0001
1000
2000
0000
3010
0100
0010
,
0100
0001
0010
0020
0000
0130
0010
0001
,
1000
0000
0100
0000
0010
0000
0001
0000
1000
0000
0000
1001
0000
0000
0001
0000
,
0100
0010
1000
0200
0000
0301
0100
1000
,
0010
0100
0010
0002
0000
0013
1000
0100
,
0010
0100
1000
0002
0000
0103
0001
1000
,
1000
1100
0000
0001
0101
0000
1001
2002
,
0000
0000
0000
3003
,
1001
0000
0000
0100
0000
0000
0010
0000
0001
0000
0000
0100
0000
0000
0010
0000
,
1000
0010
1000
0010
0100
0001
1000
0100
,
0010
0000
0000
0100
0000
0000
0010
0000
0001
0000
0000
1000
0000
0000
0001
0000
,
0100
1000
0100
0010
0100
0001
0100
0010
,
1000
0000
0000
1001
0000
0000
0001
0000
0010
0000
0000
0110
0000
0000
0100
0000
,
0010
0001
0001
0100
0010
0010
1000
0001
,
0200
0000
1000
0000
0010
0000
0301
0100
,
0001
0000
0000
1000
0100
0010
0001
0000
0000
1001
0000
0000
,
1000
0000
1000
0010
0000
0010
0001
0000
,
0001
0010
0000
0010
1000
0001
0010
0001
,
1000
0000
1000
0100
0000
0100
0001
0000
,
0001
0100
0000
0100
1000
0010
0100
0001
,
0010
0001
0010
0100
1000
0100
1000
0010
,
0100
0001
0010
0100
0001
0100
1000
0001
,
0100
1000
0100
0010
1000
0001
0010
0100
,
0110
0000
1001
0000
0001
0100
0001
0102
,
0000
1000
1003
0000
1000
0100
2000
0000
,
3001
0100
0001
1000
0000
1000
0100
0010
,
0100
1000
0010
0100
0000
0100
0001
1000
,
0100
0010
0001
0100
0000
0100
0001
1000
,
0001
0000
0100
0000
1000
0000
0100
0000
0001
0000
0000
1000
0000
0000
0001
0000
,
0010
0100
0001
0100
0000
0001
0100
0010
,
0001
1000
0010
0100
0000
0010
0100
0001
,
1000
0100
0010
0001
0000
0010
0001
1000
,
0100
0000
1000
0000
0001
0000
0000
0001
0100
0000
0001
0000
1000
0000
0000
0000
,
0010
0000
0100
0000
0001
0000
0020
0000
0000
0000
0130
0000
0010
0000
0000
0001
,
1000
0000
0001
0000
0100
0000
0002
0000
0000
0000
1003
0000
0100
0000
0000
1000
,
0100
0000
1000
0000
0010
0000
0200
0000
0000
0000
0310
0000
0100
0000
0000
0001
,
1000
0000
0100
0000
0010
0000
0001
0000
1000
0000
0000
0001
0000
0000
0100
0000
,
0010
0000
0100
0000
0001
0000
2000
0000
0000
0000
3001
0000
1000
0100
0000
0100
,
1000
0000
0001
0000
0100
0000
0020
0000
0000
0000
1030
0000
0001
0010
0001
0000
,
0010
0100
0010
0002
0000
1003
0100
1000
,
0010
0000
0100
0000
0001
0000
0100
0000
0010
1000
0000
1000
0010
0000
1000
0000
,
0001
0000
0010
0000
0100
0000
0010
0000
0001
1000
0001
0000
1000
0000
0100
0000
,
1000
0000
0001
0000
0100
0000
0010
0000
0100
0001
0100
0000
0010
0000
1000
0000
,
2002
0000
0000
0000
0000
0000
0000
0000
3003
0000
0000
0000
1000
0100
1000
0100
,
1000
0010
0100
0001
0010
0100
0010
0010
,
0010
0001
0100
1000
0100
0010
1000
1000
,
1000
0001
0010
0100
0001
0100
0010
0010
,
0010
0000
0001
0000
1000
0000
0001
0000
0100
0000
0000
1010
0000
0000
0100
0000
,
0001
1000
0100
0010
0100
1000
0010
0100
,
1000
0100
0010
1000
0100
0010
0001
0100
,
1000
0100
0001
0010
0100
0010
0001
1000
,
0100
0000
1000
0000
0001
0100
0000
0100
0001
0000
1000
0000
0001
0100
0000
0100
,
0001
0000
1000
0000
0100
0000
0010
0000
0100
0000
0100
0000
1000
0100
1000
0000
,
0001
0000
0100
0000
0010
0000
1000
0000
0001
0000
0001
0000
0010
0001
0010
0000
,
0100
0000
0001
0000
0100
0000
1000
0000
0010
0000
0010
0000
0100
0001
0100
0000
,
0001
0000
0100
0000
0010
0000
1000
0000
0001
0000
0000
0011
0000
0000
1000
0000
,
0100
0000
0001
0000
1000
0000
0010
0000
0001
0000
0001
0000
1000
0000
0001
0010
,
0001
0000
0100
0000
1000
0000
0001
0000
0010
0100
0010
0000
1000
0000
0001
0000
,
1000
0100
1000
2100
0000
3001
0100
0010
,
1010
1100
0011
0101
,
0010
1000
0100
0001
0100
1000
0010
1000
,
0100
0001
0100
1000
0010
1000
0100
0010
,
0011
0000
1000
0001
1001
0000
0001
0100
,
0010
0000
1000
0000
0010
0000
0100
0000
0001
1000
0000
0001
1000
0000
0001
0000
,
0010
0000
0100
0000
0010
0000
0100
0000
1000
0001
1000
0000
0001
0000
0101
0000
;

//---------------dance-single - ----------------
#NOTES:
     dance-single:
     :
     Medium:
     7:
     0.584,0.614,0.194,0.213,0.000:
1001
0000
0001
0100
0000
0010
0100
0000
,
0010
0000
1000
0100
0000
0010
0001
0000
,
1000
0000
0001
0100
0000
0010
0100
0000
,
0001
0000
1000
0000
0100
0010
0100
0000
,
0010
0000
0001
1000
0000
0010
0100
0000
,
0001
0000
1000
0100
0000
1000
0100
0000
,
0010
0000
0100
0010
0000
0001
1000
0000
,
0001
0100
0010
0000
1000
0100
0010
0000
,
0001
1000
0001
2000
0000
0000
3100
0000
,
0010
0001
0010
0002
0000
0000
0103
0000
,
0010
0100
0001
2000
0000
0000
3001
0000
,
1000
0100
1000
0000
0001
0100
0001
0000
,
1000
0100
0010
0002
0000
0000
0103
0000
,
0001
0100
0010
2000
0000
0000
3001
0000
,
1000
0100
0010
0100
0000
0010
0001
0000
,
1000
0100
0000
0100
1000
0000
2000
0002
,
0000
0000
0000
3003
,
0001
0000
0100
0000
1000
0000
1000
0100
,
0001
1000
0100
0010
,
0001
0000
0010
0000
1000
0000
1000
0010
,
0001
0000
1000
0000
0001
0100
0001
0000
,
1000
0000
0100
0000
0010
0000
0010
0100
,
1000
0000
0001
0000
0100
0000
0010
1000
,
0002
0010
1000
0103
,
1001
0200
0310
1001
,
0001
0000
0001
0100
0000
0100
0001
0000
,
0001
0100
0000
0100
0001
0000
1000
0000
,
0100
0000
0100
1000
0000
1000
0100
0000
,
0100
1000
0000
1000
0001
0000
0100
0000
,
0001
0100
0001
0100
0010
0100
0010
0100
,
0001
1000
0100
0010
,
0100
1000
0100
1000
0100
0010
0100
0010
,
0100
0000
0010
0000
0001
1000
0002
2000
,
0000
0000
3003
0000
1000
0001
1000
0000
,
0001
0100
0001
0100
0000
0010
0100
0000
,
0001
1000
0001
1000
0000
1000
0100
0000
,
0010
0001
0010
0001
0000
1000
0100
0000
,
1000
0100
0010
0000
0001
0000
1000
0000
,
0001
0100
0010
0100
0000
0010
1000
0000
,
0001
1000
0001
1000
0000
0100
0010
0000
,
0010
0001
1000
0100
0000
0100
1000
0000
,
0001
0100
0001
0000
1000
0010
1000
0000
,
0001
0010
0100
0020
0000
0001
0031
0000
,
1000
0010
0100
0020
0000
1000
1030
0000
,
0001
0100
0010
2000
0000
0100
3100
0000
,
1000
0100
0010
0001
0200
0000
0310
0000
,
0010
0100
0001
0020
0000
0001
0031
0000
,
0010
0001
1000
0200
0000
1000
1300
0000
,
1000
0010
0100
0020
0000
1000
1030
0000
,
1000
0010
0100
0000
0001
0010
0001
0000
,
1000
0100
0010
0000
0001
0010
0001
0000
,
1000
0100
0010
0100
1000
0100
0010
0100
,
2000
0000
0000
3000
,
0001
0100
0001
1000
0000
0001
1000
0000
,
0001
0100
0010
0100
0000
0010
0100
0000
,
0010
1000
0001
0010
0000
0001
0010
0000
,
0001
1000
0100
0010
0100
0000
0110
0000
,
0010
0001
1000
0001
0000
0100
0010
0000
,
1000
0001
0100
0010
0000
1000
0001
0000
,
0010
0001
1000
0100
0000
1000
0100
0000
,
1000
0010
0100
0000
0110
0000
1001
0000
,
0001
0010
0001
1000
0001
0000
0100
0000
,
0010
1000
0100
0010
0100
0000
0010
0000
,
0001
1000
0100
0010
0100
0000
1000
0000
,
0001
0100
0001
0000
1000
0010
0100
0000
,
0010
1000
0001
0010
0100
0000
0010
0000
,
0001
1000
0100
0010
0100
0000
1000
0000
,
0001
1000
0001
0100
0001
0000
1100
0000
,
1001
0101
1010
1100
,
0110
0110
1001
1001
,
0011
1100
1010
0101
,
2002
3003
0220
0330
,
1000
0001
1000
0001
1000
0001
1000
0010
,
0100
0010
0100
0010
0100
0000
0001
1000
;

//---------------dance-single - ----------------
#NOTES:
     dance-single:
     :
     Easy:
     4:
     0.370,0.580,0.222,0.120,0.000: // measure 1
1000
0100
1000
0000
,  // measure 2
0001
0100
0001
0000
,  // measure 3
1000
0100
0010
0001
,  // measure 4
0100
0010
0100
0000
,  // measure 5
0010
1000
0001
0000
,  // measure 6
0010
0001
1000
0000
,  // measure 7
1000
0100
0010
0001
,  // measure 8
0100
0010
0100
0000
,  // measure 9
0001
0100
0001
0000
,  // measure 10
1000
0010
1000
0000
,  // measure 11
0001
0010
0001
0000
,  // measure 12
1000
0100
0010
0001
,  // measure 13
0100
0010
0100
0000
,  // measure 14
0010
1000
0001
1000
,  // measure 15
0010
0100
0001
1000
,  // measure 16
1001
0000
0000
0000
0110
0000
0000
2002
,  // measure 17
0000
0000
0000
3003
,  // measure 18
0001
0100
0001
1000
,  // measure 19
0100
0000
1000
0000
,  // measure 20
0001
0010
0001
1000
,  // measure 21
0010
0000
0100
0000
,  // measure 22
0010
0100
0010
0100
,  // measure 23
0001
1000
0001
1000
,  // measure 24
0200
0000
0000
0310
,  // measure 25
0100
0010
0001
1001
,  // measure 26
1000
0100
1000
0100
,  // measure 27
0010
0001
0010
0001
,  // measure 28
1000
0010
1000
0010
,  // measure 29
0100
0001
0100
0001
,  // measure 30
1000
0100
1000
0001
,  // measure 31
0100
0010
0100
0001
,  // measure 32
0010
0100
0010
0001
,  // measure 33
1001
0000
1001
0000
1001
0000
0000
2002
,  // measure 34
0000
0000
0000
3003
,  // measure 35
0001
1000
0100
0000
,  // measure 36
1000
0001
0100
0000
,  // measure 37
0001
1000
0100
0000
,  // measure 38
0010
0001
1000
0100
,  // measure 39
1000
0010
0100
0000
,  // measure 40
0010
0100
0001
0000
,  // measure 41
1000
0100
0010
0000
,  // measure 42
1000
0100
1000
0001
,  // measure 43
0010
0100
0010
0000
,  // measure 44
0001
1000
0001
0000
,  // measure 45
0100
0001
0100
0000
,  // measure 46
0010
1000
0001
0100
,  // measure 47
0010
1000
0100
0000
,  // measure 48
1000
0100
0010
0000
,  // measure 49
0100
0010
0001
1000
,  // measure 50
1001
0000
0100
0000
,  // measure 51
1001
0000
0010
0000
,  // measure 52
1001
0000
0110
0000
,  // measure 53
2002
0000
0000
3003
,  // measure 54
1000
0100
1000
0100
,  // measure 55
0001
0100
1000
0000
,  // measure 56
0001
0100
0001
0100
,  // measure 57
1000
0100
0001
0000
,  // measure 58
1000
0010
0001
0010
,  // measure 59
1000
0010
0100
0000
,  // measure 60
0010
1000
0001
0010
,  // measure 61
0100
0010
0220
0330
,  // measure 62
1001
0001
0100
0001
,  // measure 63
1000
0100
1000
0000
,  // measure 64
0001
0010
0001
1000
,  // measure 65
0100
0010
0001
0100
,  // measure 66
0001
0100
0010
1000
,  // measure 67
0010
0100
0001
0000
,  // measure 68
1000
0100
0010
0100
,  // measure 69
1000
1000
0001
0001
,  // measure 70
1001
0100
1001
0010
,  // measure 71
1001
0110
1001
0110
,  // measure 72
2002
3003
0220
0330
,  // measure 73
0001
0100
0010
1000
,  // measure 74
0100
0000
0010
0000
0100
0000
0000
0110
;

//---------------dance-single - ----------------
#NOTES:
     dance-single:
     :
     Beginner:
     2:
     0.195,0.307,0.129,0.000,0.000: // measure 1
1000
0000
0100
0000
,  // measure 2
1000
0000
0010
0000
,  // measure 3
0100
0000
0001
0000
,  // measure 4
1000
0000
0000
0000
,  // measure 5
0001
0000
0010
0000
,  // measure 6
0001
0000
1000
0000
,  // measure 7
0100
0000
0010
0000
,  // measure 8
0100
0000
0000
0000
,  // measure 9
0010
0000
0001
0000
,  // measure 10
0100
0000
0001
0000
,  // measure 11
1000
0000
0010
0000
,  // measure 12
0100
0000
0000
0000
,  // measure 13
0001
0000
0100
0000
,  // measure 14
0010
0000
1000
0000
,  // measure 15
0001
0000
1000
0000
,  // measure 16
1001
0000
0000
0000
,  // measure 17
0000
0000
0000
0000
,  // measure 18
1000
0000
1000
0000
,  // measure 19
1000
0000
0001
0000
,  // measure 20
0100
0000
0100
0000
,  // measure 21
0100
0000
0010
0000
,  // measure 22
1000
0000
0001
0000
,  // measure 23
1000
0000
0100
0000
,  // measure 24
0010
0000
0000
0000
,  // measure 25
0001
0000
1000
0000
,  // measure 26
1001
0000
0000
0000
,  // measure 27
0001
0000
0100
0000
,  // measure 28
0010
0000
0000
0000
,  // measure 29
0100
0000
0010
0000
,  // measure 30
1000
0000
1000
0000
,  // measure 31
0100
0000
0100
0000
,  // measure 32
0010
0000
0010
0000
,  // measure 33
0001
0001
0001
0000
,  // measure 34
0000
0000
0000
0000
,  // measure 35
1000
0000
0001
0000
,  // measure 36
0100
0000
0010
0000
,  // measure 37
1000
0000
0100
0000
,  // measure 38
1000
0000
0000
0000
,  // measure 39
0001
0000
0010
0000
,  // measure 40
0100
0000
0010
0000
,  // measure 41
0001
0000
1000
0000
,  // measure 42
0100
0000
0100
0000
,  // measure 43
1000
0000
0010
0000
,  // measure 44
0100
0000
0001
0000
,  // measure 45
0010
0000
0001
0000
,  // measure 46
0100
0000
0000
0000
,  // measure 47
0001
0000
0100
0000
,  // measure 48
1000
0000
0100
0000
,  // measure 49
0001
0000
0010
0000
,  // measure 50
0110
0000
0000
0000
,  // measure 51
0110
0000
0000
0000
,  // measure 52
1001
0000
0110
0000
,  // measure 53
1001
0000
0000
0000
,  // measure 54
0001
0000
0100
0000
,  // measure 55
0001
0000
1000
0000
,  // measure 56
0100
0000
1000
0000
,  // measure 57
0010
0000
0010
0000
,  // measure 58
0010
0000
0100
0000
,  // measure 59
0001
0000
0010
0000
,  // measure 60
0100
0000
0010
0000
,  // measure 61
1001
0000
0000
0000
,  // measure 62
0001
0000
0100
0000
,  // measure 63
0010
0000
0100
0000
,  // measure 64
1000
0000
0100
0000
,  // measure 65
0010
0000
0100
0000
,  // measure 66
0001
0000
0010
0000
,  // measure 67
0100
0000
0010
0000
,  // measure 68
1000
0000
0010
0000
,  // measure 69
0001
0000
0100
0000
,  // measure 70
1001
0000
1000
0000
,  // measure 71
1001
0000
0001
0000
,  // measure 72
1001
0000
0110
0000
,  // measure 73
1001
0000
0110
0000
,  // measure 74
0100
0100
0100
0100
;
