#TITLE:Chains of Love;
#SUBTITLE:;
#ARTIST:Erasure;
#TITLETRANSLIT:;
#SUBTITLETRANSLIT:;
#ARTISTTRANSLIT:;
#CREDIT:;
#BANNER:Chains of Love.png;
#BACKGROUND:Chains of Love-bg.PNG;
#LYRICSPATH:;
#CDTITLE:;
#MUSIC:Chains of Love.mp3;
#OFFSET:-0.440;
#SAMPLESTART:58.500;
#SAMPLELENGTH:15.660;
#SELECTABLE:YES;
#DISPLAYBPM:87.000:123.000;
#BPMS:0.000=87.000,32.000=122.000,40.000=122.600;
#STOPS:;
#BGCHANGES:0.000=Chains of Love.avi=1.000=1=1=0,
191.000=Chains of Love-bg.PNG=1.000=1=0=1,
99999=-nosongbg-=1.000=0=0=0 // don't automatically add -songbackground-
;

//---------------dance-single - ----------------
#NOTES:
     dance-single:
     :
     Hard:
     6:
     0.397,0.384,0.265,0.246,0.000: // measure 1
0000
0000
0000
0000
,  // measure 2
2000
0000
0000
3100
0010
0100
0000
0010
,  // measure 3
0002
0000
0000
0100
0100
1000
0000
1000
,  // measure 4
2003
0000
0000
3001
0000
1000
0001
1000
,  // measure 5
0200
0000
0000
0300
,  // measure 6
0120
0000
0000
0000
0000
0000
0000
0000
0030
0001
0000
0000
1000
0000
0000
0010
0000
0000
0000
0000
0000
0010
0000
0000
,  // measure 7
0200
0000
0000
0001
0301
0000
0100
0000
,  // measure 8
1002
0000
0000
0200
0000
0000
0303
0000
,  // measure 9
1000
0101
0001
1100
,  // measure 10
1001
0000
0110
0000
0010
1000
0001
0000
,  // measure 11
0100
0000
1001
0000
0001
0010
0100
0020
,  // measure 12
0000
0000
0031
0000
0100
0100
0100
0000
,  // measure 13
0010
0000
1001
0000
0001
1000
0100
0000
,  // measure 14
1000
1000
1000
0000
0001
0100
0001
1000
,  // measure 15
0100
0200
0300
0000
0010
0001
1000
0001
,  // measure 16
0000
0101
0000
0100
0002
0000
0010
0000
,  // measure 17
1000
0000
0100
0103
0001
0000
1000
0100
,  // measure 18
0010
0100
0000
2000
0000
0010
0000
0001
,  // measure 19
0000
3001
1000
0000
0001
0100
0001
0000
,  // measure 20
1000
0200
0000
0302
0000
0203
0000
2300
,  // measure 21
0000
3002
0000
0103
0200
0000
1000
0000
,  // measure 22
0310
0100
0001
0001
0000
1000
0001
0001
,  // measure 23
1000
0100
0000
0012
0000
0103
0001
0100
,  // measure 24
0010
1000
0000
2100
0000
3100
1000
0001
,  // measure 25
0010
0100
0000
0120
0000
0031
1000
0001
,  // measure 26
0100
0010
0100
0000
0001
0000
1000
0000
,  // measure 27
0001
1000
0001
0100
0000
0100
1000
0100
,  // measure 28
0000
0100
0001
0100
0000
0001
1000
0000
,  // measure 29
0001
0010
0001
0100
0000
0101
0000
1010
,  // measure 30
0000
1100
0000
0100
0010
0000
0100
0000
,  // measure 31
1000
0001
1000
0100
0010
0000
1001
0000
,  // measure 32
0001
0100
0010
1000
0001
0000
1001
0000
,  // measure 33
1000
0100
1000
0000
0001
0100
0010
0200
,  // measure 34
0000
0310
1000
0200
0000
0310
0001
0001
,  // measure 35
1000
0110
1001
0101
,  // measure 36
1000
0100
0010
0001
0000
0001
0100
0000
,  // measure 37
0001
1000
0010
0100
0000
0101
0000
1001
,  // measure 38
0000
1100
0000
0110
0000
0010
0001
0000
,  // measure 39
1000
0001
1000
0001
0100
0000
0010
0000
,  // measure 40
0100
0000
0010
1000
0000
1000
0100
0000
,  // measure 41
0010
0001
1000
0000
0001
0100
0010
2000
,  // measure 42
0000
3100
0010
0002
0000
0103
0001
1000
,  // measure 43
0100
1100
1001
0001
,  // measure 44
0100
0001
0000
0101
0000
0100
0010
0000
,  // measure 45
1000
0100
0010
0100
0000
0100
1000
0100
,  // measure 46
0000
0010
0001
1000
0001
0000
1001
0000
,  // measure 47
0010
0100
1000
0001
2000
0000
0000
0000
,  // measure 48
0000
0000
0000
3000
;

//---------------dance-single - ----------------
#NOTES:
     dance-single:
     :
     Medium:
     4:
     0.311,0.316,0.199,0.180,0.000:
0000
0000
0000
0000
,
2000
0000
0100
0000
,
3002
0000
0100
0000
,
0023
0000
0100
0000
,
0200
0000
0000
0330
,
2001
0000
0100
0000
,
3002
0000
0010
1000
,
0100
0000
0000
2000
0000
0000
3000
0000
,
1000
1000
1000
1000
,
1000
1000
2000
3003
,
1000
0000
0100
0000
1000
0000
0001
0100
,
0001
1000
0010
0100
,
1001
0000
0001
0000
0010
0000
0100
1000
,
0200
0010
2000
3300
,
1000
1000
0001
0000
0100
0000
0010
0000
,
1000
0000
0001
0010
0200
0000
0010
0000
,
1000
0020
0330
1001
,
0001
0100
0000
0001
0000
1000
0000
2002
,
0000
3003
1000
0100
,
0010
0200
0000
0010
0000
0010
0000
1000
,
0000
1000
0000
0020
0000
0000
0330
0000
,
0010
0000
0001
1000
0001
0000
0100
0000
,
0010
0100
0000
0101
0000
0001
0100
0000
,
0010
1000
0000
1100
0000
1000
0100
0000
,
0010
0001
0000
1001
0000
1000
0001
0000
,
0100
0010
2000
0000
0010
0000
0001
0000
,
0100
0000
0001
3001
0000
1000
0010
0000
,
1000
0000
0001
1000
0000
1000
0100
0000
,
0010
1001
0001
0100
,
0010
0000
1000
0100
1000
0000
0001
0000
,
0101
1001
1100
0010
,
0100
0000
0010
0001
1000
0000
0110
0000
,
0100
0010
0100
0000
0001
0000
1000
0010
,
0000
0100
0001
0000
0100
0001
1000
0000
,
0100
0110
1001
0001
,
0100
0001
0000
0101
0000
0001
1000
0000
,
0100
1000
0100
0000
1100
0000
0001
0000
,
0100
0000
1000
0001
1000
0000
0100
0000
,
0100
0000
0001
1000
0001
0000
1001
0000
,
0100
0000
0010
1000
0100
0000
1001
0000
,
0001
0000
0010
0000
0001
0000
0001
0100
,
0000
0010
1000
0000
0010
1000
0100
0000
,
0011
1100
1001
0001
,
0100
0010
0000
0100
0000
0010
0100
0000
,
0010
2000
0000
0010
0000
0010
0000
0001
,
0000
0001
0000
3100
0000
1000
0100
0000
,
0010
0000
0001
1000
0002
0000
0000
0000
,
0000
0000
0000
0003
;

//---------------dance-single - ----------------
#NOTES:
     dance-single:
     :
     Easy:
     2:
     0.150,0.203,0.076,0.057,0.000:
0000
0000
0000
0000
,
1000
0000
0000
0000
,
0100
0000
0000
0000
,
0010
0000
0000
0000
,
2002
0000
3003
0000
,
0001
0000
0100
0000
,
0001
0000
0100
0000
,
0010
0000
0000
0000
,
2002
0000
0000
0000
,
0000
0000
0000
3003
,
1001
0000
0001
0000
,
0100
0000
0010
0000
,
0100
0000
0001
1000
,
0001
0000
0000
0000
,
1001
0000
0000
0000
,
1000
0000
0100
0000
,
1000
1000
0100
0000
,
0010
0000
0001
0000
,
0000
0000
0100
0000
,
0001
0000
0100
0000
,
0000
0000
0010
0000
,
1000
0000
1001
0000
,
1000
1000
0001
0000
,
0010
0000
0001
0000
,
1000
0000
0100
0000
,
1000
0000
0001
0000
,
0000
0000
1000
1000
,
0001
0001
0100
0000
,
0010
0100
0010
0000
,
0100
0000
0110
0000
,
0010
0000
1000
0000
,
0100
0010
0100
0000
,
0010
0001
1000
0000
,
0001
1000
0001
0000
,
0010
0100
0110
0000
,
0000
0000
0100
0000
,
0010
0000
0100
0010
,
1000
0001
1000
0000
,
0010
0000
0100
0000
,
0001
0000
0010
0000
,
0100
0000
0010
0000
,
0001
1000
0001
0000
,
1000
0010
0100
0000
,
0001
0000
0100
0000
,
0001
0100
0001
0100
,
0010
1000
0010
1000
,
0001
1000
2002
0000
,
0000
0000
0000
3003
;

//---------------dance-single - ----------------
#NOTES:
     dance-single:
     :
     Beginner:
     1:
     0.101,0.110,0.085,0.000,0.000:
0000
0000
0000
0000
,
1000
0000
0000
0000
,
0100
0000
0000
0000
,
0010
0000
0000
0000
,
0001
0000
0000
0000
,
0100
0000
0000
0000
,
0010
0000
0000
0000
,
1000
0000
0000
0000
,
1001
0000
0000
0000
,
0000
0000
0000
0000
,
1001
0000
0000
0000
,
0001
0000
0000
0000
,
0100
0000
0001
0000
,
0100
0000
0000
0000
,
1001
0000
0000
0000
,
1000
0000
0100
0000
,
0000
0000
0100
0000
,
0010
0000
0001
0000
,
0000
0000
1000
0000
,
0001
0000
0100
0000
,
0010
0000
0100
0000
,
0000
0000
0100
0000
,
0000
0000
0010
0000
,
0010
0000
1000
0000
,
1000
0000
0001
0000
,
0001
0000
1001
0000
,
0000
0000
1000
0000
,
0100
0000
1000
0000
,
0001
0000
0100
0000
,
0001
0000
1000
0000
,
0000
0000
1001
0000
,
0000
0000
0110
0000
,
0000
0000
0001
0000
,
0010
0000
0100
0000
,
0010
0000
1001
0000
,
0000
0000
0100
0000
,
0000
0000
0010
0000
,
1000
0000
0001
0000
,
1000
0000
0100
0000
,
0000
0000
0010
0000
,
0100
0000
0010
0000
,
0001
0000
1000
0000
,
0001
0000
1001
0000
,
0000
0000
1000
0000
,
0010
0000
0100
0000
,
0001
0000
1000
0000
,
0001
0000
1001
0000
;
