#TITLE:BOOM BOOM PIRATES;
#SUBTITLE:;
#ARTIST:パイレーツ・オブ・サガミワン;
#TITLETRANSLIT:;
#SUBTITLETRANSLIT:;
#ARTISTTRANSLIT:Sagami 1 Pirates;
#CREDIT:;
#BANNER:;
#BACKGROUND:;
#LYRICSPATH:;
#CDTITLE:;
#MUSIC:BOOM BOOM PIRATES.mp3;
#OFFSET:-6.420;
#SAMPLESTART:65.200;
#SAMPLELENGTH:12.800;
#SELECTABLE:YES;
#BPMS:0.000=150.000;
#STOPS:143.000=1.200
;
#BGCHANGES:;

//---------------dance-single - ----------------
#NOTES:
     dance-single:
     :
     Hard:
     7:
     0.517,0.509,0.204,0.139,0.056: // measure 1
0010
0000
1000
0000
0100
0000
0010
0200
,  // measure 2
0000
0001
0010
1300
,  // measure 3
0001
0000
0100
0001
0000
0001
1000
0000
,  // measure 4
0010
1000
0000
1000
0001
0000
1001
0000
,  // measure 5
1000
0100
0010
0000
0001
0000
1000
0010
,  // measure 6
0100
0000
0001
0000
1000
0001
0100
0010
,  // measure 7
0100
0001
1000
0000
0010
0000
0100
0001
,  // measure 8
1000
0000
0010
1000
0100
0010
0001
0100
,  // measure 9
0001
0100
0010
0000
1000
0000
0001
0100
,  // measure 10
0010
0000
1000
0000
0001
1000
0100
1000
,  // measure 11
0001
0010
0100
0000
1000
0000
0001
0010
,  // measure 12
0000
0010
0001
1000
0100
1000
0001
0100
,  // measure 13
0020
0000
0100
0000
1000
0000
0130
0010
,  // measure 14
2000
0000
0010
0000
0001
0000
3010
1000
,  // measure 15
0002
0000
0010
0000
1000
0000
0103
0001
,  // measure 16
1000
0000
0100
0000
0010
0100
0110
0000
,  // measure 17
0012
0000
0100
0000
0010
0000
1003
0001
,  // measure 18
0200
0000
0010
0000
1000
0000
0310
1000
,  // measure 19
0200
0000
0001
0000
0010
0000
1300
0100
,  // measure 20
0010
0000
0110
0000
0100
0010
0001
0000
,  // measure 21
1000
0100
1000
0001
0100
0001
0000
0000
,  // measure 22
1000
0010
1000
0001
0010
0001
0000
0000
,  // measure 23
1100
0000
0101
0000
0001
1000
0010
0100
,  // measure 24
0001
0000
1000
0000
0100
0010
0100
1000
,  // measure 25
1001
0000
0001
0000
0100
0010
0100
0010
,  // measure 26
1000
0000
0001
0000
1000
0100
0010
0001
,  // measure 27
0010
0000
0100
0000
1000
1000
1000
0000
,  // measure 28
0001
0000
0100
0000
0010
0010
0010
0000
,  // measure 29
1001
0100
0001
0010
,  // measure 30
0001
0010
0100
1000
0000
1000
0010
0000
,  // measure 31
0100
0000
0010
0000
1000
0000
0001
0010
,  // measure 32
0000
0010
0001
0000
0100
0010
1000
0100
,  // measure 33
0020
0000
0130
0000
0001
0100
0010
1000
,  // measure 34
0002
0000
0103
0000
0001
1000
0001
0000
,  // measure 35
1000
0100
1000
0000
0000
0000
0001
0100
0001
0000
0000
0000
,  // measure 36
1000
0001
1000
0001
1000
0001
0200
0000
0000
0300
0000
0000
,  // measure 37
1001
0000
0001
0000
0010
0000
0001
0100
,  // measure 38
0000
0100
0001
0000
1000
0100
0010
0000
,  // measure 39
1002
0000
0103
0010
2000
0000
3100
0010
,  // measure 40
0100
1000
0001
0100
0010
0100
0100
0000
,  // measure 41
1010
0000
0101
0000
0011
0000
1000
0100
,  // measure 42
0001
0100
1000
1001
,  // measure 43
0011
0000
0001
0100
0000
0100
1000
0000
,  // measure 44
1000
0010
0000
0010
0001
0000
1100
0000
,  // measure 45
1000
0010
1000
0001
0100
0000
0010
1000
,  // measure 46
0000
1000
0100
0000
0001
0000
0100
0000
,  // measure 47
2000
0000
3010
0100
0002
0000
0013
0100
,  // measure 48
0010
0001
1000
0010
0100
0001
0001
0000
,  // measure 49
1000
0010
0100
1000
0100
0010
1000
0001
,  // measure 50
0000
0010
0001
0000
1100
0000
1001
0000
,  // measure 51
0101
0000
0001
0010
0000
0010
1000
0000
,  // measure 52
1000
0100
0000
0100
0001
1000
1001
0000
,  // measure 53
0001
0100
0001
0100
0010
1000
1000
0000
,  // measure 54
1000
0100
1000
0100
0010
0001
0001
0000
,  // measure 55
0001
0100
0010
1000
0100
0010
0010
0000
,  // measure 56
0002
0000
1000
1000
1003
0000
0110
0000
,  // measure 57
1010
0000
1000
0100
0010
0001
0001
0000
,  // measure 58
0001
0100
0001
0100
0010
1000
1000
0000
,  // measure 59
0100
1000
0010
0100
0001
0010
0010
0000
,  // measure 60
0001
0100
0010
0100
0001
0010
0100
0010
,  // measure 61
0001
1000
0000
0001
1000
0000
0001
1000
0000
0001
1000
0000
0001
0000
1000
0000
,  // measure 62
0100
0100
0000
0000
0000
0000
0000
0000
;

//---------------dance-single - ----------------
#NOTES:
     dance-single:
     :
     Medium:
     6:
     0.447,0.509,0.157,0.204,0.009: // measure 1
1000
0000
0001
0000
1000
0000
0001
0200
,  // measure 2
0000
0010
0001
0310
,  // measure 3
0100
0000
0001
1000
0000
0001
1000
0000
,  // measure 4
0100
0010
0000
0100
0010
0000
0100
0000
,  // measure 5
1001
0000
0010
0000
0100
0000
0001
0010
,  // measure 6
0100
0000
0010
0000
0001
0000
1000
0010
,  // measure 7
0100
0000
0001
0000
1000
0000
0100
1000
,  // measure 8
0001
0000
0100
0000
0010
0100
0001
0000
,  // measure 9
1000
0100
0010
0000
0100
0000
0010
0001
,  // measure 10
1000
0000
0001
0000
0100
0000
0010
1000
,  // measure 11
0010
1000
0010
0000
0100
0000
0001
1000
,  // measure 12
0000
1000
0100
0000
0010
0000
0100
0010
,  // measure 13
0002
0010
1000
0103
,  // measure 14
2000
0010
0001
3100
,  // measure 15
0020
1000
0100
1030
,  // measure 16
0100
0000
0010
0000
0100
0010
1000
0000
,  // measure 17
2001
0010
0001
3010
,  // measure 18
1002
0010
1000
0103
,  // measure 19
0120
0100
0001
0130
,  // measure 20
1001
0100
1010
0100
,  // measure 21
0001
1000
0001
0100
0001
0100
0000
0000
,  // measure 22
1000
0001
1000
0100
1000
0100
0000
0000
,  // measure 23
1000
0000
0001
0000
0100
0001
0100
0000
,  // measure 24
0001
0000
1000
0000
0100
0010
0001
0000
,  // measure 25
1001
0000
1000
0000
0010
0000
0100
0010
,  // measure 26
1000
0000
0001
0000
0010
0001
1000
0001
,  // measure 27
0100
0000
0001
0000
0100
0100
0100
0000
,  // measure 28
0010
0000
1000
0000
0001
1000
0001
0000
,  // measure 29
1001
0000
1000
0000
0100
0000
1000
0100
,  // measure 30
0000
0100
1000
0000
0001
0000
0100
0010
,  // measure 31
0100
0000
0010
0000
1000
0000
0001
0010
,  // measure 32
0000
0001
0010
0000
0001
1000
0001
0000
,  // measure 33
1100
0000
0010
0000
0001
0000
0100
0010
,  // measure 34
1000
0000
0001
0000
0010
0001
0100
0000
,  // measure 35
0202
0303
2200
3300
,  // measure 36
0101
1100
2002
3003
,  // measure 37
1001
0000
0001
0000
0100
0000
0001
0100
,  // measure 38
0000
0100
0010
0000
1000
0000
0100
0000
,  // measure 39
2000
0000
3000
0001
0002
0000
0103
0000
,  // measure 40
0001
0000
0010
0000
0100
0100
0100
0000
,  // measure 41
0010
0000
0001
0000
1000
0000
0001
1000
,  // measure 42
0000
0001
1000
0000
0001
0000
0100
0000
,  // measure 43
0010
0000
1000
0001
0000
1000
0001
0000
,  // measure 44
0010
0001
0000
0010
0001
0000
1100
0000
,  // measure 45
1001
0000
0001
0000
0100
0000
0010
1000
,  // measure 46
0000
0001
0100
0000
0001
0000
1000
0000
,  // measure 47
0200
0000
0300
0010
0020
0000
0031
0000
,  // measure 48
1000
0000
0001
0000
0100
0100
0100
0000
,  // measure 49
0010
0000
1000
0000
0001
0000
1000
0100
,  // measure 50
0000
0100
1000
0000
0001
0010
0001
0000
,  // measure 51
1000
0000
1000
0100
0000
0100
0010
0000
,  // measure 52
0010
0001
0000
0001
1000
0001
1000
0000
,  // measure 53
0001
0100
0020
0000
1030
0000
0100
1000
,  // measure 54
0100
0000
0010
0000
0001
1000
0001
0000
,  // measure 55
1000
0100
0020
0000
0130
0000
0010
0001
,  // measure 56
1000
0000
0001
0000
0100
0100
0100
0000
,  // measure 57
0010
1000
0002
0000
0013
0000
0001
1000
,  // measure 58
0200
0000
1300
0000
0100
0010
0001
0000
,  // measure 59
0010
0001
0200
0000
0310
0000
1000
0001
,  // measure 60
0000
0001
0100
0000
0010
1000
0001
0000
,  // measure 61
1000
0000
0000
0001
0000
0000
1000
0000
0000
0001
0000
0000
1000
0000
0001
0000
,  // measure 62
0100
0100
0000
0000
0000
0000
0000
0000
;

//---------------dance-single - ----------------
#NOTES:
     dance-single:
     :
     Easy:
     4:
     0.311,0.480,0.204,0.167,0.000: // measure 1
1000
0100
1000
0100
,  // measure 2
0010
0000
0001
1000
,  // measure 3
0001
0000
0000
0100
0000
0000
0001
0000
,  // measure 4
0000
1000
0000
0000
0100
0000
0010
0000
,  // measure 5
0110
0000
0010
0001
,  // measure 6
0100
0010
0100
0001
,  // measure 7
1000
0000
0001
0100
,  // measure 8
0010
1000
0100
0100
,  // measure 9
0100
0000
0010
0001
,  // measure 10
1000
0001
0100
0010
,  // measure 11
1000
0000
0100
1000
,  // measure 12
0100
0001
0100
1000
,  // measure 13
1001
0000
0001
0100
,  // measure 14
0101
0000
1000
0010
,  // measure 15
1010
0000
0001
0010
,  // measure 16
0001
1000
0100
0010
,  // measure 17
0110
0000
0100
0010
,  // measure 18
1001
0000
0010
0100
,  // measure 19
1001
0000
0010
1000
,  // measure 20
0002
0010
1000
0103
,  // measure 21
1001
0000
1000
0000
,  // measure 22
0100
0000
1000
0000
,  // measure 23
0001
0000
0100
0001
,  // measure 24
0100
0000
0010
1000
,  // measure 25
0001
0010
0100
0010
,  // measure 26
0001
0100
0010
0100
,  // measure 27
0001
1000
0200
0300
,  // measure 28
1000
0001
2000
3000
,  // measure 29
0220
0330
0010
1000
,  // measure 30
0100
0000
1000
0100
,  // measure 31
0010
0100
0010
0001
,  // measure 32
1000
0000
0001
0100
,  // measure 33
0001
0000
1000
0010
,  // measure 34
1000
0000
0001
1000
,  // measure 35
2002
3003
0220
0330
,  // measure 36
1001
0110
2002
3003
,  // measure 37
1000
0100
1000
0000
,  // measure 38
0001
0100
0001
0001
,  // measure 39
2000
0000
0010
0000
,  // measure 40
0002
0000
3003
0000
0100
0100
0100
0000
,  // measure 41
0010
0010
1000
0100
,  // measure 42
0010
0100
1000
0000
,  // measure 43
0001
0000
0000
0100
0000
0000
0001
0000
,  // measure 44
0000
0100
0000
0000
0001
0000
0100
0000
,  // measure 45
0001
1000
0100
0010
,  // measure 46
0200
0000
0310
0001
,  // measure 47
0200
0000
0001
0000
,  // measure 48
0020
0000
0330
0000
0100
0100
0100
0000
,  // measure 49
0010
1000
0001
0010
,  // measure 50
0100
0000
0010
0010
,  // measure 51
0001
0000
0000
1000
0000
0000
0001
0000
,  // measure 52
0000
1000
0000
0000
0100
0000
1000
0000
,  // measure 53
1001
0000
0001
0100
,  // measure 54
0110
0000
0010
1000
,  // measure 55
1001
0000
1000
0100
,  // measure 56
0010
0001
0100
0010
,  // measure 57
0110
0000
0010
1000
,  // measure 58
1001
0000
0001
0010
,  // measure 59
0110
0000
0100
0010
,  // measure 60
0001
1000
0001
0100
,  // measure 61
2002
0000
0000
3003
,  // measure 62
0110
0000
0000
0000
;

//---------------dance-single - ----------------
#NOTES:
     dance-single:
     :
     Beginner:
     1:
     0.152,0.226,0.185,0.000,0.000: // measure 1
0001
0000
1000
0000
,  // measure 2
0100
0000
1000
0000
,  // measure 3
1001
0000
0000
0000
,  // measure 4
0000
0000
0000
0000
,  // measure 5
0001
0000
0000
0000
,  // measure 6
0100
0000
0000
0000
,  // measure 7
0001
0000
0100
0000
,  // measure 8
0001
0000
1000
0000
,  // measure 9
0100
0000
0000
0000
,  // measure 10
1000
0000
0000
0000
,  // measure 11
0100
0000
1000
0000
,  // measure 12
0001
0000
1000
0000
,  // measure 13
1001
0000
0000
0000
,  // measure 14
1001
0000
0000
0000
,  // measure 15
0110
0000
0000
0000
,  // measure 16
0110
0000
0000
0000
,  // measure 17
1001
0000
0000
0000
,  // measure 18
0110
0000
0000
0000
,  // measure 19
1001
0000
0000
0000
,  // measure 20
0110
0000
0110
0000
,  // measure 21
0110
0000
0000
0000
,  // measure 22
1000
0000
0000
0000
,  // measure 23
0100
0000
1000
0000
,  // measure 24
0001
0000
0010
0000
,  // measure 25
0100
0000
0000
0000
,  // measure 26
0010
0000
0000
0000
,  // measure 27
0001
0000
0100
0000
,  // measure 28
0001
0000
1000
0000
,  // measure 29
0100
0000
0100
0000
,  // measure 30
0010
0000
0010
0000
,  // measure 31
0100
0000
0010
0000
,  // measure 32
0001
0000
1000
0000
,  // measure 33
0001
0000
0000
0000
,  // measure 34
0100
0000
0000
0000
,  // measure 35
1001
0000
1001
0000
,  // measure 36
1001
0000
0000
0000
,  // measure 37
0001
0000
0100
0000
,  // measure 38
0001
0000
0100
0000
,  // measure 39
0001
0000
0000
0000
,  // measure 40
1001
0000
0000
0000
,  // measure 41
1000
0000
0100
0000
,  // measure 42
1000
0000
0100
0000
,  // measure 43
0110
0000
0000
0000
,  // measure 44
0100
0000
0000
0000
,  // measure 45
0110
0000
0010
0000
,  // measure 46
0001
0000
1000
0000
,  // measure 47
0001
0000
0000
0000
,  // measure 48
0100
0000
0000
0000
,  // measure 49
0001
0000
0100
0000
,  // measure 50
0010
0000
1000
0000
,  // measure 51
1001
0000
0000
0000
,  // measure 52
0001
0000
0000
0000
,  // measure 53
1001
0000
0000
1000
,  // measure 54
1000
0000
0000
0100
,  // measure 55
0100
0000
0000
1000
,  // measure 56
1000
0000
0000
0001
,  // measure 57
0001
0000
0000
0100
,  // measure 58
0100
0000
0000
0010
,  // measure 59
0010
0000
0000
1000
,  // measure 60
1000
1000
1000
1000
,  // measure 61
1000
0000
0000
0000
,  // measure 62
1001
0000
0000
0000
;
