#TITLE:Arcanos;
#SUBTITLE:;
#ARTIST:DJ Tottoriot;
#TITLETRANSLIT:;
#SUBTITLETRANSLIT:;
#ARTISTTRANSLIT:;
#CREDIT:;
#BANNER:;
#BACKGROUND:;
#LYRICSPATH:;
#CDTITLE:;
#MUSIC:Arcanos.mp3;
#OFFSET:-0.020;
#SAMPLESTART:77.830;
#SAMPLELENGTH:15.000;
#SELECTABLE:YES;
#BPMS:0.000=192.000,195.000=96.000,219.000=192.000;
#STOPS:195.000=1.563
,219.000=0.313
;
#BGCHANGES:;

//---------------dance-single - ----------------
#NOTES:
     dance-single:
     :
     Hard:
     8:
     0.593,0.852,0.422,0.270,0.081: // measure 1
0000
0000
0000
0000
,  // measure 2
0000
0000
0000
0000
,  // measure 3
0000
0000
0000
0000
,  // measure 4
0000
0000
0000
0000
,  // measure 5
0000
0000
0000
0000
,  // measure 6
0000
0000
0000
0000
,  // measure 7
0000
0000
0000
0000
,  // measure 8
1002
0000
0000
0013
,  // measure 9
0100
1000
0010
0000
0100
0000
0010
0100
,  // measure 10
0001
0100
0001
0000
1000
0000
0110
0000
,  // measure 11
1001
0000
0000
0100
0000
1000
0100
0000
,  // measure 12
1000
0000
0001
0000
0100
0000
0010
1000
,  // measure 13
0010
1000
0100
0010
0001
0000
0101
0000
,  // measure 14
2002
0000
3003
0000
1000
0000
0100
1000
,  // measure 15
0100
0000
1000
1000
0002
0000
0003
0000
,  // measure 16
0100
0010
0100
0101
,  // measure 17
2002
0000
3003
0000
0001
1000
0010
0100
,  // measure 18
0100
0000
0001
0010
0001
0000
0001
1000
,  // measure 19
0000
1000
0100
0000
0010
0000
1001
0000
,  // measure 20
0220
0000
0330
0000
0010
0000
0100
0001
,  // measure 21
1000
0000
0001
0010
0020
0000
0130
0000
,  // measure 22
0010
0000
0011
0000
0001
1000
0001
1000
,  // measure 23
0020
0030
0100
1001
,  // measure 24
0010
1000
0001
1000
0100
0000
0010
0001
,  // measure 25
0100
0010
0100
0000
0010
0000
1010
0000
,  // measure 26
1002
0000
0000
0103
0000
0001
0100
0000
,  // measure 27
0010
0000
0100
0001
2000
0000
0000
3100
,  // measure 28
0000
0100
1000
0000
0010
0100
0001
0100
,  // measure 29
0002
0000
0000
1003
0000
1000
0100
0010
,  // measure 30
0001
0000
1000
0001
0200
0000
0000
0301
,  // measure 31
0000
0010
0100
0002
1003
0000
1001
0000
,  // measure 32
0101
0000
0010
1000
0010
1000
0001
0000
,  // measure 33
0100
0000
1001
0000
0010
0000
0001
0100
,  // measure 34
1000
0100
0010
0000
1000
0100
0010
0001
,  // measure 35
1000
0000
0001
0100
0010
1000
0001
0000
,  // measure 36
0101
0000
1001
0000
2100
0000
0000
3001
,  // measure 37
0000
1000
0100
0010
0001
0100
0010
0000
,  // measure 38
1000
0001
0000
0100
0010
0000
1001
0000
,  // measure 39
0001
0100
0010
1000
0001
0100
0000
0010
,  // measure 40
1000
0000
0000
0000
1001
0000
0000
1000
0000
0000
0100
0000
0001
0000
0100
0000
,  // measure 41
1000
0001
0000
0100
0001
0000
0101
0000
,  // measure 42
0010
1000
0001
0010
0001
0100
0000
0100
,  // measure 43
0010
2001
0010
3001
,  // measure 44
1000
0100
1000
0100
0010
0001
0200
0000
,  // measure 45
0010
0000
0301
0000
0001
0100
0010
1000
,  // measure 46
0001
0100
0002
0000
0010
0000
1003
0000
,  // measure 47
1000
0100
1000
0001
0100
0001
2000
0000
,  // measure 48
0010
0000
3001
0000
1000
0100
0010
0100
,  // measure 49
0010
0001
1001
0000
0110
0000
2002
3003
,  // measure 50
1001
0000
0000
0001
0100
0000
0020
0000
0000
0000
1030
0000
0002
0000
0000
0000
,  // measure 51
0013
0100
0010
0000
0001
0000
1000
0010
0100
0000
0010
0100
0010
0100
0001
0000
,  // measure 52
1000
0000
0100
0000
0010
0000
0100
0010
0001
1000
0001
0000
1000
0000
0100
0000
,  // measure 53
1100
0000
0000
1000
0001
0000
0201
0000
0000
0000
0310
0000
2010
0000
0000
0000
,  // measure 54
3001
0010
0001
0000
0010
0000
0001
0100
0010
0000
0000
1010
0000
1000
0001
0000
,  // measure 55
0010
0001
1000
0000
0001
0100
0010
1000
0100
0010
0001
0000
2002
3003
0000
0000
,  // measure 56
0101
0000
0010
0100
0001
1000
0001
0000
,  // measure 57
1000
0000
0011
0000
1100
0000
1000
0010
,  // measure 58
0100
0101
1010
1001
,  // measure 59
1000
0100
0010
0100
1000
0100
0010
0001
,  // measure 60
0010
0100
0010
0001
1000
0000
0001
0100
,  // measure 61
0010
0000
0100
0010
0100
0010
1000
0001
,  // measure 62
1000
0000
0001
0100
0001
0100
0010
0000
,  // measure 63
1000
0000
0011
0000
1100
0000
1000
0100
,  // measure 64
0001
0100
1000
0000
0010
0000
0101
0000
,  // measure 65
1001
0000
0001
0010
0100
0010
0001
0000
,  // measure 66
1000
0010
0001
0010
1000
0000
0001
0100
,  // measure 67
0010
1000
0100
0010
0100
0001
0100
1000
,  // measure 68
0100
0100
0000
0010
0010
0000
1001
0000
,  // measure 69
0110
0000
1001
0000
0010
0010
0000
0100
,  // measure 70
0100
0000
0000
0000
1001
0000
0000
0001
0000
0000
1000
0000
0100
0000
0010
0000
,  // measure 71
0001
1000
0000
0001
1000
0000
0110
0000
,  // measure 72
0010
1000
0100
0010
0001
0100
0000
0100
,  // measure 73
1000
0000
1000
0100
0001
1000
0100
0010
,  // measure 74
0200
0000
0000
0000
,  // measure 75
0000
0000
0000
0000
,  // measure 76
0000
0000
0000
0000
,  // measure 77
0020
0000
0000
0000
,  // measure 78
0000
0000
0000
0000
,  // measure 79
0000
0000
0000
0000
,  // measure 80
0330
0000
0000
0000
;

//---------------dance-single - ----------------
#NOTES:
     dance-single:
     :
     Medium:
     6:
     0.463,0.568,0.270,0.368,0.004: // measure 1
0000
0000
0000
0000
,  // measure 2
0000
0000
0000
0000
,  // measure 3
0000
0000
0000
0000
,  // measure 4
0000
0000
0000
0000
,  // measure 5
0000
0000
0000
0000
,  // measure 6
0000
0000
0000
0000
,  // measure 7
0000
0000
0000
0000
,  // measure 8
1001
0000
0000
0200
,  // measure 9
0000
0000
0310
0000
0100
0000
0010
0001
,  // measure 10
0010
0001
1000
0001
,  // measure 11
0200
0000
0000
0310
0000
0000
0100
0000
,  // measure 12
0010
0000
1000
0000
0001
0000
1000
0100
,  // measure 13
1000
0001
0010
0110
,  // measure 14
2002
3003
0001
0100
,  // measure 15
0000
0000
0010
0000
0100
0000
0001
1000
,  // measure 16
0001
1000
0100
0010
,  // measure 17
0200
0000
0300
0000
0010
0000
0001
1000
,  // measure 18
0001
0000
1000
0000
0010
0000
0000
0100
,  // measure 19
0000
0001
1000
0001
,  // measure 20
2002
3003
1000
0100
,  // measure 21
0000
0000
0100
0000
1000
0000
0001
1000
,  // measure 22
0001
0100
0010
0100
,  // measure 23
2002
3003
0010
0202
,  // measure 24
0303
0000
0010
0000
1100
0000
1000
0001
,  // measure 25
0010
0002
1000
1003
,  // measure 26
0120
0000
0000
0130
0000
0000
0010
0000
,  // measure 27
1000
0000
0001
0000
2000
0000
0000
3100
,  // measure 28
0000
1000
0100
0010
,  // measure 29
0002
0000
0000
0103
0000
0000
0001
0000
,  // measure 30
0100
0000
0010
0000
2000
0000
0000
3001
,  // measure 31
0000
1000
0001
0000
0010
0000
0100
0000
,  // measure 32
0120
0000
0000
0031
0000
0001
1000
0000
,  // measure 33
0010
0000
0100
0000
0020
0000
0000
0130
,  // measure 34
0000
0010
1000
0000
0010
0000
1000
0000
,  // measure 35
0002
0000
0000
1003
0000
0100
1000
0000
,  // measure 36
0100
0010
2001
0000
,  // measure 37
3100
0000
1000
0001
1000
0000
0010
0000
,  // measure 38
0100
0010
0000
0100
0010
0000
0220
0000
,  // measure 39
0330
0000
0001
0000
1000
0001
0000
1000
,  // measure 40
0001
2002
3003
1000
,  // measure 41
0100
0010
0000
0010
0001
0000
1001
0000
,  // measure 42
1000
0000
0010
0000
0100
0010
0000
1000
,  // measure 43
0010
1010
0101
1001
,  // measure 44
0001
0100
0001
0100
0002
0000
0010
0000
,  // measure 45
1000
0000
0103
0000
1000
0010
1000
0010
,  // measure 46
2000
0010
0001
3100
,  // measure 47
1000
0100
0010
0001
0020
0000
0001
0000
,  // measure 48
0100
0000
0031
0000
0001
0100
0010
1000
,  // measure 49
0010
0000
0110
0000
1001
0000
0220
0330
,  // measure 50
0110
0000
0010
1000
0000
1000
0100
0000
,  // measure 51
0100
0010
0001
1000
0001
0000
1000
0010
,  // measure 52
0000
0100
0010
0000
1000
2000
0000
3000
,  // measure 53
1002
0000
0000
0203
0000
0000
0310
0100
,  // measure 54
0001
0000
2000
0000
0000
0000
0100
0000
3100
0000
0000
0010
0000
0000
0110
0000
,  // measure 55
0000
0000
0010
0000
0001
0000
1000
0000
0010
0000
0100
0000
0200
0300
0000
0000
,  // measure 56
1001
0000
0010
0000
0100
0010
0100
0000
,  // measure 57
0010
1000
0200
1000
,  // measure 58
1000
0020
0000
0330
,  // measure 59
0001
0100
0001
0000
1000
0000
0100
1000
,  // measure 60
0100
0000
1000
0000
0010
0100
0010
0000
,  // measure 61
0100
0001
1000
0100
,  // measure 62
0010
0000
0001
0000
0100
0010
1000
0000
,  // measure 63
0001
0011
1001
1000
,  // measure 64
0010
0100
0001
0000
0100
0000
0010
0000
,  // measure 65
2002
0000
3003
0000
0100
0010
0200
0000
,  // measure 66
0300
0000
0001
1000
0001
0000
1000
0000
,  // measure 67
0100
0010
0100
0010
0100
0010
0100
0000
,  // measure 68
0001
1000
0000
0001
1000
0000
1001
0000
,  // measure 69
0001
0100
0001
0000
0010
0100
0000
0010
,  // measure 70
0100
0000
0110
0000
0010
0001
1000
0000
,  // measure 71
0001
1000
0000
0010
0100
0000
1001
0000
,  // measure 72
0001
0010
0001
0000
1000
0100
0000
0010
,  // measure 73
0001
0000
1000
0001
1000
0000
0010
0000
,  // measure 74
0210
0000
0000
0000
,  // measure 75
0000
0000
0000
0000
,  // measure 76
0000
0000
0000
0000
,  // measure 77
0020
0000
0000
0000
,  // measure 78
0000
0000
0000
0000
,  // measure 79
0000
0000
0000
0000
,  // measure 80
0330
0000
0000
0000
;

//---------------dance-single - ----------------
#NOTES:
     dance-single:
     :
     Easy:
     4:
     0.303,0.461,0.243,0.198,0.000: // measure 1
0000
0000
0000
0000
,  // measure 2
0000
0000
0000
0000
,  // measure 3
0000
0000
0000
0000
,  // measure 4
0000
0000
0000
0000
,  // measure 5
0000
0000
0000
0000
,  // measure 6
0000
0000
0000
0000
,  // measure 7
0000
0000
0000
0000
,  // measure 8
1001
0000
0000
0100
,  // measure 9
0000
0010
0100
0000
,  // measure 10
0010
1000
0100
0010
,  // measure 11
0001
0000
0010
0001
,  // measure 12
0000
0001
1000
0000
,  // measure 13
0000
1001
0000
0000
,  // measure 14
0200
0000
0000
0310
,  // measure 15
0000
0010
1000
0000
,  // measure 16
0000
0001
1000
0001
,  // measure 17
2000
0000
0000
3100
,  // measure 18
0000
0100
1000
0000
,  // measure 19
0000
0001
0100
0001
,  // measure 20
0200
0000
0000
0310
,  // measure 21
0000
0010
1000
0000
,  // measure 22
1000
0100
0010
0001
,  // measure 23
0010
0000
0000
1001
,  // measure 24
0000
0000
0100
0010
,  // measure 25
0100
0010
0000
0100
,  // measure 26
0110
0000
0000
0010
,  // measure 27
0000
1000
0001
0000
,  // measure 28
0000
0010
0000
0001
,  // measure 29
1000
0000
0000
0010
,  // measure 30
0000
0010
0100
0000
,  // measure 31
0100
0010
1000
0001
,  // measure 32
1001
0000
0000
1000
,  // measure 33
0000
0100
1000
0000
,  // measure 34
0100
0010
0001
0010
,  // measure 35
0001
0000
1000
0010
,  // measure 36
0000
0010
0100
0001
,  // measure 37
1000
0100
0010
0001
,  // measure 38
1001
0000
0000
1001
0000
0000
2002
0000
,  // measure 39
3003
0000
0000
0000
0110
0000
0000
0110
,  // measure 40
0000
0220
0330
0000
,  // measure 41
1001
0000
0000
1001
0000
0000
0220
0000
,  // measure 42
0330
0000
0000
0000
0110
0000
0000
0110
,  // measure 43
0000
1001
0100
0010
,  // measure 44
1001
0001
0100
0010
,  // measure 45
0100
0001
1000
0100
,  // measure 46
0010
0100
1000
0100
,  // measure 47
0010
0001
0100
0010
,  // measure 48
1000
0100
0010
0001
,  // measure 49
1000
0000
1001
0000
1001
0000
2002
3003
,  // measure 50
1001
0000
0000
0001
0000
0000
1000
0000
,  // measure 51
0000
0100
0000
0000
0010
0000
0000
0100
,  // measure 52
0000
0000
1000
0000
0000
0001
0000
0000
,  // measure 53
1001
0000
0000
1000
0000
0000
0010
0000
,  // measure 54
0000
0100
0000
0000
0010
0000
0000
1000
,  // measure 55
0000
0000
0001
0000
0000
0100
0200
0300
,  // measure 56
0110
0000
0010
1000
,  // measure 57
0100
0010
0001
0000
,  // measure 58
0010
0001
1000
0001
,  // measure 59
0100
0001
0100
0000
,  // measure 60
0010
1000
0010
0000
,  // measure 61
1000
0100
0010
0001
,  // measure 62
0100
0010
0100
0000
,  // measure 63
0010
0100
0000
0010
,  // measure 64
1000
0001
0010
0001
,  // measure 65
2000
0000
3001
0002
,  // measure 66
0000
0103
0100
0010
,  // measure 67
0100
0001
1000
0001
,  // measure 68
1000
0000
0000
0001
0000
0000
2002
0000
,  // measure 69
0000
0000
3003
0000
0100
0000
0000
0010
,  // measure 70
0000
0220
0000
0330
,  // measure 71
0010
0000
0000
1000
0000
0000
2002
0000
,  // measure 72
0000
3003
1000
0100
,  // measure 73
0010
0001
0100
0010
,  // measure 74
2000
0000
0000
0000
,  // measure 75
0000
0000
0000
0000
,  // measure 76
0000
0000
0000
0000
,  // measure 77
0002
0000
0000
0000
,  // measure 78
0000
0000
0000
0000
,  // measure 79
0000
0000
0000
0000
,  // measure 80
3003
0000
0000
0000
;

//---------------dance-single - ----------------
#NOTES:
     dance-single:
     :
     Beginner:
     2:
     0.151,0.213,0.189,0.108,0.000: // measure 1
0000
0000
0000
0000
,  // measure 2
0000
0000
0000
0000
,  // measure 3
0000
0000
0000
0000
,  // measure 4
0000
0000
0000
0000
,  // measure 5
0000
0000
0000
0000
,  // measure 6
0000
0000
0000
0000
,  // measure 7
0000
0000
0000
0000
,  // measure 8
1000
0000
0000
0001
,  // measure 9
0000
0000
0100
0000
,  // measure 10
0000
0001
0000
0010
,  // measure 11
0010
0000
0000
0100
,  // measure 12
0000
0000
0010
0000
,  // measure 13
0000
0001
0000
0000
,  // measure 14
1001
0000
0000
0000
,  // measure 15
0000
0000
1000
0000
,  // measure 16
0000
0000
0000
0000
,  // measure 17
0010
0000
0000
0000
,  // measure 18
0000
0000
0100
0000
,  // measure 19
0000
0010
0000
0000
,  // measure 20
0110
0000
0000
0000
,  // measure 21
0000
0000
1000
0000
,  // measure 22
0000
0000
0000
0000
,  // measure 23
0001
0000
0000
0010
,  // measure 24
0000
0000
1000
0000
,  // measure 25
0000
0100
0000
0000
,  // measure 26
0110
0000
0000
1000
,  // measure 27
0000
0000
0001
0000
,  // measure 28
0000
0100
0000
0000
,  // measure 29
0010
0000
0000
0010
,  // measure 30
0000
0000
0100
0000
,  // measure 31
0000
0100
0000
0000
,  // measure 32
1001
0000
0000
1000
,  // measure 33
0000
0000
0100
0000
,  // measure 34
0000
0010
0000
0000
,  // measure 35
1001
0000
0000
0110
,  // measure 36
0000
0000
2002
0000
,  // measure 37
0000
3003
0000
0000
,  // measure 38
1000
0000
0000
1000
,  // measure 39
0000
0000
0001
0000
,  // measure 40
0000
0001
0000
0000
,  // measure 41
0100
0000
0000
0010
,  // measure 42
0000
0000
0100
0000
,  // measure 43
0000
0010
0010
0010
,  // measure 44
0010
0000
0000
0100
,  // measure 45
0000
0000
0001
0000
,  // measure 46
0000
0010
0000
0000
,  // measure 47
0100
0000
0000
0010
,  // measure 48
0000
0000
0001
0000
,  // measure 49
0000
1000
1000
1000
,  // measure 50
1001
0000
0000
0100
,  // measure 51
0000
0000
0010
0000
,  // measure 52
0000
0100
0000
0000
,  // measure 53
1001
0000
0000
0001
,  // measure 54
0000
0000
0010
0000
,  // measure 55
0000
0001
0000
0000
,  // measure 56
1001
0000
0000
1000
,  // measure 57
0000
0000
0100
0000
,  // measure 58
0000
0010
0000
0000
,  // measure 59
0100
0000
0000
1000
,  // measure 60
0000
0000
0001
0000
,  // measure 61
0000
0100
0000
0000
,  // measure 62
0110
0000
0000
0100
,  // measure 63
0000
0000
0001
0000
,  // measure 64
0000
0010
0000
0000
,  // measure 65
0110
0000
0000
0110
,  // measure 66
0000
0000
1001
0000
,  // measure 67
0000
1001
0000
0000
,  // measure 68
0220
0000
0000
0330
,  // measure 69
0000
0000
2002
0000
,  // measure 70
0000
3003
0000
0000
,  // measure 71
0220
0000
0000
0330
,  // measure 72
0000
0000
2002
0000
,  // measure 73
0000
3003
0000
0000
,  // measure 74
1001
0000
0000
0000
,  // measure 75
0000
0000
0000
0000
,  // measure 76
0000
0000
0000
0000
,  // measure 77
0220
0000
0000
0000
,  // measure 78
0000
0000
0000
0000
,  // measure 79
0000
0000
0000
0000
,  // measure 80
0330
0000
0000
0000
;
