#TITLE:All Signs of Life;
#SUBTITLE:;
#ARTIST:Alison Moyet;
#TITLETRANSLIT:;
#SUBTITLETRANSLIT:;
#ARTISTTRANSLIT:;
#CREDIT:;
#BANNER:All Signs of Life.png;
#BACKGROUND:All Signs of Life-bg.PNG;
#LYRICSPATH:;
#CDTITLE:;
#MUSIC:All Signs of Life.mp3;
#OFFSET:-5.510;
#SAMPLESTART:49.130;
#SAMPLELENGTH:10.900;
#SELECTABLE:YES;
#BPMS:0.000=88.000,64.000=176.000,128.000=88.000,136.000=176.000;
#STOPS:;
#BGCHANGES:;

//---------------dance-single - ----------------
#NOTES:
     dance-single:
     :
     Hard:
     8:
     0.539,0.512,0.261,0.202,0.156: // measure 1
1000
0000
0000
1000
0002
0000
0000
0000
0000
0000
0103
0000
0001
0000
0010
0000
,  // measure 2
0100
0000
0000
0100
0020
0000
0000
0000
0000
0000
0031
0000
2000
0000
0000
0000
,  // measure 3
3001
0000
0000
0001
0200
0000
0000
0000
0000
0000
0310
0000
0100
0000
0001
0000
,  // measure 4
1000
0000
0100
1000
0020
0000
0000
0000
0030
1000
0001
0000
0010
0000
0100
0000
,  // measure 5
0010
0000
0000
0001
2000
0000
0000
0000
3010
0000
1000
0000
0100
0000
0010
0000
,  // measure 6
0001
0000
0000
0010
0001
0000
0100
0000
0010
1000
0010
0000
0100
0000
0001
0000
,  // measure 7
0010
0000
0000
0012
0000
0000
0000
0000
1003
0000
0001
0000
0100
0000
0010
0000
,  // measure 8
1000
0000
0010
0000
0100
0001
0101
0000
,  // measure 9
1000
0000
0110
0000
0001
0100
0010
1000
,  // measure 10
0100
0000
0000
0000
0011
0000
0000
0000
0001
1000
0001
0000
1000
0000
0100
0000
,  // measure 11
1000
0000
0000
0001
0100
0000
1000
0000
0100
0000
0010
0000
1000
0000
0001
0000
,  // measure 12
0010
0000
0000
0000
1100
0000
0000
0000
1000
0001
0100
0000
0020
0000
0000
0000
,  // measure 13
0130
0000
0000
0010
0000
1000
0000
0001
0100
0000
0001
0000
0010
0000
0000
0000
,  // measure 14
0001
0010
0000
0001
0000
1000
0000
0100
1000
0000
0001
0000
0101
0000
0100
0000
,  // measure 15
0010
1000
0000
0100
0000
0010
0000
0001
0010
0000
0100
0000
0010
0000
0000
0000
,  // measure 16
0001
0000
1000
0000
0000
0000
0001
0000
0000
0000
0100
0000
0000
0000
0010
0000
0200
0000
0000
0000
0000
0000
0000
0000
0020
0330
0000
0000
0000
0000
0000
0000
,  // measure 17
2002
0000
3003
1010
0000
0101
0000
0100
,  // measure 18
0001
0000
1000
0100
0010
0000
0100
0000
,  // measure 19
0010
0001
0000
0101
0000
1001
0000
1000
,  // measure 20
0010
0100
0001
0010
0100
0000
0010
0000
,  // measure 21
0001
1000
0001
0100
0000
0010
0100
0010
,  // measure 22
1000
0001
1000
0100
,  // measure 23
1000
0000
1001
0000
0101
0000
0010
1000
,  // measure 24
0100
2000
0000
3001
1000
0010
0100
0001
,  // measure 25
1000
0001
0000
0110
0000
0001
1000
0100
,  // measure 26
0010
0100
2000
3001
,  // measure 27
0100
0010
1000
0001
0000
0010
0001
0100
,  // measure 28
1000
0100
0001
0000
1000
0000
0100
1000
,  // measure 29
0001
0010
0000
0110
0000
0100
0010
0001
,  // measure 30
1000
0001
0101
1001
,  // measure 31
1000
0100
1000
0001
0100
0000
0010
0000
,  // measure 32
1010
0000
1000
0000
0100
0000
0000
0000
0010
0001
0010
0000
0001
0000
1000
0000
,  // measure 33
2002
0000
0000
0000
,  // measure 34
3003
0000
0000
0000
,  // measure 35
1000
0001
1000
0001
1000
0001
1000
0001
,  // measure 36
0100
0010
0100
0010
0100
0010
0100
0010
,  // measure 37
1000
0100
0010
0001
0100
0010
1000
0001
,  // measure 38
1000
0100
0000
0000
0010
0001
0000
0000
1000
0010
0000
0000
0101
0000
0000
0000
,  // measure 39
1000
0001
0010
0200
0000
0310
0100
1000
,  // measure 40
0001
0000
0100
0010
1000
0000
0101
0000
,  // measure 41
0001
1000
0001
0020
0000
0130
0010
0001
,  // measure 42
1000
0000
0010
0100
0001
1000
0100
0000
,  // measure 43
1000
0100
0010
0002
0000
0103
0001
1000
,  // measure 44
0100
0000
0010
0001
0100
0000
0101
0000
,  // measure 45
1000
0010
0100
0002
0000
0013
0001
1000
,  // measure 46
1100
0000
0000
0000
1001
0000
0000
0001
0100
0001
0200
0000
0000
0000
0310
0000
,  // measure 47
0010
1000
0100
2000
0000
3001
0010
0100
,  // measure 48
0010
0001
0100
0010
1000
0000
1010
0000
,  // measure 49
0010
0100
0001
0020
0000
0130
0010
0001
,  // measure 50
1000
0100
0001
0100
1000
0010
0100
0000
,  // measure 51
0001
1000
0010
1000
0000
1010
0000
0010
,  // measure 52
1000
0100
0010
0001
0100
0000
1010
0000
,  // measure 53
0001
0010
0100
0010
0000
0010
0001
0000
,  // measure 54
0001
0000
1000
0000
0000
0000
1000
0000
0001
0000
0000
0000
0100
0010
0100
0010
,  // measure 55
0100
0000
0001
0100
0001
1000
0100
0000
,  // measure 56
1000
0100
0010
0000
1100
0000
1001
0000
,  // measure 57
0001
0100
0010
0100
0000
0010
1000
0100
,  // measure 58
0010
0001
1000
0000
0001
0100
0101
0000
,  // measure 59
0010
1000
0100
0001
0100
0010
0001
0100
,  // measure 60
0010
1000
0010
0001
0010
0100
0001
0000
,  // measure 61
1000
0100
0100
0010
0100
0100
1000
0001
,  // measure 62
1001
0000
0000
0000
1000
0000
0010
0000
0100
0000
0001
0000
1000
0001
1000
0001
,  // measure 63
2000
0000
0000
0000
,  // measure 64
0000
0000
0000
0000
,  // measure 65
3000
0000
0000
0000
;

//---------------dance-single - ----------------
#NOTES:
     dance-single:
     :
     Medium:
     6:
     0.389,0.404,0.185,0.168,0.000: // measure 1
1000
0000
0101
0000
0001
0010
0001
0000
,  // measure 2
0010
0000
1100
0000
0010
0001
0100
0001
,  // measure 3
1000
0000
0001
0000
0100
0010
0100
0000
,  // measure 4
0002
0010
1000
0100
,  // measure 5
1003
0000
0010
0000
0100
0010
1000
0000
,  // measure 6
0001
0000
0010
0000
0100
0010
0001
0000
,  // measure 7
2000
0010
0001
0100
,  // measure 8
3002
0010
2000
3003
,  // measure 9
0010
0000
1001
0000
0100
0000
0010
0100
,  // measure 10
0010
1000
0100
0010
,  // measure 11
0001
0000
1001
0000
1000
0000
0001
0100
,  // measure 12
0010
0000
0100
0000
0001
1000
0200
0000
,  // measure 13
0310
0000
0110
0000
0001
1000
0001
1000
,  // measure 14
0010
0000
0100
0000
0001
0000
1000
0100
,  // measure 15
0020
0001
0100
0001
,  // measure 16
0032
0010
2000
3003
,  // measure 17
2001
0000
0000
0001
0000
0100
0000
0001
,  // measure 18
3001
0000
0100
0010
0100
0000
0010
0000
,  // measure 19
1000
0000
0001
0100
0000
0001
0000
0100
,  // measure 20
0001
1000
0100
0010
,  // measure 21
0002
0000
0000
1000
0000
0100
0000
1000
,  // measure 22
1003
0001
0100
0220
,  // measure 23
0330
0010
1000
0100
,  // measure 24
0010
0100
0010
0001
,  // measure 25
2002
0000
3003
0000
1000
0000
0001
1000
,  // measure 26
0001
0100
0010
1000
,  // measure 27
0100
0000
0000
1000
0001
0000
0100
0000
,  // measure 28
0010
0100
0001
0000
1000
0000
0100
0000
,  // measure 29
0011
0000
0000
0001
0100
0000
0010
1000
,  // measure 30
0010
1000
0100
0011
,  // measure 31
1000
0001
0000
0101
0000
1001
0000
1000
,  // measure 32
0100
0010
0001
0000
1000
0010
0100
0000
,  // measure 33
2002
0000
0000
0000
,  // measure 34
3003
0000
0000
0000
,  // measure 35
1000
0100
1000
0100
,  // measure 36
0010
0001
0010
0001
,  // measure 37
1000
0001
1000
0000
0001
1000
0001
0000
,  // measure 38
0100
0010
0100
0010
0100
0010
0100
0000
,  // measure 39
2002
0000
3003
0100
0000
0010
0000
0100
,  // measure 40
0010
1000
0001
0010
,  // measure 41
0100
0000
0000
0010
0000
0001
0000
1000
,  // measure 42
0100
1000
0001
0100
,  // measure 43
0010
0000
0000
1000
0000
0001
0000
1000
,  // measure 44
0100
0010
0001
1000
,  // measure 45
0001
0100
0000
0010
0000
0100
0000
0010
,  // measure 46
1000
0001
1000
0000
0001
0010
0001
0000
,  // measure 47
1000
0100
0000
0010
0000
0001
0000
0010
,  // measure 48
0001
0000
1000
0010
1000
0000
0001
0000
,  // measure 49
0100
0001
0000
1000
0000
0010
0000
0100
,  // measure 50
0001
0000
1000
0100
1000
0000
0001
0010
,  // measure 51
0100
0010
0000
0100
0000
0010
0000
0001
,  // measure 52
1000
0000
0001
0100
0001
0000
1001
0000
,  // measure 53
1000
0000
1000
0100
0000
0100
0010
0000
,  // measure 54
0010
0001
0000
0001
1000
0001
1000
0000
,  // measure 55
0001
0100
0000
0010
0000
1000
0010
1000
,  // measure 56
0001
0010
0001
1000
,  // measure 57
0001
1000
0000
0100
0000
0010
0001
0010
,  // measure 58
0001
0000
1000
0010
1000
0000
0001
0000
,  // measure 59
0100
0010
0000
1000
0000
0010
0100
0001
,  // measure 60
0100
0001
1000
0100
,  // measure 61
0011
0000
0000
0101
0000
0000
1010
0000
,  // measure 62
0000
0110
0000
0000
1001
0000
0110
0000
,  // measure 63
2002
0000
0000
0000
,  // measure 64
0000
0000
0000
0000
,  // measure 65
3003
0000
0000
0000
;

//---------------dance-single - ----------------
#NOTES:
     dance-single:
     :
     Easy:
     3:
     0.239,0.297,0.101,0.101,0.000: // measure 1
2002
3003
0001
0100
,  // measure 2
0001
0000
1000
0100
,  // measure 3
0010
0000
0100
0010
,  // measure 4
0100
0000
0010
0001
,  // measure 5
0100
0000
0010
1000
,  // measure 6
0001
1000
0100
0010
,  // measure 7
0002
0000
0010
0000
,  // measure 8
1000
0000
0200
0303
,  // measure 9
2002
3003
1000
0001
,  // measure 10
1000
0000
0010
0100
,  // measure 11
0001
0010
0100
1000
,  // measure 12
0001
1000
0100
0010
,  // measure 13
0001
0000
0001
0100
,  // measure 14
1000
0000
1000
0100
,  // measure 15
0002
0000
0023
0000
,  // measure 16
0200
0000
0330
0110
,  // measure 17
1001
0000
0000
0000
,  // measure 18
0001
0000
0100
0001
,  // measure 19
0100
0000
0010
0000
,  // measure 20
1000
0000
0001
0000
,  // measure 21
1001
0000
0000
0000
,  // measure 22
1000
0001
1000
0000
,  // measure 23
0001
0000
0100
0000
,  // measure 24
0010
1000
0010
1000
,  // measure 25
0001
0000
0010
0000
,  // measure 26
0100
0010
0100
0000
,  // measure 27
0010
0000
0001
0000
,  // measure 28
1000
0100
0010
0000
,  // measure 29
0001
0000
0100
0010
,  // measure 30
1000
0010
0100
0000
,  // measure 31
0001
0000
1000
0000
,  // measure 32
0001
1000
0001
1000
,  // measure 33
0200
0000
0000
0000
,  // measure 34
0300
0000
0000
0000
,  // measure 35
0010
0000
0010
0000
,  // measure 36
0100
0000
0100
0000
,  // measure 37
1000
0001
1000
0001
,  // measure 38
1000
0001
1000
1001
,  // measure 39
1001
0000
0001
0100
,  // measure 40
0001
1000
0001
0000
,  // measure 41
1000
0000
0001
0000
,  // measure 42
1000
0100
0010
0000
,  // measure 43
0100
0000
0010
0001
,  // measure 44
1000
0001
0100
0000
,  // measure 45
0010
0000
0000
0010
0000
0000
0100
0000
,  // measure 46
0000
0100
0000
0000
0110
0000
0000
0000
,  // measure 47
1001
0000
0001
1000
,  // measure 48
0100
0010
0001
0000
,  // measure 49
1000
0000
0001
0000
,  // measure 50
0100
0010
0100
0000
,  // measure 51
0010
1000
0001
1000
,  // measure 52
0001
0100
0001
0000
,  // measure 53
1000
0100
0010
0000
,  // measure 54
0001
0010
0100
0000
,  // measure 55
0010
0001
1000
0100
,  // measure 56
0010
0100
1000
0000
,  // measure 57
0001
0100
0010
1000
,  // measure 58
0001
0010
0100
0000
,  // measure 59
0010
0001
1000
0100
,  // measure 60
0001
0100
1000
0001
,  // measure 61
0100
0000
0000
0001
0000
0000
1000
0000
,  // measure 62
0000
0100
0000
0000
1001
0000
0110
0000
,  // measure 63
2002
0000
0000
0000
,  // measure 64
0000
0000
0000
0000
,  // measure 65
3003
0000
0000
0000
;

//---------------dance-single - ----------------
#NOTES:
     dance-single:
     :
     Beginner:
     1:
     0.118,0.157,0.084,0.000,0.000: // measure 1
1001
0000
0000
0000
,  // measure 2
0001
0000
0000
0000
,  // measure 3
1000
0000
0100
0000
,  // measure 4
1000
0000
0000
0000
,  // measure 5
0001
0000
0000
0000
,  // measure 6
0100
0000
0010
0000
,  // measure 7
0100
0000
0000
0000
,  // measure 8
0001
0000
0000
0000
,  // measure 9
1001
0000
1000
0000
,  // measure 10
0001
0000
0000
0000
,  // measure 11
0100
0000
0001
0000
,  // measure 12
1000
0000
0000
0000
,  // measure 13
0001
0000
0010
0000
,  // measure 14
0100
0000
0010
0000
,  // measure 15
0001
0000
0000
0000
,  // measure 16
1000
0000
0000
0000
,  // measure 17
1001
0000
0000
0000
,  // measure 18
0001
0000
1000
0000
,  // measure 19
0100
0000
0000
0000
,  // measure 20
0000
0000
0000
0000
,  // measure 21
0110
0000
0000
0000
,  // measure 22
0001
0000
1000
0000
,  // measure 23
0001
0000
0000
0000
,  // measure 24
0100
0000
0000
0000
,  // measure 25
0110
0000
0000
0000
,  // measure 26
0010
0000
1000
0000
,  // measure 27
0001
0000
0000
0000
,  // measure 28
1000
0000
0000
0000
,  // measure 29
0001
0000
0000
0000
,  // measure 30
0010
0000
0001
0000
,  // measure 31
0100
0000
0010
0000
,  // measure 32
1000
0000
0001
0000
,  // measure 33
1001
0000
0000
0000
,  // measure 34
0000
0000
0000
0000
,  // measure 35
1000
0000
0000
0000
,  // measure 36
1000
0000
0000
0000
,  // measure 37
0001
0000
1000
0000
,  // measure 38
0001
0000
0000
0000
,  // measure 39
1001
0000
0000
0000
,  // measure 40
0001
0000
0000
0000
,  // measure 41
0100
0000
0010
0000
,  // measure 42
1000
0000
0100
0000
,  // measure 43
0010
0000
0000
0000
,  // measure 44
0100
0000
0000
0000
,  // measure 45
0010
0000
0001
0000
,  // measure 46
1000
0000
0100
0000
,  // measure 47
1001
0000
0000
0000
,  // measure 48
1000
0000
0001
0000
,  // measure 49
0100
0000
0010
0000
,  // measure 50
0100
0000
0000
0000
,  // measure 51
0001
0000
0000
0000
,  // measure 52
1000
0000
0100
0000
,  // measure 53
0010
0000
0001
0000
,  // measure 54
1000
0000
0001
0000
,  // measure 55
0100
0000
0000
0000
,  // measure 56
0010
0000
0100
0000
,  // measure 57
0010
0000
1000
0000
,  // measure 58
0001
0000
0000
0000
,  // measure 59
1001
0000
0000
0000
,  // measure 60
1000
0000
0100
0000
,  // measure 61
1000
0000
0001
0000
,  // measure 62
0100
0000
0010
0000
,  // measure 63
1001
0000
0000
0000
;
