#TITLE:紫陽花;
#SUBTITLE:-AZISAI-;
#ARTIST:Camellia Vs. Expander;
#TITLETRANSLIT:AZISAI;
#SUBTITLETRANSLIT:;
#ARTISTTRANSLIT:;
#CREDIT:;
#BANNER:AZISAI.png;
#BACKGROUND:AZISAI-bg.png;
#LYRICSPATH:;
#CDTITLE:;
#MUSIC:AZISAI.mp3;
#OFFSET:-0.020;
#SAMPLESTART:66.600;
#SAMPLELENGTH:12.380;
#SELECTABLE:YES;
#BPMS:0.000=155.000;
#STOPS:;
#BGCHANGES:-5.000=AZISAI.avi=1.000=1=1=0,
312.000=AZISAI-bg.png=1.000=1=0=1,
99999=-nosongbg-=1.000=0=0=0 // don't automatically add -songbackground-
;

//---------------dance-single - ----------------
#NOTES:
     dance-single:
     :
     Hard:
     9:
     0.714,0.767,0.414,0.430,0.534:
0000
0000
0000
0000
,
0200
0000
0000
0000
,
1000
0000
0010
0000
,
0001
0000
0000
0020
0000
0000
0330
0000
,
2002
3003
0220
0330
,
2002
0000
0000
0000
,
0000
0000
0000
3003
,
1000
0100
0010
0001
1000
0001
2000
0002
,
3003
0000
0000
1001
,
0101
0000
0000
0001
0100
0000
0000
0100
0001
0000
0000
0001
1000
0000
1000
0000
,
0100
0000
0000
0010
0001
0000
0000
1000
0010
0000
0000
0100
0001
0000
1000
0000
,
0001
0000
0000
0001
0010
0000
0000
0100
1000
0000
0000
0001
1000
0000
0010
0000
,
0100
0000
0000
0001
1000
0000
0000
0100
1000
0100
1000
0100
0010
0000
0000
0000
,
0011
0000
0000
0001
0100
0000
0000
0100
0010
0000
1000
0000
1001
0000
0000
0000
,
1100
0000
0000
0000
0000
0000
0000
0000
0000
1000
0000
0000
0100
0000
0000
0000
0000
0000
0000
0000
0000
1000
0000
0000
0010
0000
0000
0000
0100
0000
0000
0000
0010
0000
0000
0000
1000
0000
0000
0000
0001
0000
0000
0000
0010
0000
0000
0000
,
0001
0000
0000
1000
0100
0000
0010
0000
0001
0000
0000
0001
0200
0000
0000
0000
,
0310
0000
0000
0100
0000
0000
0010
0000
1000
0001
0000
1000
0001
0000
1000
0100
,
1000
0000
0100
0000
0010
0000
0001
0000
0200
0000
0000
0000
0310
0000
1000
0001
,
1000
0001
0100
0010
0100
0001
0010
0010
,
0010
0000
0000
0001
0100
0000
0000
0100
0010
0000
0000
0010
1000
0000
0000
1000
,
0001
0000
0000
0001
1000
0000
0000
1000
0100
0000
0000
1100
0000
0000
1000
0001
,
1000
0000
0001
0000
0100
0000
0010
0000
2000
0000
0000
0000
3010
0000
0100
0001
,
0100
0001
0010
0100
0010
0001
1000
0100
,
1100
0000
0000
1000
0000
0001
0000
0100
0001
0000
0000
0001
0000
1000
0100
0000
,
1000
0000
0000
0100
0000
0010
0000
0002
2000
0000
0000
0000
3003
0000
0000
0000
,
0220
0000
0000
0000
0330
0000
0010
1000
0001
0000
0010
0000
0100
0000
0100
0000
,
0010
0001
0010
0000
0001
0000
1000
0001
1000
0000
0000
0000
0101
0000
0000
0000
,
2002
0000
0000
0000
3003
0000
0001
0100
0010
0000
1000
0000
0010
0000
1000
0000
,
1100
0000
0100
0000
0110
0000
0010
0000
0011
0000
0000
1001
0000
0000
0101
0000
,
0001
1000
0001
1000
0100
0000
0000
0000
1001
0000
0000
0001
0100
0000
0001
0000
,
1000
0100
1000
0000
0001
0000
0100
0001
1000
0000
0001
0000
0010
0000
0100
0000
,
0010
0000
0001
0000
1001
0000
0000
1000
0000
0000
0010
0000
0101
0000
0100
0000
,
2002
0000
0000
3003
,
0020
0000
0000
0000
0000
0000
1030
0100
,
0001
0000
0100
0000
1000
0100
1000
0000
0001
0100
0001
0000
0100
0000
0010
0000
,
2000
3200
0320
0032
,
1003
0000
0010
0000
0100
0010
0100
0000
0001
1000
0001
0000
0010
0000
0000
0000
,
0012
0000
0000
0010
0000
0000
0010
0000
0000
0013
0000
0000
0010
0000
0001
0000
,
2000
0000
0000
0100
0000
0000
0100
0000
0000
0100
0000
0000
3001
0000
1000
0000
,
1010
1100
0011
0101
,
0001
0100
1000
0100
0001
0010
1000
0010
,
0210
0000
0000
2300
0000
0000
3002
0000
,
0000
0000
0203
0000
0000
0000
0000
0000
0310
0000
0100
0000
0010
0100
0010
0200
,
0000
0000
0301
0000
0100
0001
0100
0000
0010
0000
0100
0001
0100
0000
0001
0000
,
1000
0100
0001
0100
1000
0001
0100
0200
,
0000
0000
0310
0000
1000
0100
1000
0000
0001
0000
1000
0010
1000
0000
0001
0000
,
1000
0100
0010
0100
1000
0001
0010
0100
,
0110
0000
0000
0000
0010
0000
0001
0010
0001
0000
0000
0000
1100
0000
1000
0001
,
1000
0001
0100
0020
0000
0130
1000
0100
,
0001
0010
1000
0010
0001
0010
1000
0010
,
0001
0000
0000
1000
0100
0000
0000
1000
0001
0000
0100
0000
0010
0100
0010
0100
,
0020
0000
0000
0000
0000
0000
0000
0000
0000
0000
0000
0000
0030
0000
1000
0100
,
0010
0000
0001
1000
0000
0001
0100
0000
0010
2000
0000
3000
0001
0010
0001
0010
,
0100
0000
0100
0000
1000
0001
1000
0000
0010
0000
0100
0001
0100
0000
0001
0100
,
0010
0100
1000
0100
0001
0010
0001
1000
,
0200
0000
0000
0000
0310
0000
0010
0001
1000
0000
0000
1010
0000
0001
0100
0001
,
0100
0000
0010
1000
0010
0000
2000
0000
0000
0000
3100
0000
1000
0000
0100
0000
,
0010
0000
0000
0011
0000
0000
0001
0000
0100
0000
0000
0101
0000
0000
0001
0000
,
2002
0000
0000
0000
0000
3003
1001
0000
,
0110
0000
0000
0000
1001
0000
0000
0000
0001
0100
0001
1000
0001
0000
0000
0000
,
1000
0100
0010
0000
0001
0000
1000
0000
1100
0000
0010
0000
0101
0000
0000
0000
,
0100
0010
1000
0000
0001
0000
0010
0000
0100
0000
0000
0010
0000
0000
1002
0000
,
0000
0000
0103
0000
0001
0000
0100
0010
2000
0000
0000
0000
3100
0000
0000
0000
,
1000
0000
0001
0010
0001
0000
1000
0100
1000
0000
0001
0100
0001
0000
1000
0010
,
1000
0000
0001
0000
0100
0010
0000
2001
0000
0000
3100
0000
0010
0001
1000
0000
,
0001
0000
1000
0010
0100
0000
0010
1000
0001
0000
1000
0001
0010
0000
0001
0010
,
0200
0000
0000
0000
0300
0000
0010
0001
0010
0000
0001
0000
1000
0000
0100
0000
,
1001
0000
0000
0001
0100
0000
0000
0100
0010
0000
0000
0010
1000
0000
0001
0000
,
2001
0000
0000
0000
0000
0000
0000
0000
0000
0000
0000
0000
3100
0000
0000
0000
0010
0000
0000
0000
0100
0000
0000
0000
0010
0000
0000
0000
0000
0000
0002
0000
0000
0000
0000
0000
0103
0000
0000
0001
0000
0000
0000
0000
0000
0001
0000
0000
,
1000
0000
1000
0000
1000
0000
0000
0010
0100
0000
0000
0010
1000
0000
0001
0000
,
0011
0000
0100
0000
1100
0000
0000
1000
0100
0000
1000
0000
2002
0000
3003
0000
,
0101
0000
0000
0010
1000
0000
0000
1000
0001
0000
0010
0000
2002
0000
3003
0000
,
0110
0000
0000
0000
0000
0000
0000
0000
0000
0010
0000
0000
1000
0000
0000
0000
0000
0000
0000
0000
0000
0001
0000
0000
0010
0000
0000
0000
0001
0000
0000
0000
0010
0000
0000
0000
0001
0000
0000
0000
1000
0000
0000
0000
0010
0000
0000
0000
,
0100
0000
0000
0010
1000
0000
0001
0000
0011
0000
0000
0001
0020
0000
0000
0000
,
0130
0000
0010
0001
0000
0010
0001
0000
1000
0100
0000
1000
0001
0000
0101
0000
,
0220
0000
0000
0000
,
0000
0000
0000
0000
,
0330
0000
0000
0000
;

//---------------dance-single - ----------------
#NOTES:
     dance-single:
     :
     Challenge:
     10:
     0.873,0.859,0.382,0.462,0.869: // measure 1
0000
0000
0000
0000
,  // measure 2
0210
0000
0000
0000
,  // measure 3
0001
0000
0010
0000
,  // measure 4
1000
0000
0000
0020
0000
0000
0330
0000
,  // measure 5
0202
0303
2200
3300
,  // measure 6
2002
0000
0000
0000
0000
0000
0000
3003
,  // measure 7
1000
0100
1000
0100
0010
0001
0010
0001
,  // measure 8
1000
0010
0100
0001
0010
1000
0010
0001
,  // measure 9
0202
0000
0000
0000
0000
0303
0110
0000
,  // measure 10
0001
0000
1000
0100
1000
0000
0001
0010
0001
0000
1000
0010
0100
0000
0001
0100
,  // measure 11
0010
0000
1000
0010
1000
0000
0001
0010
0001
0000
1000
0100
0010
0000
0010
0100
,  // measure 12
1000
0000
0001
0010
0001
0000
0100
0001
0100
0000
0010
0100
0001
0000
1000
0100
,  // measure 13
0010
0000
0001
1000
0001
0000
1000
0000
0010
0100
0010
0100
0002
0000
0003
0000
,  // measure 14
1000
0000
0001
0100
0001
0000
1000
0010
1000
0000
0010
0000
1001
0000
0000
0000
,  // measure 15
0001
0000
0000
0000
0000
0000
1000
0000
0000
0100
0000
0000
0010
0000
0000
0000
0000
0000
0001
0000
0000
0100
0000
0000
0010
0000
0000
0000
0100
0000
0000
0000
0001
0000
0000
0000
1000
0000
0000
0000
0100
0000
0000
0000
0010
0000
0000
0000
,  // measure 16
0100
0010
0000
0100
0010
0000
1001
0000
0010
1000
0000
0001
0200
0000
0000
0000
,  // measure 17
0310
0000
0100
0010
0000
1000
0001
0000
0010
0100
0000
0001
1000
0000
0001
0010
,  // measure 18
0001
0000
1000
0100
1000
0000
0001
0100
0020
0000
0000
0000
0130
0000
0010
1000
,  // measure 19
0001
0000
0010
0100
0010
0000
0001
1000
0001
0000
0100
0000
0001
0100
0010
0000
,  // measure 20
1000
0000
0000
1000
0100
0000
0000
0100
0010
0000
0000
0010
0001
0000
0000
1000
,  // measure 21
0001
0000
0000
0100
0001
0000
0000
0010
0001
0000
1000
0100
0000
1000
0010
0100
,  // measure 22
0001
0000
1000
0010
0100
0000
0001
0100
0002
0000
0000
0000
0013
0000
0100
0010
,  // measure 23
0001
0000
1000
0100
1000
0000
0010
0100
0010
0000
1000
0000
0001
0100
0010
0000
,  // measure 24
0110
0000
0000
0010
0000
1000
0001
0000
1001
0000
0000
0010
0000
0001
1000
0000
,  // measure 25
1100
0000
0000
0010
0000
0001
0010
0100
0010
0000
0000
0000
1001
0000
0000
0000
,  // measure 26
0202
0000
0000
0000
0303
0000
0001
1000
0100
0000
0010
0000
0100
0000
1000
0000
,  // measure 27
0001
0100
0010
0100
0001
0000
1000
0001
0100
0000
0010
0000
1000
0000
0100
0000
,  // measure 28
2002
0000
0000
0000
3003
0000
0001
0100
1000
0000
0100
0000
0001
0000
1000
0000
,  // measure 29
0010
1000
0100
1000
0001
0000
0010
0100
1000
0000
0001
0100
0000
0100
1000
0100
,  // measure 30
0010
1000
0001
1000
1001
0000
0000
0000
0011
0000
1000
0100
0010
0000
0100
0000
,  // measure 31
1000
0010
1000
0000
0001
0010
0100
1000
0100
0000
1000
0001
0000
1000
0010
0100
,  // measure 32
0001
0000
1000
0000
1100
0000
1000
0010
0100
0000
0010
0000
1001
0000
0010
0000
,  // measure 33
2002
0000
0000
3003
,  // measure 34
2000
0000
0000
3200
0000
0000
0302
0000
0000
0203
0000
0000
1300
0000
0001
0000
,  // measure 35
0100
0000
0010
0000
1000
0001
1000
0000
0001
0010
0100
0010
0001
0000
1000
0000
,  // measure 36
0002
0203
2300
3020
,  // measure 37
0031
0000
1000
0010
0100
0010
1000
0000
0001
0010
0001
0000
1100
0000
0000
0000
,  // measure 38
0002
0000
0000
0203
0000
0000
2300
0000
0000
3200
0000
0000
0301
0000
1000
0000
,  // measure 39
0001
0010
0100
1000
0001
0100
0001
0000
1000
0010
0100
1000
0100
0000
0001
0000
,  // measure 40
2000
3200
0302
0203
,  // measure 41
1300
0100
1000
0001
0100
0010
0100
1000
0100
0010
0100
0001
1000
0100
0010
0001
,  // measure 42
0200
0000
0000
1000
0000
0000
0010
0000
,  // measure 43
0000
0000
0002
0000
0000
0000
0303
0000
0001
0000
1000
0000
0001
1000
0001
2000
,  // measure 44
0000
0000
3100
0000
0010
0100
1000
0000
0001
0000
0010
0100
1000
0000
1000
0100
,  // measure 45
1000
0000
0001
0100
0010
0000
1000
0001
1000
0000
0001
0010
0100
0000
0010
0000
,  // measure 46
0001
0000
1000
0000
0010
0100
0001
0000
1000
0000
0010
0100
0001
0000
1000
0010
,  // measure 47
1000
0001
0100
0001
0010
0100
1000
0100
1000
0000
0010
0000
0100
0001
0100
0001
,  // measure 48
1000
0000
0000
0001
0010
0000
0100
0010
0001
0000
1000
0000
0010
0000
0100
0010
,  // measure 49
1000
0100
0010
0210
0000
0310
0100
1000
,  // measure 50
0001
0101
0100
0110
0010
1010
1000
1001
,  // measure 51
0001
0000
0010
0001
1000
0000
0010
1000
0001
0000
1000
0100
0010
0001
0100
0010
,  // measure 52
0200
0000
0000
0000
0000
0000
0000
0000
0000
0000
0000
0000
0300
0000
0010
0100
,  // measure 53
0001
0000
0001
0010
0000
1000
0100
0000
0001
0100
0000
0010
1000
0001
1000
0100
,  // measure 54
0010
0000
0001
0010
1000
0010
0001
0000
0001
0100
1000
0100
0001
0000
0100
0010
,  // measure 55
0100
0010
1000
0001
0010
0000
0100
0010
0001
0000
1000
0100
0010
0001
1000
0010
,  // measure 56
0200
0000
0000
0000
0310
0000
0100
0010
1000
0000
0001
1000
0000
0010
0100
0010
,  // measure 57
0100
0001
0010
0001
1000
0000
0100
0000
0010
0000
0001
0100
0000
0010
0100
0000
,  // measure 58
0101
0000
0000
0110
0000
0000
1010
0000
1100
0000
0000
0110
0000
0000
0011
0000
,  // measure 59
2002
0000
0000
0000
0000
3003
1001
0000
,  // measure 60
0110
0000
0010
0000
1001
0000
0000
0000
1000
0100
0010
0001
0200
0000
0000
0000
,  // measure 61
0301
0100
0001
1000
0100
0010
0001
0100
0010
0000
0000
0000
1001
0000
0000
0000
,  // measure 62
1000
0100
1000
0100
0001
0100
0001
0100
1000
0000
0000
0001
0000
0000
0201
0000
,  // measure 63
0000
0000
0300
0000
0010
0100
0010
1000
0001
0000
0000
0000
2002
0000
0000
3003
,  // measure 64
1001
0000
0100
0010
1000
0000
0100
0010
0001
0000
1000
0001
0100
0000
0010
0100
,  // measure 65
0001
0000
1000
0000
0001
0100
0000
2100
0000
0000
3100
0000
0001
0100
0001
0000
,  // measure 66
1000
0100
1000
0100
0010
0001
0100
0001
1000
0010
1000
0010
0100
0001
0010
0100
,  // measure 67
0020
0000
0000
0000
0030
0000
0001
0100
0001
0000
1000
0010
1000
0100
1000
0000
,  // measure 68
1100
0000
0010
0001
0010
0000
0001
0100
0001
0000
1000
0010
1000
0000
0001
0100
,  // measure 69
0020
0000
0000
0000
0000
0000
0000
0000
0000
0000
0000
0000
1030
0000
0000
0000
0100
0000
0000
0000
0010
0000
0000
0000
0001
0000
0000
0000
0000
0000
0001
0000
0000
1000
0000
0000
0001
0000
0000
0100
0000
0000
0000
0000
0000
0100
0000
0000
,  // measure 70
0010
0000
1000
0001
0100
0000
0010
1000
0100
0000
0010
0001
0100
0000
0001
0010
,  // measure 71
0100
0000
0010
0000
1001
0000
1000
0000
0001
0100
0010
2000
0002
0000
3003
0000
,  // measure 72
1010
0000
0001
0100
0001
0000
1000
0100
0010
0000
0100
0000
2002
0000
3003
0000
,  // measure 73
0110
0000
0000
0000
0000
0000
0010
0000
0000
1000
0000
0000
0001
0000
0000
0000
0000
0000
0010
0000
0000
0001
0000
0000
0100
0000
0000
0000
0001
0000
0000
0000
0100
0000
0000
0000
1000
0000
0000
0000
0100
0000
0000
0000
0001
0000
0000
0000
,  // measure 74
1000
0000
0001
0010
0001
0000
1100
0000
1000
0000
0010
0100
0002
0000
0000
0000
,  // measure 75
1003
0000
0001
0100
0000
0010
1000
0100
0010
0001
0010
0100
1000
0000
0110
0000
,  // measure 76
2002
0000
0000
0000
,  // measure 77
0000
0000
0000
0000
,  // measure 78
3003
0000
0000
0000
;

//---------------dance-single - ----------------
#NOTES:
     dance-single:
     :
     Medium:
     8:
     0.590,0.583,0.335,0.351,0.108:
0000
0000
0000
0000
,
0002
0000
0000
0000
,
0010
0000
1000
0000
,
0100
0000
0000
0200
0000
0000
0303
0000
,
2002
3003
0220
0330
,
2002
0000
0000
0000
,
0000
0000
0000
3003
,
0001
0000
1000
0000
0001
1000
0002
2000
,
3003
0000
0000
0110
,
1000
0100
1000
0100
0010
0001
0010
0001
,
1000
0010
1000
0010
0100
0001
0100
0001
,
1000
0100
0010
0001
0100
0010
1000
0100
,
0010
0001
0100
0001
1000
0001
1001
0000
,
1000
0100
0010
0001
0100
0010
0100
0000
,
0001
0100
0010
1000
0010
0100
0001
0001
,
1000
0100
1100
0000
0001
0100
0101
0000
,
1000
0000
0000
0100
0000
0000
0010
0000
0001
0000
1000
0000
0001
0000
0100
0000
,
0100
0010
0010
1000
0001
0000
1000
0100
,
0010
0100
1000
0001
0100
0010
0100
0001
,
2000
0001
0100
3001
,
1000
0000
0000
0000
0100
0000
0000
0000
0010
0000
0000
0001
0000
0000
0010
0000
,
0010
0001
0001
1000
1000
0010
0100
0001
,
0001
0010
0100
0001
0100
1000
0010
0100
,
0020
0000
0000
1000
0000
1030
0000
0000
2000
0000
0000
0001
0000
3001
0000
0000
,
1001
0000
0000
1000
0000
0100
0000
2000
0002
0000
0000
0000
3003
0000
0000
0000
,
0202
0000
0000
0000
0303
0000
0000
0001
1000
0000
0000
0000
0100
0000
0000
0000
,
1000
0100
0010
0100
1000
0000
0001
0100
,
0020
0000
0000
0000
0030
0000
0000
1000
0001
0000
0100
0000
0001
0000
0000
0000
,
1000
0000
0010
0000
0100
0000
0001
0000
1000
0000
0000
0100
0000
0000
0010
0000
,
0200
0300
0110
0000
1002
0000
0100
0103
,
0001
0100
0010
1000
0100
0010
0100
0000
,
0011
0000
0000
0000
1100
0000
0000
1000
0000
0000
0001
0000
0101
0000
0000
0000
,
2002
0000
0000
3003
,
0020
0000
0000
0000
0000
0000
1030
0010
,
1000
0100
0001
1000
0010
0001
1000
0010
,
0200
2300
3200
0302
,
1003
0001
0010
0100
0001
0100
2000
0000
,
3001
0000
0000
0100
0000
0000
0001
0000
0000
0100
0000
0000
0010
0000
1000
0000
,
0001
0000
0000
1000
0000
0000
0100
0000
0000
0010
0000
0000
0001
0000
1000
0000
,
1100
1001
0101
1001
,
1000
0100
0010
0001
1000
0010
0100
0001
,
2001
0000
0000
0010
0000
0000
0001
0000
,
0000
0000
0100
0000
0000
0000
0000
0000
3001
0000
0000
0000
0001
1000
0002
0000
,
0000
1003
0100
0010
0100
1000
0001
0001
,
0100
0010
1000
0001
0010
0100
0010
0002
,
0000
0103
1000
0100
0010
1000
0100
0100
,
0010
0100
1000
0100
0001
0100
1000
0010
,
0110
0000
0010
1000
1001
0000
0001
0010
,
0100
1000
0100
0020
0000
0130
1000
0001
,
0100
0010
0100
0001
0100
0010
0100
0001
,
0101
0000
0000
0000
1100
0000
0000
1000
0100
0000
0010
0000
0001
1000
0001
0000
,
0200
0000
0000
0300
,
0110
0000
0000
0101
0000
0000
1001
0000
0000
1001
0000
0000
1000
0001
1000
0000
,
0000
0010
0100
0010
1000
0100
0010
0010
,
0100
1000
0001
0100
1000
0001
0010
1000
,
0002
0000
0013
0100
0020
0000
0130
0010
,
0001
1000
0100
2000
0000
3010
0100
0001
,
1000
0100
0010
0100
1000
0100
0010
0100
,
0220
0000
0330
1001
,
0101
0000
1001
0000
1000
0100
0010
0000
,
0100
1000
0001
0100
0010
0000
1001
0000
,
0001
0000
0010
0000
0100
0000
0001
0000
0100
0000
0000
0010
0000
0000
2001
0000
,
0000
3100
0010
0100
1000
0000
1001
0000
,
0001
0001
0100
1000
0100
0001
0010
0100
,
0010
0000
0001
0000
1000
0000
0000
1200
0000
0000
1300
0000
0010
0000
0100
0000
,
0001
0100
1000
0001
0010
1000
0001
0010
,
0200
0000
0300
0010
0010
0001
1000
0001
,
1000
0100
1000
0001
0100
0010
1000
0100
,
0200
0000
0310
0100
1000
0010
0100
0001
,
1000
0100
0010
0001
0100
0001
1000
0010
,
0110
0000
1010
0000
0001
1000
1001
0000
,
0001
0100
0010
1000
0100
0010
0100
0000
,
0010
0001
1000
0001
1000
0010
0100
0000
,
0001
0100
0101
0000
1000
0100
1100
0000
,
1000
0000
0000
0100
0000
0000
0010
0000
0000
0001
0000
0000
1000
0000
0001
0000
,
2002
0000
0000
0000
,
0000
0000
0000
0000
,
3003
0000
0000
0000
;

//---------------dance-single - ----------------
#NOTES:
     dance-single:
     :
     Easy:
     5:
     0.445,0.552,0.438,0.462,0.016:
0000
0000
0000
0000
,
2000
0000
0000
0000
,
0010
0000
0001
0000
,
0100
0000
0000
0200
0000
0000
3300
0000
,
2002
3003
0220
0330
,
2002
0000
0000
0000
,
0000
0000
0000
3003
,
1000
0000
0100
0000
1000
0001
2000
0002
,
3003
0000
0000
0110
,
1001
0000
0100
0000
1000
0000
0001
0100
,
0010
0100
0001
1000
,
0010
0000
0100
0000
0001
0000
1000
0100
,
1000
0001
0010
0100
,
0010
0001
2000
3001
,
0001
0100
0020
2030
,
3010
0110
1000
1001
,
0220
0000
0000
0330
,
1001
0100
1001
0010
,
1000
0000
0100
0000
0010
0000
0100
0010
,
0200
0001
0010
1000
,
0010
0001
0010
1300
,
0110
1000
0110
0010
,
0001
0000
1000
0000
0001
0000
0100
0010
,
0200
0010
0302
0010
,
2003
3010
2002
3003
,
2002
3003
0110
0000
,
0010
0000
1000
0010
1000
0000
0001
0000
,
0010
0000
0110
0000
,
0100
0000
0010
0001
1000
0000
0001
0000
,
2002
3003
0110
0000
,
0010
0000
1000
0010
1000
0000
0001
0000
,
0100
0101
0010
1001
,
0220
0000
0000
0330
,
2000
0000
0000
0000
3000
0000
0001
0100
,
0002
0000
0000
0000
0003
0000
0100
0010
,
0200
0320
2030
3002
,
0023
1000
0100
0031
,
1002
0000
0000
0000
0003
0000
0100
0010
,
2000
0000
0000
0000
3000
0000
0001
0010
,
0200
0302
0203
2300
,
0002
0000
0000
3003
,
0001
0000
0000
0100
0000
0000
0010
0000
,
0000
1000
0000
0000
2002
0000
3003
0000
,
1001
0100
1001
0010
,
1001
0110
2002
3003
,
0110
1000
0110
0001
,
0110
1001
0220
0330
,
1001
1000
0100
0001
,
1000
0010
0001
1000
,
0002
0100
0000
0100
0000
0100
0000
0100
,
0103
0000
1010
0000
0010
1000
0001
0000
,
2002
0000
0000
3003
,
1001
0000
0000
1001
0000
0000
1001
0000
0000
1001
0000
0000
1001
0000
0000
0000
,
0110
1000
1001
0010
,
1001
0000
0110
0000
1001
0000
0001
0100
,
0002
0010
1000
0103
,
2000
0010
0001
3100
,
0020
0100
0000
0100
0000
0100
0000
0100
,
0200
0000
0330
0110
,
1001
0000
0001
0000
0100
0100
0100
0000
,
0010
0000
1000
0001
1000
0000
0001
0000
,
0010
0100
0001
0100
,
1000
0000
0010
0000
0100
0010
1000
0000
,
0002
0000
0103
0000
1000
0000
0100
0010
,
1000
0000
0010
1000
0001
0000
1000
0000
,
0001
0010
0001
0000
0010
0001
0010
0000
,
0001
0100
0010
1000
,
1001
0001
0100
0001
,
2000
3000
0100
1000
0100
1000
0100
0000
,
0010
0001
1000
0001
,
0100
0000
0010
0100
0010
0100
0001
0000
,
0001
0100
0001
0000
0101
0000
1001
0000
,
1000
0100
1000
0000
1100
0000
1001
0000
,
0001
1000
0001
0000
1000
0010
1000
0000
,
0001
0000
0000
1000
0000
0000
0001
0000
0000
1000
0000
0000
1001
0000
0000
0000
,
0220
0000
0000
0000
,
0000
0000
0000
0000
,
0330
0000
0000
0000
;

//---------------dance-single - ----------------
#NOTES:
     dance-single:
     :
     Beginner:
     3:
     0.263,0.307,0.231,0.215,0.000:
0000
0000
0000
0000
,
0002
0000
0000
0000
,
1000
0000
1000
0000
,
2000
0000
3003
0000
,
1000
0000
0001
0000
,
2002
0000
0000
0000
,
0000
0000
0000
0000
,
0000
0000
0000
0000
,
3003
0000
0000
1001
,
0001
0001
0001
0001
,
0100
0100
0100
0100
,
0010
1000
0010
1000
,
0001
1000
1001
0000
,
0001
0001
0001
0000
,
1000
1000
1000
0000
,
0010
0100
0010
0100
,
2002
0000
0000
3003
,
0001
0100
0001
0000
,
1000
0100
1000
0000
,
1001
0000
0001
0000
,
0100
0000
0010
0000
,
0100
0010
0100
0000
,
0001
1000
0001
1000
,
0100
0000
0010
0000
,
0100
0000
2002
3003
,
2002
0000
3003
0000
,
0001
0000
0100
0000
,
0110
0000
0010
0000
,
1000
0000
0100
0000
,
0220
0000
0330
0000
,
0010
0000
0001
0000
,
1001
0000
1001
0000
,
0220
0000
0000
0330
,
1001
0000
0000
0000
,
0001
1000
0001
1000
,
0001
0000
0100
0000
,
0020
0000
0030
0000
,
0110
0000
0000
0000
,
0100
0010
0100
0010
,
1000
0000
0001
0000
,
2002
0000
3003
0000
,
2002
0000
0000
0000
,
0000
0000
0000
3003
,
1001
0000
0100
0000
,
0010
1000
0010
1000
,
0001
0000
1000
0000
,
0001
0010
0001
0010
,
0100
0000
0010
0000
,
0001
0000
0100
0010
,
0200
0000
0000
0300
,
0110
0110
0110
0000
,
1001
0000
0000
0000
,
0220
0000
0000
0330
,
1001
0000
0001
0000
,
1000
0100
1000
0100
,
0010
0000
0001
0000
,
1000
0001
1000
0001
,
0100
0000
0010
0000
,
0110
0000
0000
0001
,
1001
0000
0110
0000
,
0001
1000
0001
0000
,
1000
0100
0010
0001
,
1000
0000
0001
0100
,
0002
0003
0100
0010
,
0100
0000
0010
1000
,
0001
0000
1000
0100
,
0010
0000
0100
0000
,
0010
0010
0010
0010
,
0100
0100
0100
0100
,
1000
1000
1000
1000
,
0001
0001
0001
0001
,
1000
0001
1000
0000
,
0001
0100
0001
0000
,
1000
0010
1000
0000
,
0220
0000
0330
0110
,
2002
0000
0000
0000
,
0000
0000
0000
0000
,
3003
0000
0000
0000
;
