#TITLE:1 Life;
#SUBTITLE:;
#ARTIST:Xandee;
#TITLETRANSLIT:;
#SUBTITLETRANSLIT:;
#ARTISTTRANSLIT:;
#CREDIT:;
#BANNER:;
#BACKGROUND:;
#LYRICSPATH:;
#CDTITLE:;
#MUSIC:1 Life.mp3;
#OFFSET:-7.400;
#SAMPLESTART:51.020;
#SAMPLELENGTH:14.760;
#SELECTABLE:YES;
#BPMS:0.000=130.000;
#STOPS:;
#BGCHANGES:;

//---------------dance-single - ----------------
#NOTES:
     dance-single:
     :
     Hard:
     7:
     0.499,0.445,0.309,0.100,0.244: // measure 1
1000
0000
0000
0000
0001
0000
0000
0000
0100
0000
0000
0001
0000
0000
0100
0000
,  // measure 2
0001
0000
0000
0002
0000
0000
0000
0000
1003
0000
0000
2000
0000
0000
0000
0000
,  // measure 3
3100
0000
0000
0000
0010
0000
0000
0000
0100
0000
0000
0010
0000
0000
0001
0000
,  // measure 4
0101
0000
0000
0000
1010
0000
0000
0000
0101
0000
0000
1001
0000
0000
1000
0000
,  // measure 5
0100
1000
0010
0000
0100
0001
1000
0001
,  // measure 6
0010
0100
0010
0000
0001
1000
0001
0000
,  // measure 7
0100
0001
1000
0100
0010
0100
1000
0000
,  // measure 8
0001
0010
0100
0000
0010
0001
1000
0000
,  // measure 9
0001
0100
1000
0100
0001
1000
0001
0000
,  // measure 10
1000
0100
1000
0000
0001
0100
0001
0000
,  // measure 11
1000
0100
0001
1000
0010
0001
1000
0000
,  // measure 12
0001
0100
0010
0000
1000
0100
0010
0100
,  // measure 13
1000
0000
0101
0000
0010
0100
0001
0100
,  // measure 14
0001
0000
1001
0000
1000
0100
0001
0200
,  // measure 15
0000
2300
0000
3020
0000
0032
0000
0013
,  // measure 16
1000
0001
0010
0000
0001
1000
0001
0100
,  // measure 17
0010
0000
1000
0000
0100
0000
0010
0000
0100
0000
0000
0010
0000
0000
0001
0000
,  // measure 18
1000
0000
0010
0000
0100
0000
0001
0000
0010
0000
0000
0001
0000
0000
1000
0000
,  // measure 19
0001
0100
0001
0010
1000
0010
0100
0010
,  // measure 20
0001
0000
0000
0000
1001
0000
0000
0000
0001
0000
0000
0100
0000
0000
0010
0000
,  // measure 21
0220
0000
0000
0000
0330
0000
0000
0000
0010
1000
0000
0001
0000
0000
1000
0000
,  // measure 22
2002
0000
0000
0000
3003
0000
0000
0000
1000
0100
0000
0010
0000
0000
0100
0000
,  // measure 23
1100
0000
1000
0001
0101
0000
0001
1000
,  // measure 24
1001
0000
0000
0000
0110
0000
0000
0000
0001
0000
0000
1000
0000
0000
0010
0000
,  // measure 25
0110
0000
1001
0001
0100
0000
1001
0001
,  // measure 26
0100
0000
0000
0001
1000
0000
0100
0000
0010
0000
0000
0100
0000
0000
1000
0000
,  // measure 27
0001
0000
0101
0100
0010
0000
0101
0100
,  // measure 28
0010
0000
0000
1000
0000
0000
0001
0000
0010
0000
0001
0000
1000
0000
0010
0000
,  // measure 29
0100
0000
1010
0100
0001
0000
1010
0100
,  // measure 30
0001
0000
0000
0001
0010
0000
0001
0000
1000
0000
0000
0001
0000
0000
0010
0000
,  // measure 31
0100
0000
0000
0000
1001
0000
0000
0000
1000
0000
0000
0010
0000
0000
1000
0000
,  // measure 32
0001
0000
0010
0000
0001
0000
0000
0000
1000
0000
0000
0001
1000
0000
0000
0000
,  // measure 33
0001
0000
0000
0100
0000
0000
0001
0000
1000
0000
0000
0100
0000
0000
1000
0000
,  // measure 34
0001
0000
0000
0010
0000
0000
0100
0000
0000
0010
0000
0000
0001
1000
0001
0000
,  // measure 35
1000
0000
0000
0010
0000
0000
0100
0000
0100
0000
0000
0010
0000
0000
1000
0000
,  // measure 36
0001
0000
0000
0100
0000
0000
1000
0000
0100
0000
0000
0110
0000
0000
0010
0000
,  // measure 37
1001
0000
0000
1100
0000
0000
0010
0000
0001
0000
0000
1010
0000
0000
0001
0000
,  // measure 38
0100
0000
0000
0010
0000
0000
0100
0000
0000
0010
0000
0000
1000
0001
1000
0000
,  // measure 39
1001
0000
0000
0001
0101
0000
0000
1000
,  // measure 40
1100
0000
0000
0000
1001
0000
0000
0000
0001
0000
0000
0100
0000
0000
0001
0000
,  // measure 41
1001
0000
0000
1000
0100
0000
0010
0000
0001
0000
0000
0001
0100
0000
0010
0000
,  // measure 42
1000
0000
0000
0001
0000
0000
0100
0000
1000
0000
0000
0100
0000
0000
0001
0000
,  // measure 43
1000
0000
0000
0100
1000
0000
0010
0000
0100
0000
0000
0001
0010
0000
0100
0000
,  // measure 44
0010
0000
0000
0001
0000
0000
1000
0000
0100
0000
0010
0000
0100
0000
1000
0000
,  // measure 45
0001
0000
0000
0100
0001
0000
0100
0000
0001
0000
0000
1000
0100
0000
1000
0000
,  // measure 46
0100
0000
0000
0010
0000
0000
0100
0000
1000
0000
0000
0001
0000
0000
0100
0000
,  // measure 47
0010
1000
0010
0100
0001
0000
0011
0000
,  // measure 48
1000
0000
0100
0000
1000
0000
0001
0000
0100
0000
0000
0010
0000
0000
0100
0000
,  // measure 49
0010
1000
0100
0010
0001
1000
0001
0100
,  // measure 50
0001
0000
0000
1000
0000
0000
0001
1000
0001
0000
0000
0000
0000
0000
0000
0000
;

//---------------dance-single - ----------------
#NOTES:
     dance-single:
     :
     Medium:
     5:
     0.398,0.395,0.309,0.190,0.055: // measure 1
1001
0000
0000
0000
0100
0000
0000
0000
0001
0000
0000
0001
0000
0000
0000
0000
,  // measure 2
1000
0000
0000
0000
0100
0000
0000
0000
1000
0000
0000
1000
0000
0000
0000
0000
,  // measure 3
0001
0000
0000
0000
1000
0000
0000
0000
0100
0000
0000
0100
0000
0000
0000
0000
,  // measure 4
1001
0110
2002
3003
,  // measure 5
1000
0000
0010
0000
0100
0001
0100
0000
,  // measure 6
0001
0010
0100
0000
0010
0001
1000
0000
,  // measure 7
0001
0000
0100
0000
0010
0100
0010
0000
,  // measure 8
1000
0100
0010
0000
0100
0010
0001
0000
,  // measure 9
1000
0000
0001
0000
1000
0100
1000
0000
,  // measure 10
0001
0100
0010
0000
0100
0010
1000
0000
,  // measure 11
0001
0000
1000
0000
0100
0010
0001
0000
,  // measure 12
1000
0100
1000
0000
0011
0000
1001
0000
,  // measure 13
0201
0000
0010
0000
0301
0000
1000
0100
,  // measure 14
0020
0000
0001
0000
0130
0000
0010
0001
,  // measure 15
0000
0100
0000
1000
0000
0010
0000
0001
,  // measure 16
1000
0000
0001
0000
0100
0001
0100
0000
,  // measure 17
2000
0000
0010
0000
0001
0000
3100
1000
,  // measure 18
0100
0000
1000
0000
0001
0000
0100
0010
,  // measure 19
0100
0000
0001
0000
0010
0001
1000
0000
,  // measure 20
0001
0100
0010
0100
,  // measure 21
2002
0000
3003
0000
1000
0010
0100
0010
,  // measure 22
0020
0000
0030
0000
0100
0010
0100
0000
,  // measure 23
2002
3003
0202
0303
,  // measure 24
0011
0000
0000
0000
1100
0000
0000
0000
1000
0000
0000
0001
0000
0000
1000
0000
,  // measure 25
0001
0110
1000
0110
,  // measure 26
1000
0000
0000
0100
0000
0000
1000
0000
0100
0000
0000
0000
0010
0000
0000
0000
,  // measure 27
0001
1100
1000
0101
,  // measure 28
1000
0000
0001
0100
0001
0000
0010
0000
,  // measure 29
1000
0101
0010
1100
,  // measure 30
1000
0000
0000
0001
0000
0000
1000
0000
0001
0000
0000
0000
0110
0000
0000
0000
,  // measure 31
2000
0000
3010
0000
0100
0000
0001
0100
,  // measure 32
0001
0000
1000
0000
0001
1000
0001
0000
,  // measure 33
1001
0000
0001
0100
0020
0000
1030
0000
,  // measure 34
0001
0000
0000
1000
0000
0000
0001
0000
0000
1000
0000
0000
0001
0000
0000
0000
,  // measure 35
1001
0000
1000
0100
0020
0000
0031
0000
,  // measure 36
1000
0000
0000
0100
0000
0000
0010
0000
0000
0001
0000
0000
0100
0000
0000
0000
,  // measure 37
0010
1001
0100
1001
,  // measure 38
0010
0000
0001
0100
0010
0000
1000
0000
,  // measure 39
1001
0000
0000
0100
0010
0000
0000
1000
,  // measure 40
0001
1000
2002
3003
,  // measure 41
1000
1100
0001
0101
,  // measure 42
1000
0000
0100
0000
0010
0000
0001
0100
,  // measure 43
0001
0101
0010
1001
,  // measure 44
0100
0000
0010
1000
0100
0000
0010
0000
,  // measure 45
0100
1001
0010
1001
,  // measure 46
0100
0000
0001
0000
0010
0000
0100
1000
,  // measure 47
0200
0010
1000
0010
,  // measure 48
2300
0010
0001
3001
,  // measure 49
1000
0000
0001
0000
0100
0010
0100
0000
,  // measure 50
0001
0000
0000
1000
0000
0000
0001
0000
0001
0000
0000
0000
0000
0000
0000
0000
;

//---------------dance-single - ----------------
#NOTES:
     dance-single:
     :
     Easy:
     3:
     0.258,0.296,0.259,0.090,0.000: // measure 1
1000
0000
0001
0100
,  // measure 2
0001
0000
1000
0000
,  // measure 3
0001
0000
1000
0100
,  // measure 4
0010
0100
0110
0000
,  // measure 5
1001
0000
0001
0100
,  // measure 6
0001
0000
1000
0000
,  // measure 7
0010
0000
1000
0100
,  // measure 8
0010
0000
0100
0000
,  // measure 9
1000
0000
0001
0100
,  // measure 10
0010
0000
1000
0000
,  // measure 11
0010
0000
0100
0010
,  // measure 12
0100
0010
1000
0001
,  // measure 13
2000
3000
0001
0100
,  // measure 14
0002
0003
1000
0100
,  // measure 15
0010
0001
1000
0001
,  // measure 16
0200
0300
0010
0100
,  // measure 17
0002
0000
1003
0001
,  // measure 18
0100
0001
1000
0000
,  // measure 19
0001
0010
0100
0010
,  // measure 20
0001
0000
1000
0000
,  // measure 21
0110
0000
0100
0010
,  // measure 22
0110
0000
0010
0100
,  // measure 23
0110
0000
1001
0000
,  // measure 24
0110
0110
1001
0000
,  // measure 25
1001
0000
0110
0000
,  // measure 26
0001
0100
0010
1000
,  // measure 27
1001
0000
0110
0000
,  // measure 28
0001
0010
0001
0000
,  // measure 29
0110
0000
1001
0000
,  // measure 30
1000
0100
0010
0001
,  // measure 31
0100
0000
0010
0100
,  // measure 32
0020
0000
0200
0330
,  // measure 33
0110
0000
1001
0000
,  // measure 34
1000
0100
0010
0001
,  // measure 35
1000
0000
1001
0000
,  // measure 36
0001
0100
0010
1000
,  // measure 37
0010
0000
0110
0000
,  // measure 38
0100
0001
1000
0100
,  // measure 39
1001
0000
0110
0000
,  // measure 40
1001
1001
1001
0000
,  // measure 41
1000
0100
0001
0100
,  // measure 42
1000
0001
1000
0000
,  // measure 43
0001
0100
1000
0100
,  // measure 44
0001
1000
0001
0000
,  // measure 45
1000
0100
0010
0001
,  // measure 46
0100
0010
1000
0001
,  // measure 47
0200
0000
0310
0100
,  // measure 48
0001
0000
1000
0100
,  // measure 49
0010
0000
0100
0000
,  // measure 50
0220
0330
1001
0000
;

//---------------dance-single - ----------------
#NOTES:
     dance-single:
     :
     Beginner:
     1:
     0.154,0.296,0.279,0.000,0.000: // measure 1
0100
0000
0000
0000
,  // measure 2
0010
0000
1000
0000
,  // measure 3
0001
0000
0000
0000
,  // measure 4
0010
0000
0000
0000
,  // measure 5
1001
0000
0000
0000
,  // measure 6
1000
0000
0100
0000
,  // measure 7
1000
0000
0000
0000
,  // measure 8
0001
0000
0010
0000
,  // measure 9
0100
0000
0000
0000
,  // measure 10
0010
0000
0001
0000
,  // measure 11
0010
0000
0000
0000
,  // measure 12
0001
0000
1000
0000
,  // measure 13
1001
0000
0000
0000
,  // measure 14
0110
0000
0000
0000
,  // measure 15
0010
0000
1000
0000
,  // measure 16
0001
0000
0000
0000
,  // measure 17
0110
0000
0000
0000
,  // measure 18
1001
0000
0000
0000
,  // measure 19
1000
0000
0100
0000
,  // measure 20
0010
0000
0000
0000
,  // measure 21
1001
0000
0000
0000
,  // measure 22
1001
0000
0000
0000
,  // measure 23
0110
0000
1001
0000
,  // measure 24
0110
0110
0110
0000
,  // measure 25
1001
0000
1001
0000
,  // measure 26
1000
0000
0100
0000
,  // measure 27
0110
0000
0110
0000
,  // measure 28
0010
0000
0000
0000
,  // measure 29
1001
0000
0110
0000
,  // measure 30
0001
0000
0100
0000
,  // measure 31
0010
0000
1000
0000
,  // measure 32
0001
0000
0000
0000
,  // measure 33
1001
0000
0000
0000
,  // measure 34
1000
0000
0100
0000
,  // measure 35
1000
0000
0000
0000
,  // measure 36
0001
0000
0100
0000
,  // measure 37
0001
0000
0000
0000
,  // measure 38
1000
0000
0010
0000
,  // measure 39
1000
0000
0001
0000
,  // measure 40
1001
0000
0000
0000
,  // measure 41
1001
0000
1001
0000
,  // measure 42
0001
0000
0100
0000
,  // measure 43
0110
0000
0110
0000
,  // measure 44
0010
0000
1000
0000
,  // measure 45
1001
0000
0110
0000
,  // measure 46
0010
0000
1000
0000
,  // measure 47
0001
0000
0001
0000
,  // measure 48
1000
0000
0100
0000
,  // measure 49
0010
0000
0100
0000
,  // measure 50
0110
0000
1001
0000
;
