#TITLE:satellite020712 from 'CODED ARMS';
#SUBTITLE:;
#ARTIST:猫叉Master;
#TITLETRANSLIT:;
#SUBTITLETRANSLIT:;
#ARTISTTRANSLIT:Nekomata Master;
#GENRE:;
#CREDIT:;
#BANNER:satellite020712 from 'CODED ARMS'.png;
#BACKGROUND:satellite020712 from 'CODED ARMS'-bg.png;
#LYRICSPATH:;
#CDTITLE:;
#MUSIC:satellite020712 from 'CODED ARMS'.mp3;
#OFFSET:-6.240000;
#SAMPLESTART:18.709999;
#SAMPLELENGTH:12.460000;
#SELECTABLE:YES;
#BPMS:0.000000=154.000000
;
#STOPS:96.000000=2.338000
;
#BGCHANGES:;
#KEYSOUNDS:;
#ATTACKS:;

//---------------dance-single - Oni-91----------------
#NOTES:
     dance-single:
     :
     Hard:
     9:
     0.592937,0.660661,0.409712,0.249390,0.427526,466.000000,420.000000,46.000000,28.000000,0.000000,0.000000,0.592937,0.660661,0.409712,0.249390,0.427526,466.000000,420.000000,46.000000,28.000000,0.000000,0.000000:
// measure 0
1001
0000
0000
0000
,  // measure 1
1000
0000
0000
0000
0001
0000
0000
0000
1000
0000
0002
0000
0000
0003
0000
0000
,  // measure 2
0110
0000
0000
0000
,  // measure 3
1000
0000
0010
0000
1000
0000
0001
1000
,  // measure 4
1001
0000
0000
0220
0000
0000
0330
0000
,  // measure 5
0101
0000
0000
1010
0000
0000
2002
0000
0000
0000
0000
0000
3003
0000
0000
0000
,  // measure 6
1100
0000
0000
0022
0000
0000
0033
0000
,  // measure 7
1001
0000
0000
1001
0000
0000
1001
0000
0220
0000
0000
0000
0330
0000
0000
0000
,  // measure 8
0010
0000
0000
1000
0000
0000
0010
0000
0100
0000
0000
0001
0000
0000
0100
0000
,  // measure 9
0001
0000
0000
0000
1001
0000
0000
0000
1000
0000
0000
0100
0000
0000
0010
0000
,  // measure 10
0001
0000
0000
1000
0000
0000
0001
0000
0100
0000
0000
0001
0000
0000
0100
0000
,  // measure 11
0010
0000
0000
1000
0000
0000
0100
0000
0010
0000
0001
1000
0000
0000
1000
0000
,  // measure 12
0001
0000
0000
0001
0000
0000
0100
0000
0010
0000
0000
0010
0000
0000
1000
0000
,  // measure 13
0001
0000
0000
0000
0001
0000
1000
0000
0100
0000
0000
0010
0000
0000
0001
0000
,  // measure 14
1000
0000
0000
0010
0000
0000
1000
0000
0001
0000
0000
0010
0000
0000
0001
0000
,  // measure 15
1000
0001
0100
0010
0100
0000
0110
0000
,  // measure 16
1010
0000
1000
0000
0000
0001
0000
0000
0010
0000
0001
0000
0000
1000
0000
0000
,  // measure 17
0001
0000
0100
0000
0000
0010
0000
0000
1000
0000
0100
0000
0000
0010
0000
0000
,  // measure 18
0100
0000
0010
0000
0000
0100
0000
0000
0010
0000
0001
0000
0000
0010
0000
0000
,  // measure 19
0001
0000
1000
0000
0000
0001
0000
0000
1000
0000
0001
0000
0000
1000
0000
0000
,  // measure 20
0001
0000
0100
0000
0001
0100
0000
0000
0010
0000
1000
0000
0010
1000
0000
0000
,  // measure 21
1000
0000
0100
0000
0010
0001
0000
0000
0001
0000
0100
0000
0010
1000
0000
0000
,  // measure 22
1001
0000
0000
0000
0220
0000
0000
0000
0330
0000
0010
1000
0010
0000
0100
0000
,  // measure 23
0202
0000
0000
0000
0303
0000
1001
0000
0000
0000
1000
0001
0020
0000
0000
0000
,  // measure 24
0000
0030
0000
0000
0000
0000
0000
0000
1001
0000
0000
0000
0000
0000
0000
0000
0100
0000
0000
0000
0000
0000
0000
0000
0010
0000
0000
0000
0000
0000
0000
0000
,  // measure 25
0001
0010
1010
0000
1001
0000
1000
0100
,  // measure 26
0010
0011
1001
0000
1000
0000
0101
0000
,  // measure 27
1000
0000
0100
0000
0001
0000
0000
0100
0000
0000
1000
0000
0001
0000
0100
0000
,  // measure 28
0001
0000
1000
0000
1001
0000
0000
1001
0000
0000
1001
0000
1000
0000
0010
0000
,  // measure 29
0100
0001
0010
0000
0110
0000
0100
1000
,  // measure 30
0001
0000
0100
0000
0110
0000
0000
0110
0000
0000
0110
0000
0100
0000
0000
0000
,  // measure 31
0001
0000
0100
0000
0010
0100
0010
0100
0010
0000
1000
0000
0001
0000
1000
0000
,  // measure 32
0200
0000
0300
0000
0110
0000
0000
0011
0000
0000
0110
0000
0100
1000
0001
0000
,  // measure 33
1000
0000
0010
0000
0100
0000
0100
0010
0100
0000
0001
0000
1000
0001
1000
0000
,  // measure 34
1000
0000
0000
0000
0000
0000
0100
0000
0000
0010
0000
0000
0001
0000
0000
0000
0000
0000
0000
0000
0000
0001
0000
0000
0000
0000
0000
0000
0000
0000
1000
0000
0000
0000
0000
0000
0001
0000
0000
0000
1000
0000
0000
0000
0001
0000
0000
0000
,  // measure 35
1000
0000
0001
0000
0100
0000
0000
0001
0000
0000
1000
0000
0100
0000
1000
0000
,  // measure 36
2200
0000
3300
0000
1010
0000
0000
0110
0000
0000
1001
0000
0001
1000
0001
0000
,  // measure 37
1000
0100
0010
0000
0001
0100
1000
0100
,  // measure 38
0001
0000
1000
0000
0100
0000
0000
1000
0000
0000
0001
0000
0100
0000
0000
0000
,  // measure 39
0101
0000
0000
0000
0001
1000
0001
1000
0100
0000
0010
0000
0002
0000
2000
0000
,  // measure 40
3003
0000
0000
0000
1000
0000
0100
0000
1000
0100
0000
0000
0010
0000
0001
0000
,  // measure 41
1000
0000
0010
0000
0100
0000
0010
0100
0000
0100
0010
0000
1000
0000
0100
0000
,  // measure 42
0010
0000
0001
0000
1000
0000
0010
0000
1000
0010
0000
0000
0100
0000
0001
0000
,  // measure 43
0010
0000
1000
0000
0010
0000
0001
0100
0000
0010
1000
0000
0010
0000
0100
0000
,  // measure 44
1001
0000
0000
0000
1000
0000
0100
0000
0010
0001
0000
0000
0001
0000
0100
0000
,  // measure 45
1000
0000
0001
0000
0010
0000
1000
0010
0000
0100
0001
0000
1000
0000
0100
0000
,  // measure 46
0010
0100
0021
0000
0001
0000
0100
0000
,  // measure 47
0100
1000
1000
0002
,  // measure 48
0033
0000
0000
0000
0001
1000
0000
0100
0000
0000
0010
0000
0001
0000
0000
0100
,  // measure 49
0000
0000
0010
0000
1000
0000
0000
0100
0000
0000
0001
0000
0100
0000
0000
1000
,  // measure 50
0000
0000
0001
0000
1000
0010
0000
0100
0000
0000
0001
0000
0010
0000
0000
0001
,  // measure 51
0000
0000
1000
0000
0001
0000
0000
1000
0000
0000
0100
0000
0010
0000
0000
0100
,  // measure 52
0000
0000
0010
0000
0001
1000
0000
1000
0000
0000
0001
0000
0100
0000
0000
0010
,  // measure 53
0000
0000
1000
0000
0001
0000
0010
0001
0000
0001
1000
0000
0001
0000
0100
0000
,  // measure 54
0010
0000
0100
0000
0001
0010
0000
0001
0000
0000
1000
0000
0100
0000
0000
0010
,  // measure 55
0000
0000
0100
0000
1000
0000
0010
1000
0000
0010
1000
0000
0001
0000
0010
0000
,  // measure 56
0022
0000
0033
0000
0001
0000
0100
0000
0010
0100
0010
0000
0100
0000
0001
0000
,  // measure 57
1000
0100
1000
0000
0001
0000
0010
0000
0100
0010
0001
0000
0100
0000
0010
0000
,  // measure 58
1000
0010
0100
0000
0001
0000
1000
0000
0001
0010
1000
0000
0010
0000
0001
0000
,  // measure 59
1000
0010
0001
0000
0010
0000
1000
0000
0001
1000
0100
0000
0010
0000
0100
0000
,  // measure 60
1000
0001
0100
0000
0001
0000
0100
0000
0001
0100
0000
0100
0001
0000
1000
0000
,  // measure 61
0100
1000
0000
1000
0100
0000
0010
0000
0001
0100
0000
0010
1000
0000
0100
0000
,  // measure 62
1000
0100
0000
0010
0001
0000
0000
0000
2002
0000
0000
0000
3003
0000
1000
0100
,  // measure 63
1000
0001
0010
0001
0200
0000
0000
0000
0300
0000
0110
0000
0000
0000
0001
2000
,  // measure 64
0002
0000
3003
0000
;

//---------------dance-single - Oni-91----------------
#NOTES:
     dance-single:
     :
     Medium:
     7:
     0.484783,0.517039,0.409712,0.365178,0.142509,381.000000,335.000000,46.000000,41.000000,0.000000,0.000000,0.484783,0.517039,0.409712,0.365178,0.142509,381.000000,335.000000,46.000000,41.000000,0.000000,0.000000:
// measure 0
2002
0000
0000
0000
,  // measure 1
3003
0000
0000
0000
,  // measure 2
0220
0000
0000
0000
,  // measure 3
0330
0000
0000
0000
,  // measure 4
1001
0000
0000
2002
0000
0000
3003
0000
,  // measure 5
0110
0000
0000
0110
0000
0000
0220
0000
0000
0000
0000
0000
0330
0000
0000
0000
,  // measure 6
1001
0000
0000
2002
0000
0000
3003
0000
,  // measure 7
1001
0000
0000
1001
0000
0000
1001
0000
2002
0000
0000
0000
3003
0000
0000
0000
,  // measure 8
1000
0000
1100
0000
0100
1000
0001
0000
,  // measure 9
0100
0000
0101
0000
0001
1000
0001
0000
,  // measure 10
1000
0000
0101
0000
0001
0010
0100
0000
,  // measure 11
0010
0000
1001
0000
0100
0010
1000
0010
,  // measure 12
0100
0000
1001
0000
0001
0010
0001
0000
,  // measure 13
1000
0000
1100
0000
1000
0010
0100
0000
,  // measure 14
0010
0000
1001
0000
0100
0001
0010
0000
,  // measure 15
0001
1000
0100
0010
0001
0100
0020
0000
,  // measure 16
0130
0010
1000
0000
0010
1000
0001
0000
,  // measure 17
1000
0001
0010
0000
0001
0010
0100
0000
,  // measure 18
0010
0100
0010
0000
0100
0010
0001
0000
,  // measure 19
0010
0001
1000
0000
0001
1000
0100
0000
,  // measure 20
1000
0000
0001
0000
0000
1001
0000
0000
1000
0000
0010
0000
0000
0110
0000
0000
,  // measure 21
0100
0000
0001
0000
0000
0101
0000
0000
0100
0000
0010
0000
0000
0110
0000
0000
,  // measure 22
1001
0000
1001
0000
0000
0220
0000
0330
,  // measure 23
2002
0000
3003
0220
0000
0330
2002
0000
,  // measure 24
0000
3003
0000
0000
0000
0000
0000
0000
0001
0000
0000
0000
0100
0000
0000
0000
0001
0000
0000
0000
0000
0000
0000
0000
1000
0000
0000
0000
0100
0000
0000
0000
,  // measure 25
0010
0001
0100
0000
0010
0000
1000
0001
,  // measure 26
1000
0000
0100
0000
1000
0000
0010
0100
,  // measure 27
0001
0000
0010
0000
0100
0000
0000
0100
0000
0000
0100
0000
0010
0000
0001
0000
,  // measure 28
1000
0000
0000
0000
0110
0000
0000
0110
0000
0000
0110
0000
0000
0000
0100
0000
,  // measure 29
0001
1000
0100
0000
1001
0000
0010
0001
,  // measure 30
0100
0000
0000
0000
0001
0000
0000
0001
0000
0000
0001
0000
1000
0000
0000
0000
,  // measure 31
0001
0000
2000
0001
3001
1000
0010
0000
,  // measure 32
0220
0000
0330
0000
1001
0000
0000
1001
0000
0000
1001
0000
1000
0000
0100
0000
,  // measure 33
0010
0000
0001
0100
0010
0000
0100
0001
,  // measure 34
0100
0000
0001
0000
1000
0000
0000
1000
0000
0000
1000
0000
0001
0000
0010
0000
,  // measure 35
0100
0000
2000
0000
0010
0000
0000
0010
0000
0000
0010
0000
0020
0000
0000
0000
,  // measure 36
3030
0000
0000
0000
1001
0000
0000
1001
0000
0000
1001
0000
0001
0000
0100
0000
,  // measure 37
0001
0010
0100
0000
0010
0001
1000
0100
,  // measure 38
0010
0000
0000
0000
0001
0000
0000
1000
0000
0000
1000
0000
1000
0000
0000
0000
,  // measure 39
1001
0000
0001
0100
0001
1000
0200
0000
,  // measure 40
0300
0000
0010
0001
0010
0000
0001
1000
,  // measure 41
0001
0000
1000
0010
1000
0000
0010
0100
,  // measure 42
0001
0000
0010
0001
0010
0000
1000
0001
,  // measure 43
0100
0000
0010
1000
0001
1000
0100
0010
,  // measure 44
0001
0000
1000
0100
1000
0000
0001
0100
,  // measure 45
0001
0000
1000
0010
0100
0001
0100
0010
,  // measure 46
1000
0102
0100
1000
,  // measure 47
1000
0010
0010
2000
,  // measure 48
3003
0000
0000
0000
0001
0000
0000
0100
0000
0000
0001
0000
1000
0000
0000
0001
,  // measure 49
0000
0000
1000
0000
0100
0000
0000
0010
0000
0000
0001
0000
0100
0000
0000
0010
,  // measure 50
0000
0000
0100
0000
0010
0000
0000
1000
0000
0000
0001
0000
1000
0000
0000
0100
,  // measure 51
0000
0000
0010
0000
0001
0000
0000
0100
0000
0000
0001
0000
1000
0000
0100
0000
,  // measure 52
0010
0000
0001
0000
0100
0000
0000
0100
0000
0000
0010
0000
1000
0000
0000
1000
,  // measure 53
0000
0000
0001
0000
0010
0000
0000
0010
0000
0000
0100
0000
1000
0000
0000
1000
,  // measure 54
0000
0000
0010
0000
0100
0000
0000
0010
0000
0000
0010
0000
1000
0000
0000
0001
,  // measure 55
0000
0000
0001
0000
0010
0000
0000
0100
0000
0000
0100
0000
0010
0000
0001
0000
,  // measure 56
2000
0000
3001
0100
0001
0100
0010
0100
,  // measure 57
0010
0000
1000
0010
1000
0010
0100
0001
,  // measure 58
0100
0000
0001
1000
0001
1000
0001
0100
,  // measure 59
0010
1000
0010
0100
0010
0100
0001
0010
,  // measure 60
0100
0000
0010
0000
0001
0000
0001
0000
0000
0002
0000
0000
1003
0000
1000
0000
,  // measure 61
0000
2000
0000
0000
3100
0000
0100
0000
0000
0200
0000
0000
0310
0000
0010
0000
,  // measure 62
0000
0020
0000
0000
0031
0000
0000
0000
2002
0000
0000
0000
3003
0000
1000
0000
,  // measure 63
0100
0010
0002
0000
0003
0220
0000
0330
,  // measure 64
2002
0000
3003
0000
;

//---------------dance-single - Oni-91----------------
#NOTES:
     dance-single:
     :
     Easy:
     4:
     0.288834,0.344692,0.187042,0.293924,0.000000,227.000000,206.000000,21.000000,33.000000,0.000000,0.000000,0.288834,0.344692,0.187042,0.293924,0.000000,227.000000,206.000000,21.000000,33.000000,0.000000,0.000000:
// measure 0
0200
0000
0000
0000
,  // measure 1
0300
0000
0000
0000
,  // measure 2
0020
0000
0000
0000
,  // measure 3
0030
0000
0000
0000
,  // measure 4
2002
0000
0000
3003
0000
0000
0000
0000
,  // measure 5
0220
0000
0000
0330
0000
0000
0000
0000
,  // measure 6
2002
0000
0000
3003
0000
0000
0000
0000
,  // measure 7
2002
0000
0000
3003
,  // measure 8
1000
0001
1000
0001
,  // measure 9
0100
0010
0010
0000
,  // measure 10
0100
0001
0010
0100
,  // measure 11
0010
0010
0001
0000
,  // measure 12
1000
0001
1000
0010
,  // measure 13
1000
1000
0100
0000
,  // measure 14
0010
0001
0100
0001
,  // measure 15
1000
0100
1000
0001
,  // measure 16
0100
0100
0010
0010
,  // measure 17
1000
1000
0001
0001
,  // measure 18
1000
0100
0010
0001
,  // measure 19
0100
1000
0100
0010
,  // measure 20
1000
0001
1000
0100
,  // measure 21
1000
0010
0100
0001
,  // measure 22
1001
0000
2002
0000
0000
3003
0000
0000
,  // measure 23
0220
0000
0000
0330
0000
0000
2002
0000
,  // measure 24
3003
1000
0000
0100
,  // measure 25
0010
0100
0000
1000
,  // measure 26
0010
0100
0000
0010
,  // measure 27
0100
0001
1000
0001
,  // measure 28
1000
1001
0000
0001
,  // measure 29
0010
0100
0000
0010
,  // measure 30
0000
0001
0000
1000
,  // measure 31
0001
0100
1000
0200
,  // measure 32
0300
2002
3003
0001
,  // measure 33
0100
0001
0001
1000
,  // measure 34
0100
0010
0010
0100
,  // measure 35
0010
0001
1000
0010
,  // measure 36
0100
0220
0330
0010
,  // measure 37
1000
0001
0010
0100
,  // measure 38
0010
0001
0001
1000
,  // measure 39
0001
0100
0010
2002
,  // measure 40
3003
1000
0010
0100
,  // measure 41
0010
1000
1000
0010
,  // measure 42
0100
0001
0010
0100
,  // measure 43
0010
0001
0001
0010
,  // measure 44
0100
1001
1000
0001
,  // measure 45
0100
0001
0001
1000
,  // measure 46
0100
1001
1001
0100
,  // measure 47
0100
0010
0010
2002
,  // measure 48
3003
1000
0100
1000
,  // measure 49
0100
0010
0001
0010
,  // measure 50
0001
1000
0010
0100
,  // measure 51
0001
1000
0100
0010
,  // measure 52
0001
1000
0001
0100
,  // measure 53
0001
0010
0100
0010
,  // measure 54
0001
1000
0010
0100
,  // measure 55
0001
0100
0010
2002
,  // measure 56
3003
1000
0100
1000
,  // measure 57
0001
0100
0001
0010
,  // measure 58
0100
0010
0001
0100
,  // measure 59
1000
0001
0010
1000
,  // measure 60
0001
1000
1000
0001
,  // measure 61
0001
0100
0100
0010
,  // measure 62
0010
0220
0330
0000
,  // measure 63
0110
0000
2002
0000
0000
3003
0000
0000
,  // measure 64
2002
0000
3003
0000
;

//---------------dance-single - Oni-91----------------
#NOTES:
     dance-single:
     :
     Beginner:
     2:
     0.157777,0.199512,0.160322,0.000000,0.000000,124.000000,106.000000,18.000000,0.000000,0.000000,0.000000,0.157777,0.199512,0.160322,0.000000,0.000000,124.000000,106.000000,18.000000,0.000000,0.000000,0.000000:
// measure 0
1001
0000
0000
0000
,  // measure 1
0000
0000
0000
0000
,  // measure 2
1001
0000
0000
0000
,  // measure 3
0000
0000
0000
0000
,  // measure 4
0110
0000
0000
0000
,  // measure 5
1001
0000
0000
0000
,  // measure 6
0110
0000
0000
0000
,  // measure 7
1001
0000
0000
0000
,  // measure 8
1000
0000
0100
0000
,  // measure 9
1000
0000
0000
0000
,  // measure 10
0001
0000
0100
0000
,  // measure 11
0010
0000
0100
0000
,  // measure 12
0001
0000
0010
0000
,  // measure 13
0001
0000
0000
0000
,  // measure 14
1000
0000
0100
0000
,  // measure 15
0010
0000
0001
0000
,  // measure 16
1001
0000
0000
0000
,  // measure 17
1000
0000
0001
0000
,  // measure 18
1000
0000
0010
0000
,  // measure 19
0100
0000
0010
0000
,  // measure 20
0110
0000
0100
0000
,  // measure 21
0001
0000
1000
0000
,  // measure 22
0100
0100
0000
0000
,  // measure 23
0110
0000
0000
1001
,  // measure 24
0000
1001
0000
0000
,  // measure 25
0000
0001
0000
0100
,  // measure 26
0000
0001
0000
0000
,  // measure 27
0000
1000
0000
0000
,  // measure 28
0000
1001
0000
0000
,  // measure 29
0000
0001
0000
0010
,  // measure 30
0000
0100
0000
0000
,  // measure 31
0000
0110
0000
1001
,  // measure 32
0000
1000
0000
0001
,  // measure 33
0000
0100
0000
0010
,  // measure 34
0000
0100
0000
0001
,  // measure 35
0000
1000
0000
0000
,  // measure 36
0000
0001
0000
1000
,  // measure 37
0000
0001
0000
0010
,  // measure 38
0000
0100
0000
0010
,  // measure 39
0000
0001
0000
1000
,  // measure 40
1000
1000
0000
0001
,  // measure 41
0000
0100
0000
0001
,  // measure 42
0000
1000
0000
0100
,  // measure 43
0000
1000
0000
0001
,  // measure 44
0000
1001
0000
1000
,  // measure 45
0000
0001
0000
0100
,  // measure 46
0000
0010
0000
0000
,  // measure 47
0000
0000
0000
0000
,  // measure 48
0000
0100
0000
0001
,  // measure 49
0000
0100
0000
0010
,  // measure 50
0000
1000
0000
0100
,  // measure 51
0000
0010
0000
0000
,  // measure 52
0000
0001
0000
1000
,  // measure 53
0000
0001
0000
1000
,  // measure 54
0000
0100
0000
0010
,  // measure 55
0000
0100
0000
1000
,  // measure 56
1000
1000
0000
0001
,  // measure 57
0000
0100
0000
0010
,  // measure 58
0000
1000
0000
0100
,  // measure 59
0000
1000
0000
0001
,  // measure 60
0000
0010
0000
0010
,  // measure 61
0000
0100
0000
0100
,  // measure 62
0000
1001
0000
0000
,  // measure 63
0000
1001
0000
0000
,  // measure 64
0110
0000
0000
0000
;
