#TITLE:moffing;
#SUBTITLE:;
#ARTIST:猫叉Masterβ2;
#TITLETRANSLIT:;
#SUBTITLETRANSLIT:;
#ARTISTTRANSLIT:;
#GENRE:;
#CREDIT:;
#BANNER:moffing.png;
#BACKGROUND:moffing-bg.png;
#LYRICSPATH:;
#CDTITLE:;
#MUSIC:moffing.mp3;
#OFFSET:-1.780000;
#SAMPLESTART:12.719999;
#SAMPLELENGTH:11.290000;
#SELECTABLE:YES;
#BPMS:0.000000=170.000000
;
#STOPS:
;
#BGCHANGES:;
#KEYSOUNDS:;
#ATTACKS:;

//---------------dance-single - Oni-91----------------
#NOTES:
     dance-single:
     :
     Hard:
     7:
     0.512281,0.499474,0.232855,0.204912,0.041914,385.000000,360.000000,25.000000,22.000000,0.000000,0.000000,0.512281,0.499474,0.232855,0.204912,0.041914,385.000000,360.000000,25.000000,22.000000,0.000000,0.000000:
// measure 0
1000
0000
1001
0000
0001
0100
0000
0100
,  // measure 1
0001
0000
1000
0000
0100
0000
0010
0100
,  // measure 2
0010
0000
0001
1000
0001
0000
0100
0010
,  // measure 3
0200
0000
0010
0000
0301
0000
1000
1002
,  // measure 4
0000
0000
0103
0000
0001
1000
0000
1000
,  // measure 5
0100
0000
0010
0000
0100
0000
0010
0001
,  // measure 6
1000
0000
0010
1000
0001
0000
0100
0001
,  // measure 7
2000
0000
0000
0001
0001
0000
3100
0000
,  // measure 8
0001
0000
1000
0000
0010
0100
0010
0100
,  // measure 9
0020
0000
0000
0000
0030
0000
1000
0001
,  // measure 10
1000
0000
0001
0000
1000
0100
1000
0100
,  // measure 11
2000
0000
0000
0000
3000
0000
0001
0100
,  // measure 12
0001
0000
0010
0000
1100
0000
0010
0001
,  // measure 13
0100
0000
0010
1000
0100
0000
1000
0001
,  // measure 14
1000
0000
0000
0000
0001
0000
0000
0000
0100
0000
0000
0010
0000
0000
0200
0000
,  // measure 15
0000
0000
0000
0310
,  // measure 16
1001
0000
0001
0000
0010
0001
0010
0001
,  // measure 17
2000
0000
0000
0000
3001
0000
1000
0001
,  // measure 18
1000
0000
0010
0000
0100
0001
0100
0001
,  // measure 19
0020
0000
0000
0000
0031
0000
0010
0001
,  // measure 20
0100
0000
0010
0000
1001
0000
0100
0001
,  // measure 21
0010
0000
0100
0010
0001
0000
1000
0001
,  // measure 22
0100
0000
0000
0000
0010
0000
0000
0000
0100
0000
0000
0001
0000
0000
2000
0000
,  // measure 23
0002
0000
3003
1001
,  // measure 24
0100
0100
0100
0000
0010
0000
1001
0000
,  // measure 25
1000
0001
1000
0001
1000
0000
0010
0010
,  // measure 26
0010
0000
0100
0000
1001
0000
0001
0010
,  // measure 27
0001
1000
0100
2000
0000
0000
3001
0001
,  // measure 28
0001
0000
1000
0000
0110
0000
0001
1000
,  // measure 29
0001
0100
0010
0000
1000
1000
1000
0000
,  // measure 30
0001
0000
0110
0000
0010
1000
0001
1000
,  // measure 31
0002
0000
0103
0100
0100
0000
1001
0000
,  // measure 32
0001
0010
0001
1000
0100
0000
1000
0000
,  // measure 33
0001
0000
0100
0100
0100
0000
1001
0000
,  // measure 34
0010
0001
1000
0010
1000
0000
0001
0000
,  // measure 35
0100
0000
0001
0010
0100
0000
0010
0000
,  // measure 36
1001
0000
0001
1000
0100
0000
1000
0001
,  // measure 37
0100
0000
0010
0100
0001
0000
1000
0000
,  // measure 38
0001
0000
0000
0100
0000
0000
0001
0000
2000
0000
0000
0000
0010
0000
0000
0000
,  // measure 39
0001
3001
1000
0101
,  // measure 40
0001
1100
1000
0011
,  // measure 41
0001
1010
0100
1001
,  // measure 42
0010
0000
0000
0100
0000
0000
0010
0000
0200
0000
0000
0000
0001
0000
0000
0000
,  // measure 43
0010
1300
0001
1100
,  // measure 44
1000
0110
0001
1100
,  // measure 45
0010
0100
0001
1000
,  // measure 46
0100
0000
0000
1000
0000
0000
0100
0000
2000
0000
0000
0000
0010
0000
0000
0000
,  // measure 47
0001
0000
3010
0000
1000
0010
0100
0000
,  // measure 48
0010
0100
0001
0000
0100
0001
1000
0000
,  // measure 49
0001
1000
0100
0010
0001
0000
1000
0000
,  // measure 50
0001
0000
0000
0100
0000
0000
0010
0000
0200
0000
0000
0000
1000
0000
0000
0000
,  // measure 51
0010
0000
0301
0000
1000
0100
1000
0000
,  // measure 52
0001
0100
0001
0000
1000
0010
1000
0000
,  // measure 53
0001
0010
0100
0010
0001
0000
1000
0000
,  // measure 54
0001
0000
0000
1000
0000
0000
0001
0000
2000
0000
0000
0000
0001
0000
0000
0000
,  // measure 55
0001
0000
3001
0000
1000
0100
0010
0000
,  // measure 56
0001
0100
0010
0000
1000
0001
0100
0000
,  // measure 57
0001
1000
0100
0000
0010
0001
0100
0010
,  // measure 58
1000
0000
0000
0001
0000
0000
1000
0000
0020
0000
0000
0000
0100
0000
0000
0000
,  // measure 59
0001
0000
0130
0010
0100
0010
1000
0000
,  // measure 60
0100
0010
0001
0000
0100
0010
0100
0000
,  // measure 61
0001
0010
0001
0000
2002
0000
0003
0000
,  // measure 62
0010
0000
0000
0010
0000
0000
0001
0000
0002
0000
0000
0000
0000
0000
0000
0000
,  // measure 63
0000
3003
0001
0100
,  // measure 64
0001
0000
1000
0100
1000
0000
0001
0000
,  // measure 65
0010
0000
0100
0010
0001
0000
0100
0010
,  // measure 66
1000
0000
0001
0100
0002
0000
0000
1000
,  // measure 67
1000
0103
0010
1001
,  // measure 68
0100
0010
1000
0100
0010
0000
0100
0000
,  // measure 69
0010
0000
0001
1000
0100
0000
1000
0001
,  // measure 70
0010
0000
0100
0010
0001
0000
1000
0010
,  // measure 71
0100
0110
1001
0000
;

//---------------dance-single - Oni-91----------------
#NOTES:
     dance-single:
     :
     Medium:
     6:
     0.431114,0.466175,0.130399,0.195598,0.004657,324.000000,310.000000,14.000000,21.000000,0.000000,0.000000,0.431114,0.466175,0.130399,0.195598,0.004657,324.000000,310.000000,14.000000,21.000000,0.000000,0.000000:
// measure 0
1000
0001
0100
0010
,  // measure 1
0200
0000
0000
0000
0310
0000
1000
0010
,  // measure 2
1000
0000
0001
0100
0001
0000
1000
0001
,  // measure 3
2000
0000
0000
0000
3001
0000
0010
0100
,  // measure 4
0010
0000
0002
0000
0010
0000
1003
0001
,  // measure 5
1000
0000
0001
0000
0100
0000
0010
0100
,  // measure 6
0010
0000
1000
0001
1000
0000
0100
0010
,  // measure 7
0200
0010
2000
3300
,  // measure 8
1000
0000
0001
0000
0100
0000
0010
0100
,  // measure 9
0020
0000
0030
1000
,  // measure 10
0100
0000
1000
0000
0001
0000
1000
0001
,  // measure 11
2000
0000
0000
0000
3000
0000
0001
0100
,  // measure 12
0001
0000
1000
0000
0100
0000
1000
0001
,  // measure 13
1000
0000
0010
1000
0010
0000
0100
0001
,  // measure 14
0100
0000
0000
0000
0001
0000
0000
0000
1000
0000
0000
0001
0000
0000
2000
0000
,  // measure 15
0000
0000
0000
3001
,  // measure 16
0100
0000
0001
0000
1000
0000
0001
1000
,  // measure 17
0002
0000
1003
0100
,  // measure 18
0010
0000
0100
0000
1000
0000
0010
1000
,  // measure 19
0020
0000
0000
0000
0130
0000
0010
1000
,  // measure 20
0010
0000
1000
0000
0001
0000
0010
0001
,  // measure 21
1000
0000
0010
1000
0001
0000
0100
0010
,  // measure 22
0100
0010
1000
0001
,  // measure 23
2002
0000
0000
3003
,  // measure 24
0100
0100
0010
0010
,  // measure 25
1000
0000
0001
1000
0001
0000
1000
0000
,  // measure 26
1000
0100
0100
0010
,  // measure 27
0001
0010
0001
2000
0000
0000
3001
0000
,  // measure 28
0001
1000
1000
0010
,  // measure 29
0100
0010
0100
0000
0001
0000
0001
0000
,  // measure 30
0010
0010
0100
1000
,  // measure 31
0100
0000
1001
0001
,  // measure 32
0100
0000
0010
0100
0020
0000
1000
0000
,  // measure 33
0100
1030
0010
1000
,  // measure 34
0100
0000
1000
0001
2000
0000
0010
0000
,  // measure 35
0001
3010
1000
0100
,  // measure 36
0010
0000
0001
0010
0001
0000
0100
0000
,  // measure 37
0010
0000
1000
0010
1000
0000
0001
0000
,  // measure 38
0100
0001
2000
0010
,  // measure 39
0002
3003
0001
0100
,  // measure 40
1000
0100
0001
0010
,  // measure 41
1000
0010
0001
1000
,  // measure 42
0001
0000
1000
0001
0200
0000
0000
0000
,  // measure 43
0000
0000
0300
0010
0100
0000
0001
0000
,  // measure 44
0010
0100
0010
0001
,  // measure 45
0100
0010
1000
0100
,  // measure 46
1000
0000
0001
1000
0200
0000
0000
0000
,  // measure 47
0000
0000
0000
0000
0310
0000
0001
0010
,  // measure 48
0001
0000
1000
0000
0100
0000
1000
0100
,  // measure 49
1000
0000
0001
0000
1000
0000
0010
0100
,  // measure 50
0010
0000
1000
0000
0100
0000
0010
0001
,  // measure 51
0010
0000
0001
0100
0010
0000
0100
0000
,  // measure 52
0001
0000
1000
0010
1000
0000
0001
0000
,  // measure 53
1000
0100
1001
0100
,  // measure 54
0010
0000
0100
0010
0200
0000
0000
0000
,  // measure 55
0000
0300
1001
0100
,  // measure 56
1010
0100
0011
0100
,  // measure 57
1010
0100
0001
1000
,  // measure 58
0100
0000
0010
0001
0100
0000
0001
0000
,  // measure 59
1000
0100
1100
0010
,  // measure 60
1001
0010
0101
0010
,  // measure 61
1001
0010
0110
0100
,  // measure 62
0001
0000
1000
0100
0010
0000
0100
0000
,  // measure 63
1000
0001
1000
0010
,  // measure 64
0100
0000
0001
0010
0100
0000
0010
0000
,  // measure 65
0001
0000
1000
0100
0010
0000
0001
0100
,  // measure 66
0010
0000
1000
0001
1000
0000
0001
0000
,  // measure 67
0100
0000
0010
1000
0100
0000
1001
0000
,  // measure 68
0100
0000
0010
0100
0001
0000
1000
0000
,  // measure 69
0100
0000
0010
0001
0100
0000
0001
1000
,  // measure 70
0100
0000
1000
0010
0200
0000
1000
0000
,  // measure 71
0010
0301
1001
0000
;

//---------------dance-single - Oni-91----------------
#NOTES:
     dance-single:
     :
     Easy:
     5:
     0.351278,0.432877,0.204912,0.363254,0.000000,264.000000,242.000000,22.000000,39.000000,0.000000,0.000000,0.351278,0.432877,0.204912,0.363254,0.000000,264.000000,242.000000,22.000000,39.000000,0.000000,0.000000:
// measure 0
1000
0000
0001
1000
,  // measure 1
0200
0000
0300
0010
,  // measure 2
0001
1000
0001
0100
,  // measure 3
0020
0000
0030
0000
,  // measure 4
0110
0000
0100
0001
,  // measure 5
2000
0000
3000
0001
,  // measure 6
1000
0100
1000
0001
,  // measure 7
0200
0000
0310
0000
,  // measure 8
1000
0100
0010
0010
,  // measure 9
0002
0000
0003
0000
,  // measure 10
0001
1000
0010
0010
,  // measure 11
0200
0000
0300
0000
,  // measure 12
0100
0001
0100
0001
,  // measure 13
1000
0100
1000
0000
,  // measure 14
0001
0010
0001
1000
,  // measure 15
0010
0100
0001
0000
,  // measure 16
1000
0100
1000
1000
,  // measure 17
0002
0010
2000
3003
,  // measure 18
0001
0010
0100
0100
,  // measure 19
2000
0010
0002
3003
,  // measure 20
1000
0100
1000
0100
,  // measure 21
0010
0100
0010
0001
,  // measure 22
1000
0001
0100
0010
,  // measure 23
0220
0000
0000
0330
,  // measure 24
1000
1000
0001
0001
,  // measure 25
0100
0100
0100
0010
,  // measure 26
0010
1000
1000
0001
,  // measure 27
0001
2002
3003
0001
,  // measure 28
0001
1000
1000
0100
,  // measure 29
0100
0100
0010
0010
,  // measure 30
0001
0001
1000
0001
,  // measure 31
2000
3000
0001
0100
,  // measure 32
0001
1000
0200
0001
,  // measure 33
0020
0330
0010
0001
,  // measure 34
1000
0001
0200
0010
,  // measure 35
0002
0303
0001
0100
,  // measure 36
0001
0000
1000
0100
,  // measure 37
1000
0000
0001
0010
,  // measure 38
0100
0001
0100
1000
,  // measure 39
0001
1000
2002
3003
,  // measure 40
0202
0303
2020
3030
,  // measure 41
2200
3300
0010
0001
,  // measure 42
0100
0010
1000
0001
,  // measure 43
0100
0001
0022
0033
,  // measure 44
2200
3300
2002
3003
,  // measure 45
0220
0330
0010
1000
,  // measure 46
0001
1000
0100
1000
,  // measure 47
0001
0010
0110
0100
,  // measure 48
1100
1000
1001
0001
,  // measure 49
0101
0100
0010
1000
,  // measure 50
0100
0010
0001
0100
,  // measure 51
0010
1000
1001
0001
,  // measure 52
0011
0010
0110
0010
,  // measure 53
0011
0001
1000
0001
,  // measure 54
0100
0010
2000
0010
,  // measure 55
0002
3003
0001
0100
,  // measure 56
1000
0100
0001
0010
,  // measure 57
1000
0010
0001
1000
,  // measure 58
0100
0010
0001
0100
,  // measure 59
0010
1000
0001
0010
,  // measure 60
1000
0010
0001
0100
,  // measure 61
1000
0100
0001
1000
,  // measure 62
0010
0100
0001
1000
,  // measure 63
0100
0010
0110
0000
,  // measure 64
0100
0010
0002
0000
,  // measure 65
1003
0001
0100
0100
,  // measure 66
0001
1000
0100
0000
,  // measure 67
1000
0001
1001
0000
,  // measure 68
1000
0010
0200
0000
,  // measure 69
0000
0301
0100
0010
,  // measure 70
0010
1000
0100
0010
,  // measure 71
0001
1000
1001
0000
;

//---------------dance-single - Oni-91----------------
#NOTES:
     dance-single:
     :
     Beginner:
     2:
     0.179631,0.199789,0.046571,0.065199,0.000000,135.000000,130.000000,5.000000,7.000000,0.000000,0.000000,0.179631,0.199789,0.046571,0.065199,0.000000,135.000000,130.000000,5.000000,7.000000,0.000000,0.000000:
// measure 0
1000
0000
0001
0000
,  // measure 1
0200
0000
0300
0000
,  // measure 2
0001
0000
1000
0000
,  // measure 3
0200
0000
0300
0000
,  // measure 4
1000
0000
0001
0000
,  // measure 5
0020
0000
0030
0000
,  // measure 6
0001
0000
1000
0000
,  // measure 7
0020
0000
0030
0000
,  // measure 8
1000
0000
0100
0100
,  // measure 9
0100
0000
1000
0000
,  // measure 10
0001
0000
0100
0100
,  // measure 11
0100
0000
0001
0000
,  // measure 12
1000
0000
0000
0000
,  // measure 13
0001
0000
0000
0000
,  // measure 14
1000
0000
0001
0000
,  // measure 15
1001
0000
0000
0000
,  // measure 16
1000
0000
0010
0010
,  // measure 17
0010
0000
0100
0000
,  // measure 18
0001
0000
0100
0100
,  // measure 19
0100
0000
0001
0000
,  // measure 20
1000
0000
0000
0000
,  // measure 21
0100
0000
0000
0000
,  // measure 22
1000
0000
0001
0000
,  // measure 23
1001
0000
0000
0000
,  // measure 24
1000
0000
0001
0000
,  // measure 25
0100
0100
0100
0100
,  // measure 26
0000
0001
0000
1000
,  // measure 27
0000
0100
0000
0010
,  // measure 28
0000
0100
0000
0010
,  // measure 29
0010
0010
0010
0000
,  // measure 30
0001
0000
1000
0000
,  // measure 31
0000
0000
0001
0000
,  // measure 32
1000
0000
0100
0000
,  // measure 33
0000
0000
1000
0000
,  // measure 34
0001
0000
0100
0000
,  // measure 35
0000
0000
0001
0000
,  // measure 36
0010
0000
0100
0000
,  // measure 37
1000
0000
0001
0000
,  // measure 38
1000
1000
1000
0000
,  // measure 39
0000
0000
1001
0000
,  // measure 40
0001
0000
0100
0000
,  // measure 41
0010
0000
1000
0000
,  // measure 42
0100
0000
1000
0000
,  // measure 43
0000
0000
1000
0000
,  // measure 44
0100
0000
0010
0000
,  // measure 45
0001
0000
0100
0000
,  // measure 46
0010
0000
1000
0000
,  // measure 47
0000
0000
1001
0000
,  // measure 48
0001
0000
0010
0000
,  // measure 49
0001
0000
0100
0000
,  // measure 50
0001
0000
1000
0000
,  // measure 51
0000
0000
1000
0000
,  // measure 52
0100
0000
1000
0000
,  // measure 53
0001
0000
1000
0000
,  // measure 54
0010
0000
0100
0000
,  // measure 55
0000
0000
0110
0000
,  // measure 56
0010
0000
1000
0000
,  // measure 57
0001
0000
0010
0000
,  // measure 58
0100
0000
1000
0000
,  // measure 59
0000
0000
0001
0000
,  // measure 60
1000
0000
0001
0000
,  // measure 61
1000
0000
0100
0000
,  // measure 62
0010
0000
0001
0000
,  // measure 63
0000
0000
1000
0000
,  // measure 64
0001
0000
0200
0000
,  // measure 65
0300
0000
0001
0000
,  // measure 66
1000
0000
0020
0000
,  // measure 67
0030
0000
1000
0000
,  // measure 68
0001
0000
0020
0000
,  // measure 69
0030
0000
0001
0000
,  // measure 70
1000
0000
0100
0000
,  // measure 71
0010
0010
0010
0000
;
