#VERSION:0.83;
#TITLE:メラトニン;
#SUBTITLE:;
#ARTIST:xRGTMx underground;
#TITLETRANSLIT:melatonin;
#SUBTITLETRANSLIT:;
#ARTISTTRANSLIT:;
#GENRE:;
#ORIGIN:;
#CREDIT:;
#BANNER:;
#BACKGROUND:;
#PREVIEWVID:;
#JACKET:;
#CDIMAGE:;
#DISCIMAGE:;
#LYRICSPATH:;
#CDTITLE:;
#MUSIC:Melatonin.mp3;
#OFFSET:-5.500000;
#SAMPLESTART:21.949999;
#SAMPLELENGTH:10.970000;
#SELECTABLE:YES;
#BPMS:0.000=175.000,
112.000=87.500,
118.000=175.000,
119.500=350.000,
122.500=262.500,
124.000=87.500,
140.000=175.000,
180.000=87.500,
184.000=175.000,
192.000=87.500,
196.000=175.000,
204.000=87.500,
208.000=175.000,
216.000=87.500,
220.000=175.000;
#STOPS:;
#DELAYS:;
#WARPS:;
#TIMESIGNATURES:0.000=4=4;
#TICKCOUNTS:0.000=4;
#COMBOS:0.000=1;
#SPEEDS:0.000=1.000=0.000=0;
#SCROLLS:0.000=1.000;
#FAKES:;
#LABELS:0.000=Song Start;
#BGCHANGES:;
#KEYSOUNDS:;
#ATTACKS:
;

//---------------dance-single - Oni-91----------------
#NOTEDATA:;
#CHARTNAME:;
#STEPSTYPE:dance-single;
#DESCRIPTION:Oni-91;
#CHARTSTYLE:;
#DIFFICULTY:Hard;
#METER:11;
#RADARVALUES:0.826490,1.244524,0.195352,0.428272,0.818976,770.000000,744.000000,26.000000,57.000000,0.000000,0.000000,0.000000,0.000000,0.000000,0.826490,1.244524,0.195352,0.428272,0.818976,770.000000,744.000000,26.000000,57.000000,0.000000,0.000000,0.000000,0.000000,0.000000;
#CREDIT:Oni-91;
#NOTES:
// measure 0
0010
0100
0010
0000
1000
0001
0000
1000
,  // measure 1
0100
0010
0100
1000
0001
0000
0100
0000
,  // measure 2
0010
0000
1000
0100
0001
0100
1000
0000
,  // measure 3
0001
0100
0010
0100
1001
0000
0011
0000
,  // measure 4
1100
0100
1000
0001
0100
0010
0100
0001
,  // measure 5
1000
0100
0010
0001
1000
0001
0100
0000
,  // measure 6
0010
1000
0001
0010
0100
0010
0001
1000
,  // measure 7
0100
0010
0001
0100
0010
1000
0001
1000
,  // measure 8
0100
0001
0100
0010
0100
1000
0100
0010
,  // measure 9
0001
0100
0001
1000
0001
0010
0001
0100
,  // measure 10
0010
0100
0001
0010
0100
1000
0001
1000
,  // measure 11
0200
0000
0000
0300
,  // measure 12
1001
0000
0000
0000
0001
0100
0001
1000
0100
0000
0010
0001
1000
0000
0010
0000
,  // measure 13
0101
0000
0000
0000
0000
0000
0010
0000
1000
0000
0100
0000
1000
0000
0000
1000
0000
0000
0001
0000
0000
0001
0000
0000
,  // measure 14
2020
0000
3030
0000
2002
0000
3003
0000
0001
0010
0100
0010
0001
0000
1000
0000
,  // measure 15
0100
0000
1000
0000
0100
0000
1000
0000
0100
0000
1000
0000
0100
0000
0000
0000
0000
0000
0000
0000
0000
0000
0000
0000
1000
0000
0000
0001
0000
0000
1000
0000
0000
0001
0000
0000
1000
0000
0000
0000
0000
0000
0010
0000
0000
0000
0000
0000
,  // measure 16
0101
0000
0000
0000
0000
0000
0100
0000
0010
0000
1000
0000
0001
0000
0000
0100
0000
0000
0001
0000
0000
0010
0000
0000
,  // measure 17
0200
0000
0310
0000
0200
0000
1300
0000
0001
0100
0010
1000
0010
0000
0100
0000
,  // measure 18
2001
0000
0000
0000
0000
0000
0000
0000
0000
0000
0000
0000
3001
0000
0000
0100
0000
0000
0010
0000
0000
1000
0000
0000
0001
0000
0000
0010
0000
0000
0100
0000
1000
0000
0100
0000
2000
0000
0000
0000
0000
0000
0000
0000
0000
0000
0000
0000
,  // measure 19
3010
0000
0000
0100
0000
0000
0010
0000
0000
1000
0000
0000
0001
0000
0000
0000
0000
0000
1000
0000
0000
0000
0000
0000
0100
0000
0000
0000
0000
0000
0010
0000
0001
0000
0010
0000
0001
0000
0000
0000
0000
0000
1000
0000
0000
0000
0000
0000
,  // measure 20
0001
0000
0100
0000
0001
0000
1000
0100
1000
0000
0001
0000
0100
0001
0100
0000
,  // measure 21
0001
0000
0010
0001
0010
0000
0001
0000
0100
0000
0010
0000
1001
0000
0000
0000
,  // measure 22
1000
0000
0100
0000
1000
0000
0001
0010
0100
0000
0010
0000
0001
0100
0010
0000
,  // measure 23
0100
0000
0001
1000
0100
0000
0010
0000
0001
1000
0001
1000
0001
0000
0100
0000
,  // measure 24
0010
0000
0000
0100
0000
0000
0010
0000
0100
0000
0001
0000
1000
0000
0000
0100
0000
0000
0011
0000
0000
1001
0000
0000
,  // measure 25
1000
0000
0100
0000
0010
0000
0100
0000
1000
0001
1000
0001
0100
0000
0010
0000
,  // measure 26
1000
0000
0100
0000
1000
0001
1000
0001
0100
0010
0100
0010
0200
0000
0000
0000
,  // measure 27
0301
0000
0000
0100
0000
0000
0001
0000
0000
1000
0000
0000
0100
0000
0000
0000
0000
0000
0010
0000
0000
0000
0000
0000
0001
0000
0000
0000
0000
0000
1000
0000
0001
0000
1000
0000
0001
0000
0000
0000
0000
0000
1000
0000
0000
0000
0000
0000
,  // measure 28
1200
0000
0000
0010
0000
0000
0001
0000
0000
0010
0000
0000
1000
0000
0000
0010
,  // measure 29
0000
0000
0001
0000
0000
0010
0000
0000
1300
0000
0100
0000
0010
0000
0001
0000
,  // measure 30
0100
0010
1000
0001
1000
1001
0000
0000
,  // measure 31
0101
0000
0000
0000
0010
1000
0100
1000
0001
0000
1000
0000
0001
0000
1000
0000
0001
0100
0001
0100
0000
0010
1000
0100
0010
0001
1000
0000
0010
0000
0010
0000
,  // measure 32
0220
0000
0000
0000
0330
0000
0010
0000
0100
0000
0010
0000
1000
0000
0100
0000
0010
0000
0001
0000
0010
0000
0001
0000
1000
0001
1000
0001
1000
0000
0001
0000
,  // measure 33
1001
0000
0000
0000
0000
0000
0000
0000
0000
0000
0000
0000
0000
0000
0000
0000
0000
0000
0000
0000
0000
0000
0000
0000
0001
0000
0000
0000
0000
0000
0100
0000
0000
0000
0000
0000
0001
0000
0000
0000
0000
0000
1000
0000
0000
0000
0000
0000
0100
0000
0000
0000
0000
0000
0000
0000
0000
0000
0000
0000
0010
0000
0000
0000
0000
0000
0000
0000
0000
0000
0000
0000
0100
0000
0000
0000
0000
0000
0010
0000
0000
0000
0000
0000
0100
0000
0000
0000
0000
0000
1000
0000
0000
0000
0000
0000
0002
0000
0000
0000
0000
0000
0000
0000
0000
0000
0000
0000
1003
0000
0000
0000
0000
0000
0000
0000
0000
0000
0000
0000
0001
0000
0000
0000
0000
0000
0000
0000
0100
0000
0000
0000
0000
0000
0000
0000
0010
0000
0000
0000
0000
0000
0000
0000
2000
0000
0000
0000
0000
0000
0000
0000
0000
0000
0000
0000
3100
0000
0000
0000
0000
0000
0000
0000
0000
0000
0000
0000
0010
0000
0000
0000
0000
0000
0000
0000
0000
0000
0000
0000
0100
0000
0000
0000
0000
0000
0000
0000
0000
0000
0000
0000
,  // measure 34
2002
0000
0000
0000
0000
0000
0000
0000
0000
0000
0000
0000
0000
0000
0000
0000
0000
0000
0000
0000
0000
0000
0000
0000
3003
0000
0000
0000
0000
0000
0000
0000
0000
0000
0000
0000
0010
0000
0000
0000
0000
0000
0000
0000
0000
0000
0000
0000
1001
0000
0000
0000
0000
0000
0000
0000
0000
0000
0000
0000
0000
0000
0000
0000
0000
0000
0000
0000
0000
0000
0000
0000
1000
0000
0000
0000
0000
0000
0000
0000
0100
0000
0000
0000
0000
0000
0000
0000
0010
0000
0000
0000
0000
0000
0000
0000
0001
0000
0000
0000
0000
0000
0000
0000
0000
0000
0000
0000
0100
0000
0000
0000
0000
0000
0000
0000
0000
0000
0000
0000
0010
0000
0000
0000
0000
0000
0100
0000
0000
0000
0000
0000
0010
0000
0000
0000
0000
0000
1000
0000
0000
0000
0000
0000
0001
0000
0000
0000
0000
0000
0000
0000
0000
0000
0000
0000
1000
0000
0000
0000
0000
0000
0000
0000
0000
0000
0000
0000
0100
0000
0000
0000
0000
0000
0000
0000
0000
0000
0000
0000
0100
0000
0000
0000
0000
0000
0000
0000
0000
0000
0000
0000
,  // measure 35
0100
0000
0000
0010
0000
0000
0001
0000
0000
0100
0000
0000
1000
0000
0000
0100
0000
0000
0001
0000
0100
0000
0001
0000
,  // measure 36
0020
0000
0001
0100
0000
0000
1000
0100
0000
0000
0001
0000
1030
0010
0100
0010
,  // measure 37
1000
1002
0000
1003
0001
0100
0010
0100
,  // measure 38
0010
0000
2000
0000
3100
0010
0001
1000
0020
0000
0000
0000
0130
0010
0100
0010
,  // measure 39
0100
0000
0000
1002
0000
0000
0000
0000
0000
0103
0000
0000
0001
0000
0010
0000
0100
0000
2000
0000
0000
0000
0000
0000
,  // measure 40
3001
0100
0100
1000
0100
0100
0002
0000
0000
2003
0000
0000
,  // measure 41
3100
0010
0100
0010
0001
0010
0001
0010
0001
1000
0001
1000
0010
1000
0010
1000
,  // measure 42
0001
0100
0010
1000
0100
0010
0001
1000
0100
1000
0001
0100
0020
0000
0000
0000
,  // measure 43
1030
0100
1000
0000
0001
0000
0100
0010
0100
0000
0001
0000
0010
0001
0010
0000
,  // measure 44
0100
0000
1000
0100
1000
0000
0001
0000
1000
0010
1000
0000
0001
0100
0001
0000
,  // measure 45
1000
0000
0000
0000
0000
0000
0000
0000
0000
0000
0000
0000
0000
0000
0000
0000
0000
0000
0000
0000
0000
0000
0000
0000
0001
0000
0000
0000
0000
0000
0010
0000
0000
0000
0000
0000
0100
0000
0000
0000
0000
0000
0010
0000
0000
0000
0000
0000
0002
0000
0000
0000
0000
0000
0000
0000
0000
0000
0000
0000
0000
0000
0000
0000
0000
0000
0000
0000
0000
0000
0000
0000
1003
0000
0000
0000
0000
0000
0010
0000
0000
0000
0000
0000
0100
0000
0000
0000
0000
0000
0010
0000
0000
0000
0000
0000
1000
0000
0000
0000
0000
0000
0000
0000
0100
0000
0000
0000
0000
0000
0000
0000
0010
0000
0000
0000
0000
0000
0000
0000
0001
0000
0000
0000
0000
0000
0000
0000
0000
0000
0000
0000
1000
0000
0000
0000
0000
0000
0000
0000
0000
0000
0000
0000
2002
0000
0000
0000
0000
0000
0000
0000
0000
0000
0000
0000
0000
0000
0000
0000
0000
0000
0000
0000
0000
0000
0000
0000
0003
0000
0000
0000
0000
0000
0000
0000
0000
0000
0000
0000
3000
0000
0000
0000
0000
0000
0000
0000
0000
0000
0000
0000
,  // measure 46
0001
0100
0010
0000
1000
0000
0100
0010
0001
0000
1000
0000
0001
0100
0010
0000
,  // measure 47
1000
0000
0100
0010
0001
0000
1000
0000
0001
0100
0001
0000
1000
0100
1000
0000
,  // measure 48
0001
0000
0000
0000
1000
0100
0010
0001
0200
0000
0000
0000
0310
0000
1000
0000
1001
0000
0000
0000
0001
0010
0100
0010
0002
0000
0000
0000
1000
0000
1003
0000
,  // measure 49
1000
0100
0010
0000
0001
0000
0100
0010
1000
0000
0100
0000
0010
0001
0100
0000
,  // measure 50
0001
0000
1000
0010
0100
0000
0010
0000
1000
0001
1000
0000
0100
0010
0100
0000
,  // measure 51
2000
0000
3200
0000
0320
0000
0032
0000
1003
0100
0010
0001
0100
0000
0010
0000
2002
0000
3003
0000
1000
0001
1000
0001
0200
0000
0300
0000
0000
0000
0000
0000
,  // measure 52
0001
0100
1000
0000
0100
0000
0001
0100
1000
0000
0100
0000
0001
0010
0100
0000
,  // measure 53
0010
0000
0001
0010
0100
0000
0010
0000
0001
1000
0001
0000
0100
0001
0100
0000
,  // measure 54
0001
0000
0100
0000
1000
0000
0100
0000
0001
0000
1000
0000
0200
0000
0000
0000
0000
0000
0300
0000
0000
0000
0000
0000
2002
0000
0000
0000
0000
0000
3003
0000
0000
1000
0000
0000
0100
0000
0010
0000
0001
0000
1000
0000
0000
0000
0000
0000
,  // measure 55
2001
0000
0000
0001
0000
0000
0010
0000
,  // measure 56
0000
0010
0000
0000
3200
0000
0320
0000
,  // measure 57
0032
0000
0000
1000
0000
0000
0100
0000
,  // measure 58
0000
0100
0000
0000
0023
0000
0230
0000
,  // measure 59
0320
0000
0000
0001
0000
0000
0001
0000
,  // measure 60
0000
0100
0000
0000
0032
0000
2003
0000
,  // measure 61
3020
0000
0000
0230
0000
0000
0302
0000
,  // measure 62
0000
2003
0000
0000
3200
0000
0320
0000
,  // measure 63
0031
0010
0001
0010
0100
1000
0100
1000
,  // measure 64
0010
0100
0001
0100
0010
1000
0100
1000
,  // measure 65
0001
0100
0010
0100
0001
1000
0100
0010
,  // measure 66
0001
0000
0000
1000
0000
0000
0001
0000
0100
0000
0000
0010
0000
0000
0100
0000
,  // measure 67
0001
0100
0010
1000
0100
0010
0001
0100
,  // measure 68
1000
0100
0010
0100
0001
0010
0100
0010
,  // measure 69
0001
1000
0100
0010
0100
1000
0001
0100
,  // measure 70
0010
0000
1000
0000
0100
0000
0010
0000
0001
0000
1000
0001
1000
0000
0001
0000
,  // measure 71
1000
0000
0100
0000
1000
0000
0001
0100
0001
0000
1000
0000
0001
0010
0001
0010
,  // measure 72
0100
0000
0010
0000
0001
0000
0100
0000
0001
0100
0010
1000
0100
0010
0001
1000
,  // measure 73
0100
0000
1000
0000
0001
0100
0010
0100
0001
0000
1000
0000
0100
0000
0010
0001
,  // measure 74
0010
0000
0001
1000
0010
0000
0100
0000
0010
0000
1000
0100
1000
0001
0010
0100
,  // measure 75
1000
0100
0010
0001
0000
1000
0001
0000
1000
0010
0100
0001
0000
0100
0001
1000
,  // measure 76
0100
0000
1000
0010
0100
0000
0001
1000
0100
0000
1000
0001
0100
0000
0010
1000
,  // measure 77
0100
0000
0010
0001
0010
0001
1000
0001
1000
0000
0010
0100
0010
1000
0001
0100
,  // measure 78
0001
0000
1000
0000
0100
0000
0010
0001
1000
0010
0100
0001
0200
0000
0300
0000
;

//---------------dance-single - Oni-91----------------
#NOTEDATA:;
#CHARTNAME:;
#STEPSTYPE:dance-single;
#DESCRIPTION:Oni-91;
#CHARTSTYLE:;
#DIFFICULTY:Medium;
#METER:9;
#RADARVALUES:0.572103,0.888946,0.135244,0.225406,0.214136,533.000000,515.000000,18.000000,30.000000,0.000000,0.000000,0.000000,0.000000,0.000000,0.572103,0.888946,0.135244,0.225406,0.214136,533.000000,515.000000,18.000000,30.000000,0.000000,0.000000,0.000000,0.000000,0.000000;
#CREDIT:Oni-91;
#NOTES:
// measure 0
1000
0000
0000
0001
0000
0000
1000
0000
,  // measure 1
0000
0001
0000
0000
0100
0000
0010
0000
,  // measure 2
0100
0000
0000
0010
0000
0000
0100
0000
,  // measure 3
0000
0010
0000
0000
1000
0000
0100
0000
,  // measure 4
1000
0000
1001
0000
0001
0100
0010
0000
,  // measure 5
0100
0010
1000
0001
1000
0100
0010
0000
,  // measure 6
0100
0000
1001
0000
0001
0100
0001
0000
,  // measure 7
1000
0100
0010
0000
0001
0100
0010
0000
,  // measure 8
1000
0010
1000
0001
0100
0001
1000
0100
,  // measure 9
1000
0001
0010
0100
0010
0001
1000
0100
,  // measure 10
0010
0100
1000
0001
0100
0010
1000
0001
,  // measure 11
0200
0000
0000
0300
,  // measure 12
2001
0000
3001
0010
0100
0010
0100
0010
,  // measure 13
0001
0000
0000
0000
0000
0000
1000
0000
0010
0000
1000
0000
0010
0000
0000
0100
0000
0000
0001
0000
0000
1000
0000
0000
,  // measure 14
0100
0000
0000
0000
1100
0000
0000
0000
1000
0001
1000
0001
1000
0000
0000
0000
,  // measure 15
0102
0000
0103
0000
0010
0100
0001
1000
,  // measure 16
1100
0000
0010
0001
0101
0000
0010
0100
,  // measure 17
0001
0000
0100
0000
1000
0000
0100
0000
0010
0100
0010
0100
0010
0000
0100
0000
,  // measure 18
0002
0000
1003
0100
0010
0001
0100
0000
,  // measure 19
0010
0100
0010
0100
0010
0000
0000
0000
1000
0001
1000
0001
1000
0000
0100
0000
,  // measure 20
1000
0100
0010
0100
0010
0001
0010
0001
,  // measure 21
1000
0001
1000
0010
0100
0001
0010
0000
,  // measure 22
0001
0100
0001
1000
0100
1000
0001
0010
,  // measure 23
0100
0010
0001
1000
0010
0100
0001
0000
,  // measure 24
0100
0010
1000
0100
0001
0100
0010
0001
,  // measure 25
0010
0001
1000
0010
0100
0010
1000
0100
,  // measure 26
0010
0100
1000
0100
0010
0001
0010
0100
,  // measure 27
0010
0001
1000
0010
0100
0001
1000
0100
,  // measure 28
2000
0000
0000
3200
0000
0000
0320
0000
0000
0032
0000
0000
0203
0000
0000
0320
,  // measure 29
0000
0000
2030
0000
0000
3002
0000
0000
1003
0000
0100
0000
0010
0000
0001
0000
,  // measure 30
0000
1000
0001
1000
0001
1000
0000
0000
,  // measure 31
0001
0000
0000
0000
1000
0100
0010
0100
1000
0100
0010
0100
0010
0001
1000
0010
,  // measure 32
0110
0000
0000
0000
0001
1000
0010
0100
0001
1000
0010
0100
0001
0010
0001
1000
,  // measure 33
0001
0000
0100
0001
1000
0100
0010
0100
0001
0100
0010
0100
0001
0100
0010
0001
,  // measure 34
1000
0000
0000
0010
0100
0000
0001
0000
1000
0001
0100
0010
1000
0000
0100
0000
,  // measure 35
0010
0001
0100
0001
2001
0000
3020
0000
,  // measure 36
0130
0010
1000
0100
1000
0001
0010
0000
,  // measure 37
0001
2000
0000
3100
0010
0100
1000
0000
,  // measure 38
0012
0000
0103
0001
1000
0000
0001
1000
,  // measure 39
0100
0010
0100
1000
0001
0100
0001
0000
,  // measure 40
1000
0001
1000
0001
1000
0001
1000
0000
0000
0110
0000
0000
,  // measure 41
1000
0100
0010
0100
0010
0001
0010
0001
,  // measure 42
1000
0010
0100
0001
0100
0010
1000
0000
,  // measure 43
0001
0100
0000
0100
0001
0000
0001
1000
,  // measure 44
0000
1000
0100
0010
0001
0100
0010
0000
,  // measure 45
1000
0000
0101
0000
0001
1000
1100
0000
,  // measure 46
0001
0000
0100
0010
0000
1000
0010
0000
,  // measure 47
0100
0001
0000
0010
0001
0000
1000
0000
,  // measure 48
0100
0000
1000
0001
1000
0000
0000
0000
0010
0000
0000
0100
0001
0000
1000
0000
,  // measure 49
0001
0100
0010
0100
0000
0010
1000
0001
,  // measure 50
1000
0100
0000
0010
0001
0000
0110
0000
,  // measure 51
1000
0001
1000
0001
0200
0000
0320
0000
1030
0000
0100
0010
0100
0000
0010
0000
,  // measure 52
0001
0100
0010
0100
0001
1000
0100
0010
,  // measure 53
0100
1000
0001
1000
0010
0000
0110
0000
,  // measure 54
2002
0000
0000
0000
3003
0000
0000
0000
0001
1000
0000
1000
0001
0000
0000
0000
,  // measure 55
2001
0000
0000
0001
0000
0000
0001
0000
,  // measure 56
0000
0001
0000
0000
0010
0000
0010
0000
,  // measure 57
3020
0000
0000
0100
0000
0000
0100
0000
,  // measure 58
0000
0100
0000
0000
1000
0000
1000
0000
,  // measure 59
2030
0000
0000
0001
0000
0000
0001
0000
,  // measure 60
0000
0001
0000
0000
0100
0000
0100
0000
,  // measure 61
3200
0000
0000
0320
0000
0000
0032
0000
,  // measure 62
0000
2003
0000
0000
3020
0000
0230
0000
,  // measure 63
0310
0000
0010
1000
0000
1000
0100
0000
,  // measure 64
0100
0010
0000
0010
0001
0000
1000
0000
,  // measure 65
0001
0000
0100
0001
0000
1000
0010
0000
,  // measure 66
1000
0000
0000
0100
0000
0000
0010
0000
0001
0000
0000
0100
0000
0000
0010
0000
,  // measure 67
1000
0010
0100
0001
0000
0100
0001
0000
,  // measure 68
1000
0100
0000
0010
0001
0000
1100
0000
,  // measure 69
0001
1000
0001
0100
0000
0010
1000
0100
,  // measure 70
0010
0000
0001
0000
0010
0000
0001
0000
1000
0000
0000
0001
0000
0000
1000
0000
,  // measure 71
0001
0100
0010
1000
0100
0010
0100
0010
,  // measure 72
0001
1000
0100
1000
0010
0100
0010
1000
,  // measure 73
0100
0000
0010
0000
0000
0001
0000
0000
0100
0000
0000
0010
0000
0000
1000
0000
,  // measure 74
0100
0000
0000
0010
0000
0000
0100
0000
0000
0010
0000
0000
0001
0000
0100
0000
,  // measure 75
0001
1000
0100
0100
1000
0001
0100
0100
,  // measure 76
0010
1000
0100
0010
0100
0010
0001
0100
,  // measure 77
0001
0100
0010
1000
0100
0010
0001
0100
,  // measure 78
0010
0000
0100
0000
0010
0000
1000
0001
1000
0001
1000
0001
0200
0000
0300
0000
;

//---------------dance-single - Oni-91----------------
#NOTEDATA:;
#CHARTNAME:;
#STEPSTYPE:dance-single;
#DESCRIPTION:Oni-91;
#CHARTSTYLE:;
#DIFFICULTY:Easy;
#METER:7;
#RADARVALUES:0.400364,0.444473,0.097676,0.165298,0.026297,373.000000,360.000000,13.000000,22.000000,0.000000,0.000000,0.000000,0.000000,0.000000,0.400364,0.444473,0.097676,0.165298,0.026297,373.000000,360.000000,13.000000,22.000000,0.000000,0.000000,0.000000,0.000000,0.000000;
#CREDIT:Oni-91;
#NOTES:
// measure 0
1000
0001
0000
0100
,  // measure 1
0010
0100
0000
0010
,  // measure 2
1000
0100
0000
0010
,  // measure 3
0001
1000
0000
0001
,  // measure 4
0100
0000
0001
0000
1000
0100
1000
0000
,  // measure 5
0001
0000
1000
0000
0100
0000
0010
0001
,  // measure 6
0100
0000
0010
0000
0100
0010
0100
0000
,  // measure 7
0010
0000
1000
0001
1000
0100
0010
0000
,  // measure 8
0100
0000
0010
0000
0001
1000
0001
0000
,  // measure 9
0100
0000
0010
0000
1000
0010
1000
0000
,  // measure 10
0001
1000
0001
1000
0001
1000
0001
1000
,  // measure 11
0200
0000
0000
0300
,  // measure 12
1000
0000
0100
1000
0100
0000
1000
0000
,  // measure 13
0001
0100
0010
0100
,  // measure 14
0001
0000
0010
0001
0010
0000
0001
0000
,  // measure 15
1000
0100
0010
0000
0001
0100
0010
0000
,  // measure 16
1000
0000
0002
0000
0103
0001
1000
0000
,  // measure 17
1100
0000
0101
0000
0001
1000
0001
0000
,  // measure 18
1001
0000
1000
0000
0001
0001
0001
0000
,  // measure 19
0100
0000
0010
0000
1000
0100
0010
0000
,  // measure 20
0100
0010
0100
0000
0010
0001
1000
0000
,  // measure 21
0001
0000
0100
0000
0010
0100
0001
0000
,  // measure 22
1000
0100
1000
0000
0001
0100
0001
0000
,  // measure 23
1000
0000
0100
0000
0010
0001
0100
0001
,  // measure 24
1000
0000
0100
0010
0100
0000
0010
0000
,  // measure 25
0001
0000
1000
0000
0010
0010
0010
0000
,  // measure 26
0100
0000
0001
1000
0001
1000
0100
0000
,  // measure 27
1000
0100
1000
0000
0001
0100
0001
1000
,  // measure 28
0100
0000
0000
0100
0000
0000
0010
0000
0000
0010
0000
0000
0001
0000
0000
0001
,  // measure 29
0000
0000
1000
0000
0000
1000
0000
0000
2002
0000
0000
0000
0000
0000
0000
0000
,  // measure 30
0000
0000
0000
0000
0000
3003
0000
0000
,  // measure 31
1001
0000
0110
0000
0010
1000
0001
1000
,  // measure 32
0100
0000
0010
0000
0100
0000
0010
0001
,  // measure 33
1000
0000
0001
0000
0100
0010
1000
0100
,  // measure 34
1000
0000
0001
0000
0010
0001
0100
0001
,  // measure 35
1000
0000
1000
0000
0001
0100
0001
0100
,  // measure 36
0010
0000
0100
0000
0010
1000
0001
0000
,  // measure 37
1000
0200
0000
0010
0310
0000
0100
0000
,  // measure 38
0010
0001
1000
0000
0001
0100
0010
0100
,  // measure 39
0010
2000
3001
0000
1000
0100
1000
0000
,  // measure 40
0001
0100
0010
1000
0001
0000
1000
0000
,  // measure 41
0200
0000
2300
0000
3020
0000
0130
0010
,  // measure 42
0100
0010
0100
0010
0100
0001
1000
0000
,  // measure 43
0001
1000
0000
1000
0001
0000
0010
0100
,  // measure 44
0000
0100
0010
0000
1000
0000
0001
0000
,  // measure 45
1000
0100
0010
0001
,  // measure 46
1000
0100
0000
0100
0010
0000
0010
0001
,  // measure 47
0000
0001
0100
0000
0001
0100
0001
0000
,  // measure 48
1000
0010
0100
0001
,  // measure 49
1000
0100
0000
1000
0100
0000
0010
0001
,  // measure 50
0000
0010
0001
0000
1000
0001
1000
0000
,  // measure 51
0001
1000
0010
0100
,  // measure 52
0010
0100
0000
0010
0100
0000
0001
1000
,  // measure 53
0000
0001
1000
0000
0001
1000
0100
1000
,  // measure 54
0001
0010
0001
1001
,  // measure 55
2001
0000
0000
0000
,  // measure 56
3200
0000
0000
0000
,  // measure 57
0020
0000
0000
0000
,  // measure 58
0000
0000
0000
0330
,  // measure 59
1002
0000
0000
0000
,  // measure 60
0203
0000
0000
0000
,  // measure 61
0020
0000
0000
0000
,  // measure 62
0000
0000
0000
0330
,  // measure 63
1002
0000
0000
1000
0000
0000
0100
0000
,  // measure 64
0000
0100
0000
0000
1003
0000
0100
0000
,  // measure 65
0120
0000
0000
0100
0000
0000
0001
0000
,  // measure 66
0031
0000
0000
0001
0000
0000
0001
0000
1000
0000
0000
1000
0000
0000
1000
0000
,  // measure 67
0002
0000
0000
0100
0000
0000
1000
0000
,  // measure 68
0000
0100
0000
0000
2003
0000
3020
0000
,  // measure 69
0230
0000
0000
1000
0000
0000
0010
0000
,  // measure 70
0000
0000
0001
0000
0000
0000
0000
0000
0310
0000
0000
0100
0000
0000
0010
0000
,  // measure 71
1000
0000
1100
0000
0010
0001
0100
0001
,  // measure 72
1000
0000
0101
0000
0001
0100
0010
1000
,  // measure 73
0100
0000
0010
0000
0100
0010
0001
0100
,  // measure 74
0010
0000
0100
0000
0010
1000
0001
0000
,  // measure 75
1000
0100
1000
0000
0001
0100
0001
0000
,  // measure 76
1000
0010
0100
0000
0001
0010
0100
0000
,  // measure 77
0010
0001
1000
0100
1000
0100
1000
0000
,  // measure 78
0010
1000
0001
0100
0010
0100
0020
0030
;

//---------------dance-single - Oni-91----------------
#NOTEDATA:;
#CHARTNAME:;
#STEPSTYPE:dance-single;
#DESCRIPTION:Oni-91;
#CHARTSTYLE:;
#DIFFICULTY:Beginner;
#METER:4;
#RADARVALUES:0.245800,0.295846,0.082649,0.202866,0.000000,229.000000,218.000000,11.000000,27.000000,0.000000,0.000000,0.000000,0.000000,0.000000,0.245800,0.295846,0.082649,0.202866,0.000000,229.000000,218.000000,11.000000,27.000000,0.000000,0.000000,0.000000,0.000000,0.000000;
#CREDIT:Oni-91;
#NOTES:
// measure 0
2000
0000
3000
0000
,  // measure 1
0002
0000
0003
0000
,  // measure 2
0200
0000
0000
0000
,  // measure 3
0300
0000
0000
0000
,  // measure 4
0010
0100
0010
1000
,  // measure 5
0001
1000
0100
0000
,  // measure 6
0010
0001
1000
0001
,  // measure 7
0100
0010
1000
0010
,  // measure 8
0100
0100
0100
0000
,  // measure 9
0010
0010
0010
0000
,  // measure 10
1000
0001
0010
0100
,  // measure 11
2002
0000
0000
3003
,  // measure 12
1000
0001
0100
0100
,  // measure 13
0100
0010
1000
0000
,  // measure 14
0001
0010
0010
0100
,  // measure 15
0010
0001
1000
0000
,  // measure 16
0001
1000
0100
0010
,  // measure 17
0010
0100
1000
0000
,  // measure 18
0001
0010
0100
0010
,  // measure 19
0001
1000
0001
0000
,  // measure 20
1000
1000
0001
0001
,  // measure 21
0100
0010
1000
0001
,  // measure 22
0010
0010
0100
0100
,  // measure 23
0010
0001
1000
0001
,  // measure 24
0100
0010
1000
0100
,  // measure 25
1000
0001
0010
0100
,  // measure 26
0010
0001
0100
0010
,  // measure 27
1000
0100
1000
0001
,  // measure 28
2002
0000
0000
0000
,  // measure 29
0000
3003
0220
0000
,  // measure 30
0000
0000
0000
0000
0000
0330
0000
0000
,  // measure 31
1001
0000
0100
0001
,  // measure 32
1000
0000
0100
0010
,  // measure 33
0001
0000
1000
0001
,  // measure 34
1000
0010
0100
0001
,  // measure 35
1000
0000
0001
0100
,  // measure 36
0001
1000
0100
0010
,  // measure 37
0001
0000
1000
0000
,  // measure 38
0001
0000
0100
0010
,  // measure 39
0100
0000
0010
1000
,  // measure 40
0001
0010
0100
0010
,  // measure 41
0001
0000
1000
0000
,  // measure 42
0100
1000
0001
1000
,  // measure 43
1001
0000
0001
0100
,  // measure 44
0010
1000
0100
0010
,  // measure 45
0200
0010
1000
0310
,  // measure 46
1001
0000
0001
0100
,  // measure 47
0010
1000
0010
0100
,  // measure 48
0002
0010
1000
0013
,  // measure 49
1001
0000
1000
0100
,  // measure 50
0010
0001
0100
0010
,  // measure 51
2000
0010
0001
3010
,  // measure 52
0110
0000
0100
0001
,  // measure 53
0010
0100
0010
0001
,  // measure 54
0020
0100
0001
0130
,  // measure 55
2002
0000
0000
0000
,  // measure 56
3000
0000
0000
0000
,  // measure 57
2000
0000
0000
0000
,  // measure 58
0000
0000
0000
3003
,  // measure 59
0220
0000
0000
0000
,  // measure 60
0030
0000
0000
0000
,  // measure 61
0020
0000
0000
0000
,  // measure 62
0000
0000
0000
0330
,  // measure 63
2000
0000
0000
0000
,  // measure 64
3002
0000
0000
0000
,  // measure 65
0203
0000
0000
0000
,  // measure 66
0010
0010
0010
0010
,  // measure 67
0320
0000
0000
0000
,  // measure 68
2030
0000
0000
0000
,  // measure 69
0002
0000
0000
0000
,  // measure 70
0000
0000
0000
3003
,  // measure 71
1000
0100
0001
0100
,  // measure 72
1000
0001
1000
0001
,  // measure 73
0100
1000
0100
0001
,  // measure 74
0010
0100
0010
0001
,  // measure 75
1000
0100
0010
0001
,  // measure 76
0100
0010
1000
0010
,  // measure 77
0100
0001
1000
0100
,  // measure 78
0010
0001
2002
3003
;
