#TITLE:jelly kiss;
#SUBTITLE:(Kobo's Step Style);
#ARTIST:Togo Project feat. Sana;
#TITLETRANSLIT:;
#SUBTITLETRANSLIT:;
#ARTISTTRANSLIT:;
#GENRE:;
#CREDIT:;
#BANNER:jelly kiss (Kobo's Step Style).png;
#BACKGROUND:jelly kiss (Kobo's Step Style)-bg.png;
#LYRICSPATH:;
#CDTITLE:;
#MUSIC:jelly kiss (Kobo's Step Style).mp3;
#OFFSET:-8.919999;
#SAMPLESTART:58.680000;
#SAMPLELENGTH:14.220000;
#SELECTABLE:YES;
#BPMS:0.000000=135.000000
;
#STOPS:175.500000=3.556000
;
#BGCHANGES:;
#KEYSOUNDS:;
#ATTACKS:;

//---------------dance-single - Oni-91----------------
#NOTES:
     dance-single:
     :
     Hard:
     6:
     0.348875,0.338672,0.092156,0.313329,0.009216,265.000000,255.000000,10.000000,34.000000,0.000000,0.000000,0.348875,0.338672,0.092156,0.313329,0.009216,265.000000,255.000000,10.000000,34.000000,0.000000,0.000000:
// measure 0
0001
0000
1000
0000
0010
0100
0010
0200
,  // measure 1
0000
0000
0301
0000
1000
0100
0010
0001
,  // measure 2
0100
0000
0001
0000
1000
0001
1000
0002
,  // measure 3
0000
0010
1000
0103
,  // measure 4
0010
0000
0100
0000
0001
1000
0001
2000
,  // measure 5
0000
0000
3001
0010
0000
0001
0010
0001
,  // measure 6
0200
0000
0310
0100
0001
0000
1000
0000
,  // measure 7
0001
0010
0001
0000
1000
0100
0010
0100
,  // measure 8
1000
0000
0010
0100
0010
0000
1000
0000
,  // measure 9
0001
0010
0100
0010
0100
0010
0001
0000
,  // measure 10
2001
0000
0010
0010
0020
0000
3030
0000
,  // measure 11
1000
0001
0100
0000
0001
0000
1000
0000
,  // measure 12
0021
0000
0100
0100
0200
0000
0330
0000
,  // measure 13
0010
0000
0001
0000
1000
0000
0000
0000
0001
0000
0000
0100
0000
0000
0001
0000
,  // measure 14
2002
0000
3003
0000
1000
0100
1000
0002
,  // measure 15
0000
0000
0103
0001
0000
0001
0100
0010
,  // measure 16
1000
0000
0001
0010
0100
0000
0010
0200
,  // measure 17
0000
0000
0001
0000
0010
0000
1300
0100
,  // measure 18
1000
0000
0001
0100
0001
1000
0001
1000
,  // measure 19
0100
0000
0010
0100
0000
0010
0001
1000
,  // measure 20
0020
0000
0100
0000
1000
0000
0130
0001
,  // measure 21
1000
0100
0010
0001
0000
1000
0001
1000
,  // measure 22
0020
0000
0100
0100
0200
0000
0330
0000
,  // measure 23
0010
0000
0100
0000
0010
0000
0000
0000
1001
0000
0000
1001
0000
0000
2002
0000
,  // measure 24
0000
0000
0000
0000
,  // measure 25
0000
0000
0000
0000
,  // measure 26
3003
0000
0000
1000
0000
0001
0100
0002
,  // measure 27
0000
0000
0000
0003
,  // measure 28
1001
0000
0100
0000
0010
0100
0001
2000
,  // measure 29
0000
0000
0010
0010
0000
0001
3001
0000
,  // measure 30
0100
0010
0001
0000
0100
0010
1000
0002
,  // measure 31
0000
1000
0000
0103
0000
0001
1000
0000
,  // measure 32
0001
0010
0002
0000
0010
0000
1003
0000
,  // measure 33
1000
0010
0100
0001
0000
0001
0100
0010
,  // measure 34
0200
0000
1000
0000
0010
0000
0001
0001
,  // measure 35
0000
0010
0000
0002
0000
0000
0303
0000
,  // measure 36
2001
0000
0000
0001
0000
0100
3100
0000
,  // measure 37
1002
0000
0000
1000
0000
0100
0103
0000
,  // measure 38
0200
0000
0010
0000
0001
0001
0301
0000
,  // measure 39
0020
0000
0001
0000
0100
0100
0130
0000
,  // measure 40
0010
0000
0001
0000
1000
0001
1000
0001
,  // measure 41
1000
0000
0010
0000
0100
0010
2000
0000
,  // measure 42
0010
0001
0010
0001
,  // measure 43
0100
0000
0000
0000
0000
0000
0000
0000
0010
0000
0000
0000
0000
0000
0000
0000
0002
0000
0000
0000
0000
0000
0000
0000
0000
0000
0000
0000
0000
3003
0000
0000
,  // measure 44
0000
0000
0000
0000
1000
0001
1000
0000
,  // measure 45
0001
0100
0001
0200
0000
1000
0000
0010
,  // measure 46
0000
0001
0301
0000
1000
0100
0010
0000
,  // measure 47
0100
0010
0100
2000
0000
0010
0000
0001
,  // measure 48
0000
0100
3100
0000
1000
0100
0010
0002
,  // measure 49
0000
1000
1003
0000
0001
0100
0010
2000
,  // measure 50
0000
0010
3010
0000
0100
0000
1001
0000
,  // measure 51
0001
0010
0100
0020
0000
0001
0000
0130
,  // measure 52
0000
0010
0001
1000
0010
0000
0000
0000
;

//---------------dance-single - Oni-91----------------
#NOTES:
     dance-single:
     :
     Medium:
     4:
     0.264619,0.290290,0.092156,0.350192,0.000000,201.000000,191.000000,10.000000,38.000000,0.000000,0.000000,0.264619,0.290290,0.092156,0.350192,0.000000,201.000000,191.000000,10.000000,38.000000,0.000000,0.000000:
// measure 0
0001
0000
0100
0000
0001
0000
1000
0002
,  // measure 1
0000
0010
1000
0103
,  // measure 2
0001
0000
0100
0000
0010
0000
1000
0200
,  // measure 3
0000
0000
0001
0000
0010
0010
0310
0000
,  // measure 4
0001
0000
1000
0000
0001
0000
1000
0020
,  // measure 5
0000
0000
0100
0000
1030
0000
0001
1000
,  // measure 6
0002
0010
2000
3003
,  // measure 7
1000
0010
1000
0000
0001
0100
0001
0000
,  // measure 8
2000
0100
0002
3003
,  // measure 9
0010
0001
0010
0000
0100
1000
0100
0000
,  // measure 10
1001
0000
0001
0100
0020
0000
0000
0000
,  // measure 11
1030
0000
0100
0000
0010
0001
0100
0000
,  // measure 12
1001
0000
1000
0100
2000
0000
0000
0000
,  // measure 13
3001
0100
2002
3003
,  // measure 14
1001
0000
1000
0000
0100
0000
1000
0002
,  // measure 15
0000
0010
1000
0103
,  // measure 16
0100
0000
0010
0000
1000
0000
0001
0010
,  // measure 17
0100
0000
0010
0000
0001
1000
0001
0000
,  // measure 18
0100
0000
0010
0000
0100
0000
0001
0200
,  // measure 19
0000
0010
0001
0310
,  // measure 20
0100
0000
0010
1000
0001
0000
0010
0000
,  // measure 21
0001
0100
0001
0000
1000
0100
1000
0000
,  // measure 22
0002
0010
2000
3003
,  // measure 23
1000
0100
0010
0000
0001
0000
1000
0000
,  // measure 24
2002
0000
0000
0000
,  // measure 25
0000
0000
0000
0000
,  // measure 26
0000
0000
0000
0000
,  // measure 27
3003
0000
0000
0000
,  // measure 28
1001
0000
0001
0000
1000
0001
1000
0002
,  // measure 29
0000
0000
0010
1003
,  // measure 30
0100
0000
0010
0000
0100
0010
0100
0020
,  // measure 31
0000
0000
0100
0031
,  // measure 32
1000
0000
0001
1000
0000
0001
1000
0000
,  // measure 33
0010
0000
0100
0010
0000
0100
0010
0000
,  // measure 34
1001
0100
0010
0001
,  // measure 35
0100
0000
0010
0000
1000
0001
1000
0000
,  // measure 36
0210
0000
0000
0002
0000
0000
0303
0000
,  // measure 37
0002
0000
0000
2000
0000
0000
3003
0000
,  // measure 38
0200
0000
0000
0020
0000
0000
0330
0000
,  // measure 39
0002
0000
0000
0200
0000
0000
0303
0000
,  // measure 40
0020
0000
0000
0200
0000
0000
0330
0000
,  // measure 41
2000
0000
0000
0002
0000
0000
3003
0000
,  // measure 42
2002
0000
0000
0000
,  // measure 43
0000
0000
0000
0000
0000
0000
0000
3003
,  // measure 44
0000
0000
1001
1000
,  // measure 45
0001
0100
0001
0200
0000
0000
0010
0000
,  // measure 46
0001
0301
0100
0010
,  // measure 47
1000
0100
1000
0200
0000
0000
0001
0000
,  // measure 48
0010
0000
0310
0000
0001
1000
0001
0000
,  // measure 49
1000
0000
0010
0000
0100
0001
0100
0000
,  // measure 50
0010
0000
1000
0001
2000
0000
0010
0000
,  // measure 51
0001
0010
3002
1000
,  // measure 52
0100
2000
3003
0000
;

//---------------dance-single - Oni-91----------------
#NOTES:
     dance-single:
     :
     Easy:
     2:
     0.144816,0.169336,0.092156,0.046078,0.000000,110.000000,100.000000,10.000000,5.000000,0.000000,0.000000,0.144816,0.169336,0.092156,0.046078,0.000000,110.000000,100.000000,10.000000,5.000000,0.000000,0.000000:
// measure 0
1001
0000
0001
0000
,  // measure 1
0010
0000
0100
0100
,  // measure 2
0100
0000
0000
0000
,  // measure 3
0010
0000
0001
0000
,  // measure 4
1000
0000
0001
0000
,  // measure 5
0100
0000
0010
0010
,  // measure 6
0010
0000
0000
0000
,  // measure 7
0100
0000
0001
0000
,  // measure 8
1001
0000
0000
0000
,  // measure 9
1000
0000
0001
0000
,  // measure 10
1001
0000
0000
0000
,  // measure 11
1000
0000
0100
0100
,  // measure 12
0100
0000
0000
0000
,  // measure 13
1000
0000
2002
3003
,  // measure 14
1001
0000
0001
0000
,  // measure 15
0100
0000
0010
0100
,  // measure 16
0010
0000
0100
0000
,  // measure 17
0001
0000
0000
0000
,  // measure 18
1000
0000
0100
0000
,  // measure 19
0010
0000
0100
0010
,  // measure 20
0100
0000
0000
0000
,  // measure 21
0010
0000
0001
1000
,  // measure 22
0001
0000
0000
0000
,  // measure 23
1000
0000
0001
1000
,  // measure 24
0002
0000
0000
0000
,  // measure 25
0000
0000
0000
0000
,  // measure 26
0000
0000
0000
0000
,  // measure 27
0003
0000
0000
0000
,  // measure 28
1001
0000
0000
0000
,  // measure 29
1000
0000
0100
0010
,  // measure 30
0100
0000
0000
0000
,  // measure 31
1000
0000
0001
1000
,  // measure 32
0001
0000
0100
0010
,  // measure 33
0100
0000
0001
1000
,  // measure 34
0001
0000
1000
0000
,  // measure 35
0100
0000
0010
0000
,  // measure 36
0110
0000
0100
0000
,  // measure 37
0010
0000
0001
0000
,  // measure 38
1000
0000
0010
0000
,  // measure 39
0100
0000
0001
0000
,  // measure 40
1000
0000
0100
0000
,  // measure 41
0010
0000
0001
0000
,  // measure 42
2002
0000
0000
0000
,  // measure 43
0000
0000
0000
0000
0000
0000
0000
3003
,  // measure 44
0000
0000
1001
0000
,  // measure 45
0001
0000
0100
0000
,  // measure 46
0010
0010
0010
0000
,  // measure 47
0100
0000
0001
1000
,  // measure 48
0001
1000
0001
0000
,  // measure 49
1000
0000
0100
0000
,  // measure 50
0010
0010
0010
0000
,  // measure 51
0100
0000
0010
0000
,  // measure 52
0001
0000
1001
0000
;

//---------------dance-single - Oni-91----------------
#NOTES:
     dance-single:
     :
     Beginner:
     1:
     0.117169,0.145145,0.092156,0.000000,0.000000,89.000000,79.000000,10.000000,0.000000,0.000000,0.000000,0.117169,0.145145,0.092156,0.000000,0.000000,89.000000,79.000000,10.000000,0.000000,0.000000,0.000000:
// measure 0
1001
0000
0000
0000
,  // measure 1
1000
0000
0001
0000
,  // measure 2
0100
0000
0010
0000
,  // measure 3
0100
0000
0000
0000
,  // measure 4
0110
0000
0000
0000
,  // measure 5
0100
0000
0010
0000
,  // measure 6
1000
0000
0000
0000
,  // measure 7
0001
0000
0010
0000
,  // measure 8
0100
0000
0000
0000
,  // measure 9
0010
0000
0100
0000
,  // measure 10
0010
0000
0000
0000
,  // measure 11
1000
0000
0000
0000
,  // measure 12
0001
0000
0000
0000
,  // measure 13
1000
0000
0001
0000
,  // measure 14
1001
0000
0000
0000
,  // measure 15
1000
0000
0001
0000
,  // measure 16
0100
0000
0010
0000
,  // measure 17
0100
0000
0000
0000
,  // measure 18
0110
0000
0000
0000
,  // measure 19
0010
0000
0100
0000
,  // measure 20
0001
0000
1000
0000
,  // measure 21
0100
0000
0010
0000
,  // measure 22
0001
0000
0000
0000
,  // measure 23
1000
0000
0001
0000
,  // measure 24
1001
0000
0000
0000
,  // measure 25
0000
0000
0000
0000
,  // measure 26
0000
0000
0000
0000
,  // measure 27
0000
0000
0000
0000
,  // measure 28
1001
0000
0000
0000
,  // measure 29
1000
0000
0001
0000
,  // measure 30
1000
0000
0000
0000
,  // measure 31
0010
0000
0100
0000
,  // measure 32
0010
0000
0010
0000
,  // measure 33
0100
0000
0100
0000
,  // measure 34
0110
0000
0000
0000
,  // measure 35
0000
0000
0000
0000
,  // measure 36
0001
0000
0001
0000
,  // measure 37
1000
0000
1000
0000
,  // measure 38
0010
0000
0010
0000
,  // measure 39
0100
0000
0100
0000
,  // measure 40
0001
0000
1000
0000
,  // measure 41
0001
0000
1000
0000
,  // measure 42
1001
0000
0000
0000
,  // measure 43
0000
0000
0000
0000
,  // measure 44
0000
0000
1001
0000
,  // measure 45
0001
0000
1000
0000
,  // measure 46
1000
0000
0001
0000
,  // measure 47
0010
0000
0100
0000
,  // measure 48
0100
0000
0100
0000
,  // measure 49
0010
0000
0001
0000
,  // measure 50
1000
1000
1000
0000
,  // measure 51
0001
0000
1000
0000
,  // measure 52
0001
0000
1001
0000
;
