#TITLE:Yamaoka Akira no 'Quiz! Kajitsugou!';
#SUBTITLE:;
#ARTIST:AKIRA YAMAOKA feat. Chiaki Kyan;
#TITLETRANSLIT:;
#SUBTITLETRANSLIT:;
#ARTISTTRANSLIT:;
#GENRE:;
#CREDIT:;
#BANNER:Yamaoka Akira no 'Quiz! Kajitsugou!'.png;
#BACKGROUND:Yamaoka Akira no 'Quiz! Kajitsugou!'-bg.png;
#LYRICSPATH:;
#CDTITLE:;
#MUSIC:Yamaoka Akira no 'Quiz! Kajitsugou!'.mp3;
#OFFSET:-6.510000;
#SAMPLESTART:57.590000;
#SAMPLELENGTH:12.970000;
#SELECTABLE:YES;
#BPMS:0.000000=148.000000
;
#STOPS:
;
#BGCHANGES:;
#KEYSOUNDS:;
#ATTACKS:;

//---------------dance-single - Oni-91----------------
#NOTES:
     dance-single:
     :
     Hard:
     7:
     0.443035,0.465676,0.322843,0.332626,0.058699,317.000000,284.000000,33.000000,34.000000,0.000000,0.000000,0.443035,0.465676,0.322843,0.332626,0.058699,317.000000,284.000000,33.000000,34.000000,0.000000,0.000000:
// measure 0
0001
0000
0100
0000
0010
1000
0100
0000
,  // measure 1
0010
0001
0000
0001
1000
0000
0001
1000
,  // measure 2
0100
0000
0010
0000
0100
1000
0001
0000
,  // measure 3
1000
0001
0000
0001
0100
0000
0010
0100
,  // measure 4
0001
0000
1000
0000
0001
0010
0001
0000
,  // measure 5
1000
0000
1010
0010
0100
0000
0101
0000
,  // measure 6
0002
0000
0023
0000
0130
0010
0001
1000
,  // measure 7
0001
1001
0220
0330
,  // measure 8
0201
0000
0000
0001
0000
0000
0002
0000
0000
0000
0000
0000
0303
0000
0000
0000
,  // measure 9
0010
1000
0100
0000
0010
0001
0100
0000
,  // measure 10
2010
0000
0000
0010
0000
0000
0020
0000
0000
0000
0000
0000
3030
0000
0000
0000
,  // measure 11
1000
0010
0100
0001
0100
0010
1000
0000
,  // measure 12
2001
0000
0000
0001
0000
0000
0002
0000
0000
0000
0000
0000
3003
0000
0000
0000
,  // measure 13
1000
0001
1000
0000
0001
0010
0001
0000
,  // measure 14
2100
0000
0000
0100
0000
0000
0200
0000
0000
0000
0000
0000
3300
0000
0000
0000
,  // measure 15
1000
0100
0001
0100
1000
0000
0001
0000
,  // measure 16
0120
0000
0000
1000
0000
0000
0200
0000
0000
0000
0000
0000
0330
0000
0000
0000
,  // measure 17
1000
0100
0001
0000
1000
0010
0001
0000
,  // measure 18
0012
0000
0000
1000
0000
0000
0020
0000
0000
0000
0000
0000
0033
0000
0000
0000
,  // measure 19
0010
0001
0100
0100
0010
1000
0100
0000
,  // measure 20
2001
0000
0000
0100
0000
0000
0002
0000
0000
0000
0000
0000
3003
0000
0000
0000
,  // measure 21
1000
0010
0100
0000
0001
0010
0100
0000
,  // measure 22
0012
0000
0000
0100
0000
0000
2000
0000
0000
0000
0000
0000
3003
0000
0000
0000
,  // measure 23
1000
0100
0010
0001
0100
0000
0110
0000
,  // measure 24
1001
0001
1000
0100
,  // measure 25
0010
0000
0000
0001
0000
0000
0100
0000
0020
0000
0000
0000
0030
0000
0000
0000
,  // measure 26
0100
0001
1000
0100
,  // measure 27
0010
0000
0000
0100
0000
0000
1000
0000
0002
0000
0000
0000
0003
0000
0000
0000
,  // measure 28
1000
0000
0100
0000
1000
0001
1000
0001
,  // measure 29
0100
0000
0000
0001
0000
0000
0100
0000
0001
0000
0100
0000
0010
0000
1000
0000
,  // measure 30
0100
0000
0010
0000
0001
1000
1000
0010
,  // measure 31
0110
0220
0000
0330
,  // measure 32
0010
1000
0001
0010
0001
0100
0001
1000
,  // measure 33
0200
0001
0010
1300
,  // measure 34
1000
0010
0100
0001
0010
0000
0100
0000
,  // measure 35
0110
0000
0010
0000
0001
1000
0010
0100
,  // measure 36
0001
0000
1000
0010
0100
0000
0001
0000
,  // measure 37
1000
0001
1000
0010
0100
0000
0110
0000
,  // measure 38
1001
0000
0001
0010
0100
0000
0010
0000
,  // measure 39
1001
2002
0000
3003
,  // measure 40
0101
0000
0001
0100
1000
0100
1000
0001
,  // measure 41
0020
0100
1000
0100
,  // measure 42
1030
0000
0010
1000
0010
0100
0001
0010
,  // measure 43
0100
0000
0110
0000
0010
0001
1000
0001
,  // measure 44
0100
0000
0001
0100
1000
0000
0001
0010
,  // measure 45
1000
0001
1100
1001
,  // measure 46
1000
0100
1000
1000
0001
0100
0010
0010
,  // measure 47
0100
2002
0000
3003
,  // measure 48
0220
0000
0330
0000
0100
0010
1000
0010
,  // measure 49
0100
0001
0000
0101
0000
0000
0001
0010
,  // measure 50
0100
0000
0010
0001
1000
0001
0100
0010
,  // measure 51
1000
0001
0000
1001
0000
0000
1000
0010
,  // measure 52
0200
0000
0300
0000
0010
0100
0001
0010
,  // measure 53
0100
0010
0000
1001
0000
0000
1000
0010
,  // measure 54
1010
0000
0101
0000
0001
1000
0100
0010
,  // measure 55
0100
0000
0200
0000
0000
0000
0310
0000
0001
0000
0000
0001
1000
0000
0010
0000
,  // measure 56
0110
0000
0000
0000
;

//---------------dance-single - Oni-91----------------
#NOTES:
     dance-single:
     :
     Medium:
     5:
     0.343806,0.356105,0.195662,0.342409,0.000000,246.000000,226.000000,20.000000,35.000000,0.000000,0.000000,0.343806,0.356105,0.195662,0.342409,0.000000,246.000000,226.000000,20.000000,35.000000,0.000000,0.000000:
// measure 0
1001
0000
0000
1000
0002
0000
0000
0000
,  // measure 1
1003
0010
0100
0001
,  // measure 2
0100
0000
0000
0010
0200
0000
0000
0000
,  // measure 3
0310
1000
0001
1000
,  // measure 4
0100
0000
0000
0010
0200
0000
0000
0000
,  // measure 5
1300
0000
0001
1000
0001
0000
1000
0000
,  // measure 6
0001
0010
1000
0010
,  // measure 7
0001
0000
1000
0001
1000
0000
0001
0000
,  // measure 8
0220
0000
0330
0000
,  // measure 9
0010
0100
0010
0000
1000
0001
1000
0000
,  // measure 10
2002
0000
3003
0000
,  // measure 11
1000
0100
1000
0000
0001
0100
0001
0000
,  // measure 12
0220
0000
0330
0000
,  // measure 13
0010
1000
0100
0000
0010
0001
0100
0000
,  // measure 14
2002
0000
3003
0000
,  // measure 15
1000
0100
0010
0000
0100
0000
1000
0000
,  // measure 16
2002
3000
0103
0001
,  // measure 17
1000
0100
1000
0000
0001
0010
0001
0000
,  // measure 18
2002
0003
3100
0001
,  // measure 19
0010
0001
0100
0000
0010
0100
0001
0000
,  // measure 20
0220
0030
0301
1000
,  // measure 21
0001
0010
0100
0000
0010
0100
1000
0000
,  // measure 22
2002
0003
3010
0001
,  // measure 23
1000
0100
0010
0001
1000
0000
0001
0000
,  // measure 24
2001
0000
3010
1000
,  // measure 25
0100
0000
0010
0100
0010
0000
0000
0000
,  // measure 26
0210
0000
0310
0001
,  // measure 27
1000
0000
0001
0100
0001
0000
0000
0000
,  // measure 28
1000
0010
0100
0001
,  // measure 29
0010
0001
1000
0100
,  // measure 30
0020
0000
0001
0000
0100
0100
0130
0000
,  // measure 31
1001
2002
0000
3003
,  // measure 32
1000
0000
0001
0000
1000
0010
0100
0000
,  // measure 33
0020
0100
1000
0130
,  // measure 34
0010
0000
1000
0001
1000
0000
0001
0010
,  // measure 35
0100
0000
0010
0000
0001
0000
1000
0001
,  // measure 36
0100
0010
0100
0001
,  // measure 37
1000
0100
0010
0100
,  // measure 38
1000
0000
0000
1000
0001
0000
1000
0000
,  // measure 39
1001
0220
0000
0330
,  // measure 40
0010
0000
1000
0000
0001
1000
0100
0000
,  // measure 41
0020
0001
0100
0031
,  // measure 42
1000
0000
0001
1000
0010
0000
1000
0000
,  // measure 43
0001
0000
0010
0000
0100
0010
0001
0000
,  // measure 44
1000
0000
0000
0010
1000
0000
0001
0000
,  // measure 45
1000
0000
0000
0001
0010
0000
0100
0000
,  // measure 46
0010
0000
0001
0001
0001
0000
1000
0000
,  // measure 47
1001
2002
0000
3003
,  // measure 48
0220
0330
0010
1000
,  // measure 49
0001
0000
1000
0000
0100
0000
0010
0100
,  // measure 50
0020
0030
0001
0010
,  // measure 51
0001
0000
1000
0000
0010
0000
0100
0001
,  // measure 52
0200
0300
0010
1000
,  // measure 53
0001
0000
1000
0000
0100
0000
0010
0001
,  // measure 54
2000
0000
0010
0000
0100
0100
3100
0000
,  // measure 55
0010
0001
0000
1000
0001
0000
0110
0000
,  // measure 56
1001
0000
0000
0000
;

//---------------dance-single - Oni-91----------------
#NOTES:
     dance-single:
     :
     Easy:
     3:
     0.240385,0.273927,0.117397,0.166313,0.000000,172.000000,160.000000,12.000000,17.000000,0.000000,0.000000,0.240385,0.273927,0.117397,0.166313,0.000000,172.000000,160.000000,12.000000,17.000000,0.000000,0.000000:
// measure 0
1000
0000
0001
0000
,  // measure 1
0100
0001
0100
0000
,  // measure 2
0010
0000
0100
0000
,  // measure 3
0010
1000
0010
0000
,  // measure 4
1000
0000
0001
0000
,  // measure 5
1000
0100
0010
0001
,  // measure 6
1000
0000
0001
0000
,  // measure 7
1000
0010
0100
0001
,  // measure 8
2002
0000
3003
0000
,  // measure 9
1000
0100
0001
0100
,  // measure 10
1000
0000
0000
0000
,  // measure 11
0001
0100
1000
0100
,  // measure 12
0001
0000
0000
0000
,  // measure 13
1000
0100
0010
0001
,  // measure 14
0100
0000
0000
0000
,  // measure 15
0001
0100
0010
1000
,  // measure 16
2002
0000
0000
3003
,  // measure 17
1000
0100
1000
0001
,  // measure 18
2002
0000
0000
3003
,  // measure 19
0001
0100
0001
0100
,  // measure 20
0220
0000
0000
0330
,  // measure 21
0010
1000
0100
0010
,  // measure 22
0220
0000
0000
0330
,  // measure 23
0010
0001
1000
0001
,  // measure 24
1002
0000
0100
0000
,  // measure 25
1000
1000
1003
0000
,  // measure 26
2000
0000
0010
0000
,  // measure 27
0001
0001
3001
0000
,  // measure 28
1000
0100
0010
0001
,  // measure 29
1000
0010
0100
0001
,  // measure 30
1000
0001
1000
0001
,  // measure 31
2002
3003
0000
0000
,  // measure 32
1001
0000
0001
0000
,  // measure 33
1000
0100
1000
0001
,  // measure 34
0100
0000
0010
0000
,  // measure 35
0100
0010
0100
0001
,  // measure 36
1000
0000
0001
0000
,  // measure 37
1000
0100
0010
0001
,  // measure 38
0100
0000
0010
0100
,  // measure 39
0020
0030
0000
0000
,  // measure 40
1001
0000
0001
1000
,  // measure 41
0100
0010
0100
1000
,  // measure 42
0001
0000
1000
0010
,  // measure 43
0100
0010
1000
0001
,  // measure 44
0010
0000
0001
0010
,  // measure 45
0100
0010
0001
1000
,  // measure 46
0010
0100
0001
1000
,  // measure 47
2002
3003
0000
0000
,  // measure 48
1001
0000
0001
1000
,  // measure 49
0100
0010
0100
0000
,  // measure 50
0010
0000
0001
0010
,  // measure 51
0001
1000
0100
0000
,  // measure 52
1000
0000
0010
0100
,  // measure 53
0001
1000
0100
0000
,  // measure 54
1000
0010
0100
0001
,  // measure 55
0010
0100
1000
0001
,  // measure 56
1001
0000
0000
0000
;

//---------------dance-single - Oni-91----------------
#NOTES:
     dance-single:
     :
     Beginner:
     1:
     0.145349,0.164356,0.068482,0.000000,0.000000,104.000000,97.000000,7.000000,0.000000,0.000000,0.000000,0.145349,0.164356,0.068482,0.000000,0.000000,104.000000,97.000000,7.000000,0.000000,0.000000,0.000000:
// measure 0
1000
0000
0001
0000
,  // measure 1
0010
0000
0000
0000
,  // measure 2
0100
0000
0010
0000
,  // measure 3
0001
0000
0000
0000
,  // measure 4
1000
0000
0001
0000
,  // measure 5
0100
0000
0000
0000
,  // measure 6
0010
0000
0100
0000
,  // measure 7
0001
0000
1000
0000
,  // measure 8
1001
0000
0000
0000
,  // measure 9
1000
0000
0001
0000
,  // measure 10
1000
0000
0000
0000
,  // measure 11
0001
0000
0010
0000
,  // measure 12
0001
0000
0000
0000
,  // measure 13
1000
0000
0100
0000
,  // measure 14
1000
0000
0000
0000
,  // measure 15
0100
0000
0010
0000
,  // measure 16
0110
0000
0000
0000
,  // measure 17
0010
0000
0001
0000
,  // measure 18
1000
0000
0000
0000
,  // measure 19
0001
0000
1000
0000
,  // measure 20
0010
0000
0000
0000
,  // measure 21
0100
0000
0010
0000
,  // measure 22
1000
0000
0000
0000
,  // measure 23
0001
0000
1000
0000
,  // measure 24
1001
0000
0001
0000
,  // measure 25
1000
0000
0000
0000
,  // measure 26
0001
0000
0010
0000
,  // measure 27
0100
0000
0010
0000
,  // measure 28
0001
0000
0000
0000
,  // measure 29
1000
0000
0000
0000
,  // measure 30
0001
0000
1000
0000
,  // measure 31
1001
0000
0000
0000
,  // measure 32
1001
0000
0001
0000
,  // measure 33
1000
0000
0010
0000
,  // measure 34
0100
0000
0000
0000
,  // measure 35
0010
0000
1000
1000
,  // measure 36
1000
0000
0001
0000
,  // measure 37
0010
0000
0001
0000
,  // measure 38
1000
0000
0001
0000
,  // measure 39
1000
1000
0000
0000
,  // measure 40
1001
0000
0001
0000
,  // measure 41
0100
0000
0010
0000
,  // measure 42
0100
0000
0000
0000
,  // measure 43
0001
0000
1000
1000
,  // measure 44
1000
0000
0001
0000
,  // measure 45
0010
0000
0100
0000
,  // measure 46
0010
0000
0000
0001
,  // measure 47
0001
0000
1000
1000
,  // measure 48
1000
0000
0000
0000
,  // measure 49
0001
0000
0100
0000
,  // measure 50
0001
0000
1000
0000
,  // measure 51
0100
0000
0010
0000
,  // measure 52
0100
0000
0000
0000
,  // measure 53
0010
0000
0001
0000
,  // measure 54
1000
0000
0100
0000
,  // measure 55
0010
0000
0001
0000
,  // measure 56
1001
0000
0000
0000
;
