#VERSION:0.83;
#TITLE:Wuv U;
#SUBTITLE:;
#ARTIST:kors k;
#TITLETRANSLIT:;
#SUBTITLETRANSLIT:;
#ARTISTTRANSLIT:;
#GENRE:;
#ORIGIN:;
#CREDIT:;
#BANNER:Wuv U.png;
#BACKGROUND:Wuv U-bg.png;
#PREVIEWVID:;
#JACKET:;
#CDIMAGE:;
#DISCIMAGE:;
#LYRICSPATH:;
#CDTITLE:;
#MUSIC:Wuv U.mp3;
#OFFSET:-0.720000;
#SAMPLESTART:66.412758;
#SAMPLELENGTH:13.870827;
#SELECTABLE:YES;
#BPMS:0.000=173.025;
#STOPS:;
#DELAYS:;
#WARPS:;
#TIMESIGNATURES:0.000=4=4;
#TICKCOUNTS:0.000=4;
#COMBOS:0.000=1;
#SPEEDS:0.000=1.000=0.000=0;
#SCROLLS:0.000=1.000;
#FAKES:;
#LABELS:0.000=Song Start;
#BGCHANGES:-4.000=Wuv U.avi=1.000=1=0=0=StretchNoLoop==CrossFade==,
99999=-nosongbg-=1.000=0=0=0 // don't automatically add -songbackground-
;
#KEYSOUNDS:;
#ATTACKS:
;

//---------------dance-single - Oni-91----------------
#NOTEDATA:;
#CHARTNAME:;
#STEPSTYPE:dance-single;
#DESCRIPTION:Oni-91;
#CHARTSTYLE:;
#DIFFICULTY:Hard;
#METER:8;
#RADARVALUES:0.555111,0.624500,0.501735,0.309581,0.021350,364.000000,317.000000,47.000000,29.000000,0.000000,0.000000,0.000000,0.000000,0.000000,0.555111,0.624500,0.501735,0.309581,0.021350,364.000000,317.000000,47.000000,29.000000,0.000000,0.000000,0.000000,0.000000,0.000000;
#CREDIT:Oni-91;
#NOTES:
// measure 0
0000
0000
0000
0000
,  // measure 1
0000
0000
0000
0000
,  // measure 2
0000
0000
0000
0000
,  // measure 3
0000
0000
0000
0000
,  // measure 4
0001
0000
1000
0001
0000
1000
0000
0010
,  // measure 5
0100
0010
0100
0000
0010
0000
1001
0000
,  // measure 6
1000
0100
0010
0001
0000
0100
0010
1000
,  // measure 7
2002
0000
3003
0000
1000
0100
0010
0001
,  // measure 8
0100
0000
0010
0100
0001
0000
1001
0000
,  // measure 9
1000
0100
0001
0100
1000
0000
1001
0000
,  // measure 10
0001
0100
0010
0100
0001
0000
1000
0100
,  // measure 11
0000
0010
0100
1000
1100
0000
1001
0000
,  // measure 12
0101
0000
0100
0010
1000
0000
1001
0000
,  // measure 13
0010
0001
0100
0010
0100
0000
1001
0000
,  // measure 14
0001
0010
0100
0010
0100
1000
0100
0020
,  // measure 15
0000
0001
0000
0100
0200
0000
0330
0000
,  // measure 16
1001
0000
1001
0000
0001
0100
0001
0100
,  // measure 17
0010
1000
0010
1000
0001
0100
0001
0000
,  // measure 18
1000
1000
0100
0000
0010
0010
0001
0000
,  // measure 19
1010
0000
0101
0000
0010
0100
1001
0000
,  // measure 20
0110
0000
1001
0000
0001
0100
0001
0100
,  // measure 21
0010
1000
0001
1000
0100
0010
0001
0000
,  // measure 22
0100
0100
0010
0000
1000
1000
0001
0000
,  // measure 23
0011
1100
2020
3030
,  // measure 24
0001
1000
0001
1000
0001
0000
0000
0000
1000
0000
0001
0000
1000
0000
0001
0000
,  // measure 25
0100
0001
0100
0001
0100
0010
2000
0000
,  // measure 26
3001
0010
0100
0000
0010
0001
1000
0000
,  // measure 27
1010
0101
0210
0301
,  // measure 28
0001
0100
0000
0100
0010
0000
0010
1000
,  // measure 29
0000
0000
1000
0000
0001
0000
0000
0000
1000
0001
1000
0001
1000
0000
0000
0000
,  // measure 30
0001
0010
0100
1000
0100
0010
0001
0000
,  // measure 31
1000
0010
0100
0010
0100
0001
1001
0000
,  // measure 32
0210
0000
0000
0000
,  // measure 33
0302
0000
0000
0000
,  // measure 34
2003
0000
0000
0000
,  // measure 35
3200
0000
0000
0000
,  // measure 36
0320
0000
0031
0002
0000
0000
0000
0000
,  // measure 37
0203
0000
0310
0020
0000
0000
0100
0000
,  // measure 38
2030
0000
3100
0200
0000
0010
0000
0310
,  // measure 39
0100
0010
2002
3003
,  // measure 40
1000
0100
0010
0001
,  // measure 41
1000
0000
0001
0100
1000
0000
0100
0000
,  // measure 42
0001
0000
1000
0000
0100
0000
0010
0001
,  // measure 43
0000
0001
1000
0010
0100
0000
0010
0000
,  // measure 44
1000
0000
0001
0010
0220
0000
0330
0000
,  // measure 45
0001
0000
1000
0010
0220
0000
0330
0000
,  // measure 46
0100
0010
1001
0000
0010
0100
1001
0000
,  // measure 47
0220
0000
0000
0330
,  // measure 48
1001
0000
0001
0100
0010
0000
1000
0010
,  // measure 49
0000
0010
1000
0001
0010
0000
0110
0000
,  // measure 50
0100
0010
0001
0100
0010
0000
1000
0001
,  // measure 51
0000
1000
0100
0010
0011
0000
1100
0000
,  // measure 52
1001
0000
0001
0100
0010
0000
0100
1000
,  // measure 53
0000
1000
0100
0001
1000
0000
1001
0000
,  // measure 54
0001
0010
0001
1000
0010
0100
0001
0020
,  // measure 55
0000
0100
0130
0000
0110
0000
1001
0000
,  // measure 56
1000
0100
0010
0100
0001
0100
0010
0000
,  // measure 57
0001
0100
0010
0100
1000
0100
0010
0000
,  // measure 58
0100
0001
0001
1000
0100
0001
0100
0010
,  // measure 59
0011
0101
1010
1100
,  // measure 60
0001
0100
0010
0100
0001
1000
1100
0000
,  // measure 61
1000
0100
0010
0100
0010
0001
0101
0000
,  // measure 62
0001
0100
0000
0010
1000
0000
0001
1000
,  // measure 63
0000
1000
0100
0010
0011
0000
1100
0000
,  // measure 64
2002
0000
0000
0000
,  // measure 65
3003
0000
0000
0000
;

//---------------dance-single - Oni-91----------------
#NOTEDATA:;
#CHARTNAME:;
#STEPSTYPE:dance-single;
#DESCRIPTION:Oni-91;
#CHARTSTYLE:;
#DIFFICULTY:Medium;
#METER:6;
#RADARVALUES:0.448359,0.520416,0.362957,0.384307,0.000000,294.000000,260.000000,34.000000,36.000000,0.000000,0.000000,0.000000,0.000000,0.000000,0.448359,0.520416,0.362957,0.384307,0.000000,294.000000,260.000000,34.000000,36.000000,0.000000,0.000000,0.000000,0.000000,0.000000;
#CREDIT:Oni-91;
#NOTES:
// measure 0
0000
0000
0000
0000
,  // measure 1
0000
0000
0000
0000
,  // measure 2
0000
0000
0000
0000
,  // measure 3
0000
0000
0000
0000
,  // measure 4
0001
0000
0000
1000
0000
0000
0001
0000
,  // measure 5
0100
0010
1000
0100
,  // measure 6
0010
0000
0000
0100
0000
0010
0100
0000
,  // measure 7
2002
0000
3003
0000
0001
1000
0001
0000
,  // measure 8
1000
0000
0100
1000
0100
0000
1001
0000
,  // measure 9
0001
0000
0100
0001
0100
0000
1001
0000
,  // measure 10
0001
0000
0010
0000
0100
0000
1000
0100
,  // measure 11
0000
0010
0001
0000
0110
0000
1001
0000
,  // measure 12
0001
0000
0100
0001
1000
0000
1100
0000
,  // measure 13
1000
0000
0010
1000
0001
0000
0011
0000
,  // measure 14
0110
0000
0100
0010
0001
0000
0100
0010
,  // measure 15
1000
0001
2002
3003
,  // measure 16
0001
0000
0100
0000
0001
1000
0001
0000
,  // measure 17
1000
0100
1000
0000
0001
0010
0001
0000
,  // measure 18
1000
0000
0100
0000
0010
0001
0100
0000
,  // measure 19
0110
0110
1001
1001
,  // measure 20
0001
0000
0100
0000
0010
1000
0010
0000
,  // measure 21
1000
0001
0100
0000
0001
1000
0100
0000
,  // measure 22
1000
0001
0010
0000
0110
0000
1002
0000
,  // measure 23
0100
0100
0200
0303
,  // measure 24
0001
0001
0001
0000
1000
0000
0100
0000
,  // measure 25
0010
0100
0010
0000
0001
1000
0001
0000
,  // measure 26
1000
0000
0100
0000
0010
0001
0100
0000
,  // measure 27
1010
0101
2002
3003
,  // measure 28
0001
1000
0000
0001
1000
0000
0010
0100
,  // measure 29
0000
0010
0100
0000
0110
0000
1001
0000
,  // measure 30
1000
0100
0010
0000
0001
0100
0010
0000
,  // measure 31
1000
0001
1000
0001
0020
0000
0030
0000
,  // measure 32
1002
0000
0000
0000
,  // measure 33
2003
0000
0000
0000
,  // measure 34
3002
0000
0000
0000
,  // measure 35
0203
0000
0000
0000
,  // measure 36
0320
0000
0000
2030
0000
0000
0000
0000
,  // measure 37
3200
0000
0000
0320
0000
0000
0032
0000
,  // measure 38
0203
0000
0000
0320
0000
0000
1030
0000
,  // measure 39
0001
1000
2002
3003
,  // measure 40
1000
0001
0200
0300
,  // measure 41
0010
0000
1000
0001
2000
0000
3000
0000
,  // measure 42
0001
0000
0010
0000
0100
0000
0010
0001
,  // measure 43
0000
0010
0001
0000
1000
0000
0001
0000
,  // measure 44
0210
0010
0020
0330
,  // measure 45
1002
1000
2000
3003
,  // measure 46
1000
0100
0010
0001
,  // measure 47
0220
0000
0330
0000
0001
1000
0001
0000
,  // measure 48
1000
0000
0100
1000
0001
0000
1000
0001
,  // measure 49
0000
1000
0001
0000
0100
0000
0010
0000
,  // measure 50
0100
0000
0001
0010
0100
0000
0010
0001
,  // measure 51
1000
0000
0010
0100
0001
0000
1010
0000
,  // measure 52
1001
0000
0001
0010
0100
0000
0010
0001
,  // measure 53
0000
1000
0100
1000
0001
0000
0100
0000
,  // measure 54
0010
0100
0010
0100
0010
0000
1000
0000
,  // measure 55
0001
0010
0220
0330
,  // measure 56
0010
0001
0010
0001
0010
0000
0001
0000
,  // measure 57
1000
0010
1000
0010
1000
0000
0001
0000
,  // measure 58
1000
0100
0010
0001
,  // measure 59
0110
1001
0220
0330
,  // measure 60
0010
1000
0001
1000
0100
0000
0010
0000
,  // measure 61
0100
0010
0001
0010
0100
0000
0010
0000
,  // measure 62
0001
0100
0000
0100
0001
0000
0001
1000
,  // measure 63
0000
1000
0001
0000
0110
0000
1001
0000
,  // measure 64
0220
0000
0000
0000
,  // measure 65
0330
0000
0000
0000
;

//---------------dance-single - Oni-91----------------
#NOTEDATA:;
#CHARTNAME:;
#STEPSTYPE:dance-single;
#DESCRIPTION:Oni-91;
#CHARTSTYLE:;
#DIFFICULTY:Easy;
#METER:5;
#RADARVALUES:0.344657,0.485722,0.491060,0.416333,0.000000,226.000000,180.000000,46.000000,39.000000,0.000000,0.000000,0.000000,0.000000,0.000000,0.344657,0.485722,0.491060,0.416333,0.000000,226.000000,180.000000,46.000000,39.000000,0.000000,0.000000,0.000000,0.000000,0.000000;
#CREDIT:Oni-91;
#NOTES:
// measure 0
0000
0000
0000
0000
,  // measure 1
0000
0000
0000
0000
,  // measure 2
0000
0000
0000
0000
,  // measure 3
0000
0000
0000
0000
,  // measure 4
1001
0000
0000
1001
0000
0000
0000
0000
,  // measure 5
0001
0100
0010
1000
,  // measure 6
0110
0000
0000
0110
0000
0000
0000
0000
,  // measure 7
2002
0000
0000
3003
,  // measure 8
0001
0100
0010
0110
,  // measure 9
0100
0001
1000
1001
,  // measure 10
0001
0010
0100
0010
,  // measure 11
0001
1000
1001
1001
,  // measure 12
0001
0100
0001
1001
,  // measure 13
1000
0100
1000
1001
,  // measure 14
0001
0010
0100
1000
,  // measure 15
2002
0000
0000
3003
,  // measure 16
0220
0330
0100
0001
,  // measure 17
1000
0100
0010
0100
,  // measure 18
1000
0000
0001
0000
,  // measure 19
1000
0001
0100
0010
,  // measure 20
0100
0100
0001
0001
,  // measure 21
1000
0100
0010
0001
,  // measure 22
0100
0000
0001
0000
,  // measure 23
0220
0000
0000
0330
,  // measure 24
1000
1000
1000
0000
0001
0000
0100
0000
,  // measure 25
0010
1000
2002
3003
,  // measure 26
0220
0330
2002
3003
,  // measure 27
0010
0100
2002
3003
,  // measure 28
0001
0000
0000
0100
0000
0000
0001
0000
,  // measure 29
0000
1000
0000
0000
0001
0000
1000
0000
,  // measure 30
0001
0001
1000
1000
,  // measure 31
0010
0100
0220
0330
,  // measure 32
2002
0000
0000
0000
,  // measure 33
0000
0000
0000
0000
,  // measure 34
0000
0000
0000
0000
,  // measure 35
0003
0000
0000
0000
,  // measure 36
3200
0000
0000
0000
,  // measure 37
0320
0000
0000
0000
,  // measure 38
0032
0000
2003
0000
,  // measure 39
3020
0000
0000
0000
,  // measure 40
0130
0100
0200
0000
,  // measure 41
0301
0001
0002
0000
,  // measure 42
1003
0100
0010
0001
,  // measure 43
0100
0010
0220
0330
,  // measure 44
0010
1000
2002
3003
,  // measure 45
0001
0010
0220
0330
,  // measure 46
0100
1000
0001
0100
,  // measure 47
0220
0000
0000
0330
,  // measure 48
0010
1000
0001
1001
,  // measure 49
1000
0100
0010
0110
,  // measure 50
0100
1000
0001
0100
,  // measure 51
0010
0100
0110
0110
,  // measure 52
0010
0100
0001
1001
,  // measure 53
1000
0100
0010
0110
,  // measure 54
0100
1000
0001
0100
,  // measure 55
0220
0330
1001
1001
,  // measure 56
0001
0100
0010
1001
,  // measure 57
1000
0100
0010
1001
,  // measure 58
1000
0100
0010
0001
,  // measure 59
0100
0010
0110
0110
,  // measure 60
0100
0001
1000
1001
,  // measure 61
0001
0010
0100
0110
,  // measure 62
1001
0000
0000
1001
0000
0000
0110
0000
,  // measure 63
0000
0110
0000
0000
1001
0000
1001
0000
,  // measure 64
2002
0000
0000
0000
,  // measure 65
3003
0000
0000
0000
;

//---------------dance-single - Oni-91----------------
#NOTEDATA:;
#CHARTNAME:;
#STEPSTYPE:dance-single;
#DESCRIPTION:Oni-91;
#CHARTSTYLE:;
#DIFFICULTY:Beginner;
#METER:2;
#RADARVALUES:0.176903,0.239125,0.117427,0.000000,0.000000,116.000000,105.000000,11.000000,0.000000,0.000000,0.000000,0.000000,0.000000,0.000000,0.176903,0.239125,0.117427,0.000000,0.000000,116.000000,105.000000,11.000000,0.000000,0.000000,0.000000,0.000000,0.000000,0.000000;
#CREDIT:Oni-91;
#NOTES:
// measure 0
0000
0000
0000
0000
,  // measure 1
0000
0000
0000
0000
,  // measure 2
0000
0000
0000
0000
,  // measure 3
0000
0000
0000
0000
,  // measure 4
1001
0000
0000
0000
,  // measure 5
1000
0000
0001
0000
,  // measure 6
0110
0000
0000
0000
,  // measure 7
1001
0000
0000
0000
,  // measure 8
1000
0000
0001
0000
,  // measure 9
0100
0100
0100
0000
,  // measure 10
0001
0000
1000
0000
,  // measure 11
0100
0000
0010
0000
,  // measure 12
0100
0000
1000
0000
,  // measure 13
0001
0001
0001
0000
,  // measure 14
1000
0000
0010
0000
,  // measure 15
1001
0000
0000
0000
,  // measure 16
0001
0000
0100
0000
,  // measure 17
0001
0000
1000
0000
,  // measure 18
0100
0000
1000
0000
,  // measure 19
0001
0000
0000
0000
,  // measure 20
1000
0000
0100
0000
,  // measure 21
1000
0000
0010
0000
,  // measure 22
0100
0000
0001
0000
,  // measure 23
0010
0010
0010
0010
,  // measure 24
0010
0000
0100
0000
,  // measure 25
1000
0000
0000
0000
,  // measure 26
0001
0000
0100
0000
,  // measure 27
0001
0001
0001
0000
,  // measure 28
1001
0000
0000
0000
,  // measure 29
0000
0000
0000
0000
,  // measure 30
0010
0000
0100
0000
,  // measure 31
0010
0000
1000
0000
,  // measure 32
1001
0000
0000
0000
,  // measure 33
0000
0000
0000
0000
,  // measure 34
0000
0000
0000
0000
,  // measure 35
0000
0000
0000
0000
,  // measure 36
0001
0000
0000
0000
,  // measure 37
0100
0000
0000
0000
,  // measure 38
0001
0000
1000
0000
,  // measure 39
0001
0000
0000
0000
,  // measure 40
0100
0000
0100
0000
,  // measure 41
0010
0000
0010
0000
,  // measure 42
1000
0000
0001
0000
,  // measure 43
1000
0000
0100
0000
,  // measure 44
0110
0000
0000
0000
,  // measure 45
1001
0000
0000
0000
,  // measure 46
0010
0000
0100
0000
,  // measure 47
0110
0000
0000
0000
,  // measure 48
0010
0000
1000
0000
,  // measure 49
0001
0001
0001
0000
,  // measure 50
1000
0000
0100
0000
,  // measure 51
0010
0000
0100
0000
,  // measure 52
0010
0000
0001
0000
,  // measure 53
1000
1000
1000
0000
,  // measure 54
0001
0000
0100
0000
,  // measure 55
0010
0000
0000
0000
,  // measure 56
0100
0000
0010
0000
,  // measure 57
1000
1000
1000
0000
,  // measure 58
0001
0000
1000
0000
,  // measure 59
0001
0001
0001
0000
,  // measure 60
0010
0000
0100
0000
,  // measure 61
0010
0010
0010
0000
,  // measure 62
1001
0000
0000
0000
,  // measure 63
0000
0000
0000
0000
,  // measure 64
0110
0000
0000
0000
;
